Скачать через торрент век адалин в хорошем качестве


Скачать фильм Век Адалин (2015) через торрент

6 апреля 2016 08:11 Век Адалин / The Age of Adaline (2015) BDRip-AVC от HELLYWOOD | iTunes .torrent   [Информация о файле (нажмите для просмотра)] Перевод: Дубляж [iTunes]Субтитры: русскиеКачество: BDRip-AVCФормат: MKVВидео: AVC, 984x410 (2.40:1), 1410 kbps, 23,976 fps, 0.146 bit/pixelАудио: AC3 / 5.1 / 48 kHz / 384 kbps / 16 bit 1,41 Gb 127 6 6 апреля 2016 08:11 Век Адалин / The Age of Adaline (2015) BDRip-AVC от HELLYWOOD | iTunes .torrent   [Информация о файле (нажмите для просмотра)] Перевод: Дубляж [iTunes]Субтитры: русские, английские (Full + SDH + SDH-Colored)Качество: BDRip-AVCФормат: MKVВидео: AVC, 1056x440 (2.40:1), 1878 kbps, 23,976 fps, 0,169 bppАудио №1: AC3 / 5.1 / 48 kHz / 384 kbps / 16 bit| RUS Аудио №2: AC3 / 5.1 / 48 kHz / 448 kbps / 16 bit| ENG 2,13 Gb 79 4 6 апреля 2016 08:11 Век Адалин / The Age of Adaline (2015) HDRip от Scarabey | iTunes .torrent   [Информация о файле (нажмите для просмотра)] Перевод: Профессиональный (полное дублирование) [iTunes]Видео: 720x304 (2.37:1), 23.976 fps, XviD build 73 ~1575 kbps avg, 0.30 bit/pixelАудио: 48 kHz, AC3 Dolby Digital, 3/2 (L,C,R,l,r) + LFE ch, ~384.00 kbps avg 1,4 Gb 135 7 6 апреля 2016 08:11 Век Адалин / The Age of Adaline (2015) Blu-Ray от BlueBird | iTunes .torrent   [Информация о файле (нажмите для просмотра)] Перевод: полное дублирование[iTunes]Кодек: MPEG-4 AVCКачество: Blu-RayВидео: 24994 Кbps, 1920x1080, 23.976 fpsАудио 1: Dolby TrueHD 8 ch, 48.0 KHz, 4414 Кbps(английский)Аудио 2: Dolby Digital 6 ch, 48.0 KHz, 384 Кbps(русский)Аудио 3: Dolby Digital 2 ch, 48.0 KHz, 224 Кbps(комментарии)Субтитры: русские, английскиеBD-InfoDISC INFO: 36,25 Gb 9 4 6 апреля 2016 08:11 Век Адалин / The Age of Adaline (2015) HDRip от Scarabey | iTunes .torrent   [Информация о файле (нажмите для просмотра)] Перевод: Профессиональный (полное дублирование) [iTunes]Видео: 688x288 (2.39:1), 23.976 fps, XviD build 73 ~787 kbps avg, 0.17 bit/pixelАудио: 48 kHz, MPEG Layer 3, 2 ch, ~128.00 kbps avg 744,35 Mb 37 5 6 апреля 2016 08:11 Век Адалин / The Age of Adaline (2015) HDRip-AVC от ExKinoRay | iTunes .torrent   [Информация о файле (нажмите для просмотра)] Качество: HDRip (AVC)Видео: MPEG-4 AVC, 1675 Кбит/с, 1024x426Аудио: Русский (AC3, 6 ch, 384 Кбит/с), английский (AC3, 6 ch, 448 Кбит/с)Субтитры: Русские, английские, французские 1,97 Gb 99 3 6 апреля 2016 08:11 Век Адалин / The Age of Adaline (2015) BDRip 720p от Scarabey | iTunes .torrent   [Информация о файле (нажмите для просмотра)] Перевод: Профессиональный (полное дублирование) [iTunes]Видео: 1280x534 (2.35:1), 23.976 fps, AVC ~5583 Kbps avgАудио: 48 kHz, AC3 Dolby Digital, 3/2 (L,C,R,l,r) + LFE ch, ~384.00 kbps avg - дубляжАудио: 48 kHz, AC3 Dolby Digital, 3/2 (L,C,R,l,r) + LFE ch, ~640.00 kbps avg - оригинал 5,42 Gb 146 7 6 апреля 2016 08:11 Век Адалин / The Age of Adaline (2015) BDRip 1080p | iTunes .torrent   [Информация о файле (нажмите для просмотра)] Перевод: Дублированный [iTunes]Субтитры: АнглийскиеКодек: MPEG-4 AVCКачество: BDRip (1080p)Видео: 15100 Кбит/с, 1920x800Звук: Русский (AC3, 6 ch, 384 Кбит/с), английский (AC3, 6 ch, 640 Кбит/с), (AAC, 2 ch, 96 Кбит/с) 11,86 Gb 83 11 6 апреля 2016 08:11 Век Адалин / The Age of Adaline (2015) HDRip | iTunes .torrent   [Информация о файле (нажмите для просмотра)] Перевод: Дублированный [iTunes]Кодек: XviDКачество: HDRipВидео: 1458 Кбит/с, 720x304Звук: Русский (AC3, 6 ch, 384 Кбит/с) 1,45 Gb 599 8 6 апреля 2016 08:11 Век Адалин / The Age of Adaline (2015) HDRip от -=HD-NET=- | КПК | Чистый звук .torrent   [Информация о файле (нажмите для просмотра)] Перевод: Профессиональный (полное дублирование) [Чистый звук]Кодек: х264Качество: HDRip | КПКВидео: MPEG-4, 480 х 200, 23,976 fps, 375 Кбит/сАудио: ААС LC, 2 ch, 128 Кбит/с 406,76 Mb 34 4 6 апреля 2016 08:11 Век Адалин / The Age of Adaline (2015) BDRip от MediaClub | КПК | Чистый звук .torrent   [Информация о файле (нажмите для просмотра)] Качество: BDRipВидео: MPEG-4 AVC, 500 Кбит/с, 480x270, 23.976 кадр/сАудио: Русский (AAC, 2 ch, 128 Кбит/с) / Дублированный 515,21 Mb 19 3 6 апреля 2016 08:11 Век Адалин / The Age of Adaline (2015) BDRip 1080p | Чистый звук .torrent   [Информация о файле (нажмите для просмотра)] Формат: MKVКачество: BDRip 1080pВидео: MPEG-4 AVC, 9073 Кбит/с, 1920x1080Аудио: Русский (AC3, 2 ch, 256 Кбит/с), английский (AC3, 6 ch, 640 Кбит/с) 7,84 Gb 132 6 6 апреля 2016 08:11 Век Адалин / The Age of Adaline (2015) WEB-DL 1080p by Rus Mazepus .torrent   [Информация о файле (нажмите для просмотра)] Перевод: Дублированное [Чистый звук]Формат: MKVКодек: AVCКачество: WEB-DL 1080pВидео: 4769 kbps, 1916x790 (2.40:1), 24 fpsЗвук: Русский: AC3, 256 Kb/s (2 ch), Английский: AC3, 384 Kb/s (6 ch)Субтитры: Нет 4,26 Gb 127 4

gig-torrent.net

Скачать фильм Век Адалин через торрент в хорошем качестве бесплатно 1080p

GeneralUnique ID                                : 234546832507484584145416267993627733749 (0xB07413A9BCB97B799694FBD66C2FAEF5)Complete name                            : E:\INTERNET\[email protected]Format                                   : MatroskaFormat version                           : Version 4 / Version 2File size                                : 22.6 GiBDuration                                 : 1h 52mnOverall bit rate mode                    : VariableOverall bit rate                         : 28.7 MbpsEncoded date                             : UTC 2016-01-30 16:23:49Writing application                      : mkvmerge v8.5.1 ('Where you lead I will follow') 64bitWriting library                          : libebml v1.3.3 + libmatroska v1.4.4

VideoID                                       : 1Format                                   : MPEG VideoFormat version                           : Version 2Format profile                           : [email protected] settings, BVOP                    : YesFormat settings, Matrix                  : DefaultFormat settings, GOP                     : M=3, N=15Codec ID                                 : V_MPEG2Codec ID/Info                            : MPEG 1 or 2 VideoDuration                                 : 1h 52mnBit rate mode                            : VariableBit rate                                 : 27.1 MbpsMaximum bit rate                         : 36.0 MbpsWidth                                    : 1 920 pixelsHeight                                   : 1 080 pixelsDisplay aspect ratio                     : 16:9Frame rate mode                          : ConstantFrame rate                               : 23.976 fpsColor space                              : YUVChroma subsampling                       : 4:2:0Bit depth                                : 8 bitsScan type                                : ProgressiveCompression mode                         : LossyBits/(Pixel*Frame)                       : 0.545Time code of first frame                 : 00:00:00:00Time code source                         : Group of pictures headerGOP, Open/Closed                         : ClosedStream size                              : 21.3 GiB (94%)Default                                  : YesForced                                   : No

Audio #1ID                                       : 2Format                                   : AC-3Format/Info                              : Audio Coding 3Mode extension                           : CM (complete main)Format settings, Endianness              : BigCodec ID                                 : A_AC3Duration                                 : 1h 52mnBit rate mode                            : ConstantBit rate                                 : 384 KbpsChannel(s)                               : 6 channelsChannel positions                        : Front: L C R, Side: L R, LFESampling rate                            : 48.0 KHzCompression mode                         : LossyStream size                              : 310 MiB (1%)Title                                    : iTunesLanguage                                 : RussianDefault                                  : YesForced                                   : No

Audio #2ID                                       : 3Format                                   : AC-3Format/Info                              : Audio Coding 3Mode extension                           : CM (complete main)Format settings, Endianness              : BigCodec ID                                 : A_AC3Duration                                 : 1h 52mnBit rate mode                            : ConstantBit rate                                 : 192 KbpsChannel(s)                               : 2 channelsChannel positions                        : Front: L RSampling rate                            : 48.0 KHzCompression mode                         : LossyStream size                              : 155 MiB (1%)Language                                 : EnglishDefault                                  : NoForced                                   : No

Audio #3ID                                       : 4Format                                   : AC-3Format/Info                              : Audio Coding 3Mode extension                           : CM (complete main)Format settings, Endianness              : BigCodec ID                                 : A_AC3Duration                                 : 1h 52mnBit rate mode                            : ConstantBit rate                                 : 448 KbpsChannel(s)                               : 6 channelsChannel positions                        : Front: L C R, Side: L R, LFESampling rate                            : 48.0 KHzCompression mode                         : LossyStream size                              : 361 MiB (2%)Language                                 : EnglishDefault                                  : NoForced                                   : No

Text #1ID                                       : 5Format                                   : UTF-8Codec ID                                 : S_TEXT/UTF8Codec ID/Info                            : UTF-8 Plain TextLanguage                                 : EnglishDefault                                  : NoForced                                   : No

Text #2ID                                       : 6Format                                   : UTF-8Codec ID                                 : S_TEXT/UTF8Codec ID/Info                            : UTF-8 Plain TextTitle                                    : SDHLanguage                                 : EnglishDefault                                  : NoForced                                   : No

Menu00:00:00.000                             : en:00:00:00.00000:06:28.263                             : en:00:06:28.26300:13:29.809                             : en:00:13:29.80900:20:51.834                             : en:00:20:51.83400:28:10.897                             : en:00:28:10.89700:35:38.303                             : en:00:35:38.30300:43:37.615                             : en:00:43:37.61500:50:41.246                             : en:00:50:41.24600:59:51.921                             : en:00:59:51.92101:08:49.750                             : en:01:08:49.75001:17:02.826                             : en:01:17:02.82601:24:27.312                             : en:01:24:27.31201:31:29.108                             : en:01:31:29.10801:38:35.660                             : en:01:38:35.66001:41:42.179                             : en:01:41:42.17901:45:42.753                             : en:01:45:42.753

piratbit.ru

Скачать фильм Век Адалин через торрент в хорошем качестве бесплатно HDRip

Раздают: 1 [ 0 KB/s ]
Размер: 1.45 GB | Добавлен: 1 год 8 мес. назад | Торрент скачан:572 раза
Реклама Дарим 3000 рублей за регистрацию, не упусти свой шанс получить шикарный бонус!!!

22-05-2015 09:19 Век Адалин Скачать торрент  

Век Адалин / The Age of Adalineслоган «The world has changed in the last century. Adaline has not» Год выпуска: 2015Страна: СШАЖанр: драма, мелодрамаПродолжительность: 01:52:29Перевод: Дублированный [Лицензия / iTunes] субтитры: нет

Режиссер: Ли Толанд Кригер

В ролях: Блейк Лайвли, Михил Хаушман, Кэти Бейкер, Харрисон Форд, Эллен Бёрстин, Аманда Крю, Линда Бойд, Хью Росс, Ричард Хэрмон, Фульвио Чечере

Описание: По сюжету главная героиня родилась вместе с XX веком и живет на свете уже сто лет, но при этом не стареет. Несмотря на свою долгую жизнь, Аделайн так и не смогла найти любимого человека. Однако наконец-то она встречает мужчину, ради которого сможет снова стать смертной и состариться вместе с ним.

СЭМПЛ

Качество: HDRipФормат видео: AVIВидео кодек: XvIDАудио кодек: AC3Видео: XvID, 720x304, 24.000 fps, ~1458 kbps avg, 0.209 bit/pixelАудио: 48 kHz, AC3 Dolby Digital, 6 ch, ~384.00 kbps avg

Скачать Век Адалин через торрент http://i69.fastpic.ru/big/2015/0522/e2/27c0801c2ae9f5590816aa541fc3d9e2.jpg Скачать фильм Век Адалин через торрент бесплантно в хорошем качестве Описание: По сюжету главная героиня родилась вместе с XX веком и живет на свете уже сто лет, но при этом не стареет. Несмотря на свою ... 2016-01-30 10:17 9.4 10 23

Loading...

Loading...

% Раздел Тема Автор DL S | L
Фильмы 2015 [DVDrip, WEB-DLRip, HDrip] [ 1.97 GB ] Век Адалин / The Age of Adaline [2015 HDRip-AVC] $-DRON-$ Скачать
Фильмы 2015 [DVDrip, WEB-DLRip, HDrip] [ 1.45 GB ] Век Адалин / The Age of Adaline [2015 HDRip] $-DRON-$ Скачать
Фильмы 2015 [DVDrip, WEB-DLRip, HDrip] [ 1.41 GB ] Век Адалин / The Age of Adaline [2015 BDRip-AVC] Dub potroks Скачать
Фильмы 2015 [DVDrip, WEB-DLRip, HDrip] [ 2.13 GB ] Век Адалин / The Age of Adaline [2015 BDRip-AVC] Dub potroks Скачать
Фильмы 2015 [DVDrip, WEB-DLRip, HDrip] [ 2.18 GB ] Век Адалин / The Age of Adaline [2015 HDRip ""] coc900 Скачать
Фильмы (Blu-ray, BD-Remux, HDDVD) [ 22.58 GB ] Век Адалин / The Age of Adaline [2015 Blu-Ray Remux 1080p] + [Sub] killermax2013 Скачать
Фильмы с украинским озвучиванием [ 1.45 GB ] Век Адалин / Вік Аделайн / The Age of Adaline [2015 BDRip-AVC] [Ukr DUB] killermax2013 Скачать

Последний раз редактировалось: killermax2013 (2016-01-30 10:20), всего редактировалось 3 раз(а)

Рекламный пират

22-05-2015 17:59 Век Адалин Скачать торрент  

Спасибо за фильм...а почему написано Век Адалин...а в описании Аделайн

22-05-2015 19:54 Век Адалин Скачать торрент  

Kesady писал(а):

Спасибо за фильм...а почему написано Век Адалин...а в описании Аделайн

на кинопоиске так изначально было, позже они исправили уже

30-01-2016 10:17 Век Адалин Скачать торрент  

Торент обновлен! Лицензия / iTunes

30-01-2016 18:35 Век Адалин Скачать торрент  

спасибо, посмотрим

30-01-2016 19:05 Век Адалин Скачать торрент  

Интересный фильм.

Дорогой пользователь! Огромная просьба, поблагодарите релизера, оцените раздачу и оставьте свои комментарий, если Вы скачали Век Адалин через торрент бесплатно! Внесите свою лепту в развитие PiratBit!

Комментировать посты могут только пользователи прошедшие не сложную регистрацию

Век Адалин через торрент Скачать бесплатно Век Адалин Век Адалин скачать торрент Век Адалин смотреть онлайн Cкачать фильм Век Адалин бесплатно Век Адалин скачать торрент в хорошем качестве Век Адалин смотреть онлайн бесплатно в хорошем качестве

Вы не можете начинать темыВы не можете отвечать на сообщенияВы не можете редактировать свои сообщенияВы не можете удалять свои сообщенияВы не можете голосовать в опросахВы не можете прикреплять файлы к сообщениямВы можете скачивать файлы

piratbit.ru

Скачать фильм Век Адалин через торрент в хорошем качестве бесплатно BDRip-AVC от potroks

GeneralUnique ID                                : 243906137647932511060851414494625755071 (0xB77E9D088AE3E633908B300825996FBF)Complete name                            : Vek.Adalin.2015.DUAL.BDRip.x264.-HELLYWOOD.mkvFormat                                   : MatroskaFormat version                           : Version 4 / Version 2File size                                : 2.13 GiBDuration                                 : 1h 52mnOverall bit rate                         : 2 709 KbpsMovie name                               : The Age of Adaline (2015) - HELLYWOODEncoded date                             : UTC 2016-02-01 05:58:48Writing application                      : mkvmerge v5.9.0 ('On The Loose') built on Dec 15 2012 16:39:58Writing library                          : libebml v1.3.0 + libmatroska v1.4.0

VideoID                                       : 1Format                                   : AVCFormat/Info                              : Advanced Video CodecFormat profile                           : [email protected] settings, CABAC                   : YesFormat settings, ReFrames                : 10 framesMuxing mode                              : Header strippingCodec ID                                 : V_MPEG4/ISO/AVCDuration                                 : 1h 52mnBit rate                                 : 1 878 KbpsWidth                                    : 1 056 pixelsHeight                                   : 440 pixelsDisplay aspect ratio                     : 2.40:1Frame rate                               : 23.976 fpsColor space                              : YUVChroma subsampling                       : 4:2:0Bit depth                                : 8 bitsScan type                                : ProgressiveBits/(Pixel*Frame)                       : 0.169Stream size                              : 1.43 GiB (67%)Title                                    : potroksWriting library                          : x264 core 146 r2538 121396cEncoding settings                        : cabac=1 / ref=10 / deblock=1:-2:-2 / analyse=0x3:0x113 / me=umh / subme=11 / psy=1 / psy_rd=0.98:0.02 / mixed_ref=1 / me_range=48 / chroma_me=1 / trellis=2 / 8x8dct=1 / cqm=0 / deadzone=21,11 / fast_pskip=0 / chroma_qp_offset=-3 / threads=9 / lookahead_threads=2 / sliced_threads=0 / nr=0 / decimate=0 / interlaced=0 / bluray_compat=0 / constrained_intra=0 / bframes=11 / b_pyramid=2 / b_adapt=2 / b_bias=0 / direct=3 / weightb=1 / open_gop=0 / weightp=2 / keyint=240 / keyint_min=23 / scenecut=40 / intra_refresh=0 / rc_lookahead=60 / rc=2pass / mbtree=0 / bitrate=1878 / ratetol=1.0 / qcomp=0.70 / qpmin=0 / qpmax=69 / qpstep=4 / cplxblur=20.0 / qblur=0.5 / vbv_maxrate=14000 / vbv_bufsize=14000 / nal_hrd=none / filler=0 / ip_ratio=1.40 / pb_ratio=1.30 / aq=1:0.80Language                                 : EnglishDefault                                  : YesForced                                   : No

Audio #1ID                                       : 2Format                                   : AC-3Format/Info                              : Audio Coding 3Mode extension                           : CM (complete main)Muxing mode                              : Header strippingCodec ID                                 : A_AC3Duration                                 : 1h 52mnBit rate mode                            : ConstantBit rate                                 : 384 KbpsChannel(s)                               : 6 channelsChannel positions                        : Front: L C R, Side: L R, LFESampling rate                            : 48.0 KHzBit depth                                : 16 bitsCompression mode                         : LossyStream size                              : 309 MiB (14%)Title                                    : Dub | DD 5.1 @ 384 kbps - iTunesLanguage                                 : RussianDefault                                  : YesForced                                   : No

Audio #2ID                                       : 3Format                                   : AC-3Format/Info                              : Audio Coding 3Mode extension                           : CM (complete main)Muxing mode                              : Header strippingCodec ID                                 : A_AC3Duration                                 : 1h 52mnBit rate mode                            : ConstantBit rate                                 : 448 KbpsChannel(s)                               : 6 channelsChannel positions                        : Front: L C R, Side: L R, LFESampling rate                            : 48.0 KHzBit depth                                : 16 bitsCompression mode                         : LossyStream size                              : 360 MiB (17%)Title                                    : Original | DD 5.1 @ 448 kbpsLanguage                                 : EnglishDefault                                  : NoForced                                   : No

Text #1ID                                       : 4Format                                   : UTF-8Codec ID                                 : S_TEXT/UTF8Codec ID/Info                            : UTF-8 Plain TextLanguage                                 : RussianDefault                                  : NoForced                                   : No

Text #2ID                                       : 5Format                                   : UTF-8Codec ID                                 : S_TEXT/UTF8Codec ID/Info                            : UTF-8 Plain TextTitle                                    : FullLanguage                                 : EnglishDefault                                  : NoForced                                   : No

Text #3ID                                       : 6Format                                   : UTF-8Codec ID                                 : S_TEXT/UTF8Codec ID/Info                            : UTF-8 Plain TextTitle                                    : SDHLanguage                                 : EnglishDefault                                  : NoForced                                   : No

Text #4ID                                       : 7Format                                   : UTF-8Codec ID                                 : S_TEXT/UTF8Codec ID/Info                            : UTF-8 Plain TextTitle                                    : SDH-ColoredLanguage                                 : EnglishDefault                                  : NoForced                                   : No

Menu00:00:00.000                             : en:00:00:00.00000:06:28.263                             : en:00:06:28.26300:13:29.809                             : en:00:13:29.80900:20:51.834                             : en:00:20:51.83400:28:10.897                             : en:00:28:10.89700:35:38.303                             : en:00:35:38.30300:43:37.615                             : en:00:43:37.61500:50:41.246                             : en:00:50:41.24600:59:51.921                             : en:00:59:51.92101:08:49.750                             : en:01:08:49.75001:17:02.826                             : en:01:17:02.82601:24:27.312                             : en:01:24:27.31201:31:29.108                             : en:01:31:29.10801:38:35.660                             : en:01:38:35.66001:41:42.179                             : en:01:41:42.17901:45:42.753                             : en:01:45:42.753

piratbit.ru

Скачать фильм Век Адалин через торрент в хорошем качестве бесплатно HDRip-AVC

ОбщееУникальный идентификатор : 229790011192285981003210054040023323942 (0xACDFF243D69A33FAAA5813D96585D526)Полное имя : F:\The.Age.Of.Adaline.2015.D.HDRip.AVC.ExKinoRay.mkvФормат : MatroskaВерсия формата : Version 4 / Version 2Размер файла : 1,97 ГбайтПродолжительность : 1 ч. 52 м.Общий поток : 2508 Кбит/секНазвание фильма : The Age Of Adaline 2015 from ExKinoRayДата кодирования : UTC 2016-01-30 16:38:20Программа кодирования : mkvmerge v6.6.0 ('The Edge Of The In Between') built on Dec 1 2013 17:55:00Библиотека кодирования : libebml v1.3.0 + libmatroska v1.4.1

ВидеоИдентификатор : 1Формат : AVCФормат/Информация : Advanced Video CodecПрофиль формата : [email protected]Параметр CABAC формата : ДаПараметр ReFrames формата : 10 кадровИдентификатор кодека : V_MPEG4/ISO/AVCПродолжительность : 1 ч. 52 м.Битрейт : 1675 Кбит/секШирина : 1024 пикселяВысота : 426 пикселейСоотношение сторон : 2,40:1Режим частоты кадров : ПостоянныйЧастота кадров : 23,976 кадра/секЦветовое пространство : YUVСубдискретизация насыщенности : 4:2:0Битовая глубина : 8 битТип развёртки : ПрогрессивнаяБит/(Пиксели*Кадры) : 0.160Размер потока : 1,28 Гбайт (65%)Заголовок : EnigmaБиблиотека кодирования : x264 core 133 r2334 a3ac64bНастройки программы : cabac=1 / ref=10 / deblock=1:-2:-2 / analyse=0x3:0x113 / me=umh / subme=10 / psy=1 / psy_rd=1.05:0.15 / mixed_ref=1 / me_range=32 / chroma_me=1 / trellis=2 / 8x8dct=1 / cqm=0 / deadzone=21,11 / fast_pskip=0 / chroma_qp_offset=-3 / threads=12 / lookahead_threads=3 / sliced_threads=0 / nr=0 / decimate=0 / interlaced=0 / bluray_compat=0 / constrained_intra=0 / bframes=10 / b_pyramid=2 / b_adapt=2 / b_bias=0 / direct=3 / weightb=1 / open_gop=0 / weightp=2 / keyint=240 / keyint_min=23 / scenecut=40 / intra_refresh=0 / rc_lookahead=40 / rc=2pass / mbtree=0 / bitrate=1675 / ratetol=1.0 / qcomp=0.65 / qpmin=0 / qpmax=51 / qpstep=4 / cplxblur=20.0 / qblur=0.5 / vbv_maxrate=50000 / vbv_bufsize=62500 / nal_hrd=none / ip_ratio=1.40 / pb_ratio=1.30 / aq=1:1.00Язык : EnglishDefault : ДаForced : НетОсновные цвета : BT.709Характеристики трансфера : BT.709Коэффициенты матрицы : BT.709

Аудио #1Идентификатор : 2Формат : AC-3Формат/Информация : Audio Coding 3Расширение режима : CM (complete main)Параметр Endianness формата : BigИдентификатор кодека : A_AC3Продолжительность : 1 ч. 52 м.Вид битрейта : ПостоянныйБитрейт : 384 Кбит/секКаналы : 6 каналовРасположение каналов : Front: L C R, Side: L R, LFEЧастота : 48,0 КГцБитовая глубина : 16 битМетод сжатия : С потерямиРазмер потока : 309 Мбайт (15%)Заголовок : Dub (iTunes)Язык : RussianDefault : ДаForced : Нет

Аудио #2Идентификатор : 3Формат : AC-3Формат/Информация : Audio Coding 3Расширение режима : CM (complete main)Параметр Endianness формата : BigИдентификатор кодека : A_AC3Продолжительность : 1 ч. 52 м.Вид битрейта : ПостоянныйБитрейт : 448 Кбит/секКаналы : 6 каналовРасположение каналов : Front: L C R, Side: L R, LFEЧастота : 48,0 КГцБитовая глубина : 16 битМетод сжатия : С потерямиРазмер потока : 360 Мбайт (18%)Язык : EnglishDefault : НетForced : Нет

Текст #1Идентификатор : 4Формат : UTF-8Идентификатор кодека : S_TEXT/UTF8Идентификатор кодека/Информация : UTF-8 Plain TextЯзык : RussianDefault : НетForced : Нет

Текст #2Идентификатор : 5Формат : UTF-8Идентификатор кодека : S_TEXT/UTF8Идентификатор кодека/Информация : UTF-8 Plain TextЯзык : EnglishDefault : НетForced : Нет

Текст #3Идентификатор : 6Формат : UTF-8Идентификатор кодека : S_TEXT/UTF8Идентификатор кодека/Информация : UTF-8 Plain TextЗаголовок : SDHЯзык : EnglishDefault : НетForced : Нет

Текст #4Идентификатор : 7Формат : UTF-8Идентификатор кодека : S_TEXT/UTF8Идентификатор кодека/Информация : UTF-8 Plain TextЯзык : FrenchDefault : НетForced : Нет

Меню00:00:00.000 : en:00:00:00.00000:06:28.263 : en:00:06:28.26300:13:29.809 : en:00:13:29.80900:20:51.834 : en:00:20:51.83400:28:10.897 : en:00:28:10.89700:35:38.303 : en:00:35:38.30300:43:37.615 : en:00:43:37.61500:50:41.246 : en:00:50:41.24600:59:51.921 : en:00:59:51.92101:08:49.750 : en:01:08:49.75001:17:02.826 : en:01:17:02.82601:24:27.312 : en:01:24:27.31201:31:29.108 : en:01:31:29.10801:38:35.660 : en:01:38:35.66001:41:42.179 : en:01:41:42.17901:45:42.753 : en:01:45:42.753[/code]

piratbit.ru


Смотрите также