Скачать через торрент твое имя в хорошем качестве


Твоё имя / Kimi no Na wa. / Your Name. [2016 Романтика Школа Сверхъестественное BDRip 720p] 3 х DVO + Original скачать через торрент

ОбщееУникальный идентификатор : 241453896294321283054619408847413886579 (0xB5A6543332B3E5DCA54BFF3E5BCEBE73)Полное имя : E:\[Beatrice-Raws] Kimi no Na wa [BDRip 1280x720 x264 FLAC]\[Beatrice-Raws] Kimi no Na wa [BDRip 1280x720 x264 FLAC].mkvФормат : MatroskaВерсия формата : Version 4 / Version 2Размер файла : 3,57 ГбайтПродолжительность : 1 ч. 46 м.Режим общего битрейта : ПеременныйОбщий поток : 4789 Кбит/секДата кодирования : UTC 2017-07-27 02:52:32Программа кодирования : mkvmerge v14.0.0 ('Flow') 64bitБиблиотека кодирования : libebml v1.3.4 + libmatroska v1.4.5

ВидеоИдентификатор : 1Формат : AVCФормат/Информация : Advanced Video CodecПрофиль формата : High [email protected]Параметр CABAC формата : ДаПараметр RefFrames формата : 6 кадровИдентификатор кодека : V_MPEG4/ISO/AVCПродолжительность : 1 ч. 46 м.Битрейт : 4166 Кбит/секШирина : 1280 пикселейВысота : 720 пикселейСоотношение сторон : 16:9Режим частоты кадров : ПостоянныйЧастота кадров : 23,976 (24000/1001) кадра/секЦветовое пространство : YUVСубдискретизация насыщенности : 4:2:0Битовая глубина : 10 битТип развёртки : ПрогрессивнаяБит/(Пиксели*Кадры) : 0.189Размер потока : 3,10 Гбайт (87%)Заголовок : BDrip by JensenБиблиотека кодирования : x264 core 152 r2851M ba24899 (DJATOM's build)Настройки программы : cabac=1 / ref=6 / deblock=1:1:-1 / analyse=0x3:0x113 / me=umh / subme=9 / psy=1 / psy_rd=1.00:0.00 / mixed_ref=1 / me_range=32 / chroma_me=1 / trellis=2 / 8x8dct=1 / cqm=0 / deadzone=21,11 / fast_pskip=1 / chroma_qp_offset=-2 / threads=22 / lookahead_threads=3 / sliced_threads=0 / nr=0 / decimate=1 / interlaced=0 / bluray_compat=0 / constrained_intra=0 / bframes=9 / b_pyramid=2 / b_adapt=2 / b_bias=0 / direct=1 / weightb=1 / open_gop=0 / weightp=2 / keyint=240 / keyint_min=23 / scenecut=40 / intra_refresh=0 / rc=crf / mbtree=0 / crf=14.0000 / qcomp=0.72 / qpmin=0 / qpmax=81 / qpstep=4 / ip_ratio=1.40 / pb_ratio=1.30 / aq=1:0.85Язык : JapaneseDefault : ДаForced : НетЦветовой диапазон : LimitedОсновные цвета : BT.709Характеристики трансфера : BT.709Коэффициенты матрицы : BT.709

АудиоИдентификатор : 2Формат : FLACФормат/Информация : Free Lossless Audio CodecИдентификатор кодека : A_FLACПродолжительность : 1 ч. 46 м.Вид битрейта : ПеременныйБитрейт : 572 Кбит/секКаналы : 2 каналаРасположение каналов : Front: L RЧастота : 48,0 КГцЧастота кадров : 11,719 кадров/сек (4096 SPF)Битовая глубина : 16 битРазмер потока : 436 Мбайт (12%)Библиотека кодирования : libFLAC 1.3.2 (UTC 2017-01-01)Язык : JapaneseDefault : ДаForced : Нет

Текст #1Идентификатор : 3Формат : PGSРежим смешивания : zlibИдентификатор кодека : S_HDMV/PGSИдентификатор кодека/Информация : Picture based subtitle format used on BDs/HD-DVDsПродолжительность : 1 ч. 45 м.Битрейт : 32,4 Кбит/секElementCount : 2919Размер потока : 24,4 Мбайт (1%)Заголовок : CHIЯзык : ChineseDefault : НетForced : Нет

Текст #2Идентификатор : 4Формат : PGSРежим смешивания : zlibИдентификатор кодека : S_HDMV/PGSИдентификатор кодека/Информация : Picture based subtitle format used on BDs/HD-DVDsПродолжительность : 1 ч. 45 м.Битрейт : 30,7 Кбит/секElementCount : 2456Размер потока : 23,2 Мбайт (1%)Заголовок : ENGЯзык : EnglishDefault : НетForced : Нет

Текст #3Идентификатор : 5Формат : PGSРежим смешивания : zlibИдентификатор кодека : S_HDMV/PGSИдентификатор кодека/Информация : Picture based subtitle format used on BDs/HD-DVDsПродолжительность : 1 ч. 45 м.Битрейт : 40,6 Кбит/секElementCount : 3515Размер потока : 30,6 Мбайт (1%)Заголовок : JPNЯзык : JapaneseDefault : НетForced : Нет

Текст #4Идентификатор : 6Формат : PGSРежим смешивания : zlibИдентификатор кодека : S_HDMV/PGSИдентификатор кодека/Информация : Picture based subtitle format used on BDs/HD-DVDsПродолжительность : 1 ч. 45 м.Битрейт : 27,2 Кбит/секElementCount : 2297Размер потока : 20,5 Мбайт (1%)Заголовок : ENG_SONGЯзык : EnglishDefault : НетForced : Нет

Меню00:00:00.000 : en:残響 / Echo00:01:34.094 : en:オープニング / Opening00:03:21.868 : en:端緒 / Beginning00:05:13.271 : en:宮水一家 / Miyamizu Family00:08:37.308 : en:お前は誰だ? / Who Are You?00:12:11.314 : en:組紐 / Kumihimo00:14:32.371 : en:口噛み酒 / Kuchikamizake00:17:22.500 : en:東京 / Tokyo00:22:57.918 : en:奥寺先輩 / Okudera-senpai00:27:05.624 : en:異変1 / Accident 100:28:16.570 : en:異変2 / Accident 200:29:53.542 : en:入れ替わりの日々 / Day by Day00:32:42.836 : en:御神体 / Object of Worship00:37:26.995 : en:デート / Date00:41:57.765 : en:秋祭り / Autumn Festival00:44:30.334 : en:断絶 / Disconnection00:45:54.001 : en:探訪 / Searching00:48:28.656 : en:消えた糸守町 / Itomori Town that Disappeared00:53:01.387 : en:追求 / Pursuit00:56:53.869 : en:記憶 / Recollection01:03:42.318 : en:再演 / Replay01:06:03.793 : en:作戦会議 / Strategy Meeting01:09:44.931 : en:予感 / Premonition01:12:41.816 : en:邂逅 / Chance Meeting01:16:42.473 : en:カタワレ時 / Twilight01:21:21.710 : en:うつくしく, もがく / Beautiful, Struggling01:29:12.806 : en:恋 / Love01:32:51.858 : en:あと少しだけ / Just a Little Longer01:37:01.733 : en:君の名は. / Your Name.01:41:19.615 : en:スタッフ・クレジット / Staff Roll

piratbit.ru

Твоё имя / Kimi no Na wa [2016 аниме мультфильм BDRip 720p от еnvy / NNNB] MVO скачать через торрент

Format : MatroskaFormat version : Version 2File size : 5.20 GiBDuration : 1 h 46 minOverall bit rate : 6 981 kb/sMovie name : Kimi no na wa.(2016).BDRip.720p.[envy]Encoded date : UTC 2017-09-24 11:01:18Writing application : mkvmerge v5.8.0 ('No Sleep / Pillow') built on Sep 2 2012 15:37:04Writing library : libebml v1.2.3 + libmatroska v1.3.0

VideoID : 1Format : AVCFormat/Info : Advanced Video CodecFormat profile : [email protected] settings, CABAC : YesFormat settings, RefFrames : 9 framesCodec ID : V_MPEG4/ISO/AVCDuration : 1 h 46 minBit rate : 5 700 kb/sWidth : 1 280 pixelsHeight : 720 pixelsDisplay aspect ratio : 16:9Frame rate mode : ConstantFrame rate : 23.976 (24000/1001) FPSColor space : YUVChroma subsampling : 4:2:0Bit depth : 8 bitsScan type : ProgressiveBits/(Pixel*Frame) : 0.258Stream size : 4.14 GiB (80%)Title : Kimi no na wa.(2016).BDRip.720p.[envy]Writing library : x264 core 148 r2744 b97ae06Encoding settings : cabac=1 / ref=9 / deblock=1:0:0 / analyse=0x3:0x113 / me=umh / subme=11 / psy=1 / psy_rd=1.00:0.00 / mixed_ref=1 / me_range=32 / chroma_me=1 / trellis=2 / 8x8dct=1 / cqm=0 / deadzone=21,11 / fast_pskip=0 / chroma_qp_offset=-2 / threads=12 / lookahead_threads=1 / sliced_threads=0 / nr=0 / decimate=1 / interlaced=0 / bluray_compat=0 / constrained_intra=0 / bframes=5 / b_pyramid=2 / b_adapt=2 / b_bias=0 / direct=3 / weightb=1 / open_gop=0 / weightp=2 / keyint=240 / keyint_min=23 / scenecut=40 / intra_refresh=0 / rc=2pass / mbtree=0 / bitrate=5700 / ratetol=1.0 / qcomp=0.60 / qpmin=0 / qpmax=69 / qpstep=4 / cplxblur=20.0 / qblur=0.5 / ip_ratio=1.40 / pb_ratio=1.30 / aq=1:1.00Language : JapaneseDefault : YesForced : No

Audio #1ID : 2Format : AC-3Format/Info : Audio Coding 3Format settings, Endianness : BigCodec ID : A_AC3Duration : 1 h 46 minBit rate mode : ConstantBit rate : 640 kb/sChannel(s) : 6 channelsChannel positions : Front: L C R, Side: L R, LFESampling rate : 48.0 kHzFrame rate : 31.250 FPS (1536 SPF)Bit depth : 16 bitsCompression mode : LossyStream size : 488 MiB (9%)Title : AlexFilmLanguage : RussianService kind : Complete MainDefault : YesForced : No

Audio #2ID : 3Format : AC-3Format/Info : Audio Coding 3Format settings, Endianness : BigCodec ID : A_AC3Duration : 1 h 46 minBit rate mode : ConstantBit rate : 640 kb/sChannel(s) : 6 channelsChannel positions : Front: L C R, Side: L R, LFESampling rate : 48.0 kHzFrame rate : 31.250 FPS (1536 SPF)Bit depth : 16 bitsCompression mode : LossyStream size : 488 MiB (9%)Title : JpnLanguage : JapaneseService kind : Complete MainDefault : NoForced : No

Text #1ID : 4Format : UTF-8Codec ID : S_TEXT/UTF8Codec ID/Info : UTF-8 Plain TextTitle : Rus full AlexFilmLanguage : RussianDefault : NoForced : No

Text #2ID : 5Format : UTF-8Codec ID : S_TEXT/UTF8Codec ID/Info : UTF-8 Plain TextTitle : Eng fullLanguage : EnglishDefault : NoForced : No

Menu00:00:00.000 : :Echo00:01:34.094 : :Opening00:03:21.868 : :Beginning00:05:13.271 : :Miyamizu Family00:08:37.308 : :Who Are You?00:12:11.314 : :Kumihimo00:14:32.371 : :Kuchikamizake00:17:22.500 : :Tokyo00:22:57.918 : :Okudera-senpai00:27:05.624 : :Accident 100:28:16.570 : :Accident 200:29:53.542 : :Day by Day00:32:42.836 : :Object of Worship00:37:26.995 : :Date00:41:57.765 : :Autumn Festival00:44:30.334 : :Disconnection00:45:54.001 : :Searching00:48:28.656 : :Itomori Town that Disappeared00:53:01.387 : :Pursuit00:56:53.869 : :Recollection01:03:42.318 : :Replay01:06:03.793 : :Strategy Meeting01:09:44.931 : :Premonition01:12:41.816 : :Chance Meeting01:16:42.473 : :Twilight01:21:21.710 : :Beautiful, Struggling01:29:12.806 : :Love01:32:51.858 : :Just a Little Longer01:37:01.733 : :Your Name.01:41:19.615 : :Staff Roll

piratbit.ru

Твоё имя / Kimi no Na wa. / Your Name. [2016 Романтика Школа Сверхъестественное BD Remux 1080p] 3 x DVO + Original скачать через торрент

ОбщееУникальный идентификатор : 245974329024886148612647224297402767114 (0xB90CEEBDB0F54C849B5B437BD641970A)Полное имя : E:\Kimi no Na wa. [BDRemux 1920x1080 h364 FLAC]\Kimi no Na wa. [BDRemux 1920x1080 h364 FLAC].mkvФормат : MatroskaВерсия формата : Version 4 / Version 2Размер файла : 23,1 ГбайтПродолжительность : 1 ч. 46 м.Режим общего битрейта : ПеременныйОбщий поток : 31,0 Мбит/секДата кодирования : UTC 2017-07-25 08:59:28Программа кодирования : mkvmerge v14.0.0 ('Flow') 64bitБиблиотека кодирования : libebml v1.3.4 + libmatroska v1.4.5

ВидеоИдентификатор : 1Формат : AVCФормат/Информация : Advanced Video CodecПрофиль формата : [email protected]Параметр CABAC формата : ДаПараметр RefFrames формата : 4 кадраИдентификатор кодека : V_MPEG4/ISO/AVCПродолжительность : 1 ч. 46 м.Вид битрейта : ПеременныйБитрейт : 30,4 Мбит/секМаксимальный битрейт : 35,0 Мбит/секШирина : 1920 пикселейВысота : 1080 пикселейСоотношение сторон : 16:9Режим частоты кадров : ПостоянныйЧастота кадров : 23,976 (24000/1001) кадра/секЦветовое пространство : YUVСубдискретизация насыщенности : 4:2:0Битовая глубина : 8 битТип развёртки : ПрогрессивнаяБит/(Пиксели*Кадры) : 0.611Размер потока : 22,6 Гбайт (98%)Default : ДаForced : Нет

АудиоИдентификатор : 2Формат : FLACФормат/Информация : Free Lossless Audio CodecИдентификатор кодека : A_FLACПродолжительность : 1 ч. 46 м.Вид битрейта : ПеременныйБитрейт : 572 Кбит/секКаналы : 2 каналаРасположение каналов : Front: L RЧастота : 48,0 КГцЧастота кадров : 11,719 кадров/сек (4096 SPF)Битовая глубина : 16 битРазмер потока : 436 Мбайт (2%)Заголовок : DTS-HD MA->FLACБиблиотека кодирования : libFLAC 1.3.2 (UTC 2017-01-01)Язык : JapaneseDefault : ДаForced : Нет

Текст #1Идентификатор : 3Формат : PGSРежим смешивания : zlibИдентификатор кодека : S_HDMV/PGSИдентификатор кодека/Информация : Picture based subtitle format used on BDs/HD-DVDsПродолжительность : 1 ч. 45 м.Битрейт : 40,6 Кбит/секElementCount : 3515Размер потока : 30,6 Мбайт (0%)Язык : JapaneseDefault : ДаForced : Нет

Текст #2Идентификатор : 4Формат : PGSРежим смешивания : zlibИдентификатор кодека : S_HDMV/PGSИдентификатор кодека/Информация : Picture based subtitle format used on BDs/HD-DVDsПродолжительность : 1 ч. 45 м.Битрейт : 30,7 Кбит/секElementCount : 2456Размер потока : 23,2 Мбайт (0%)Язык : EnglishDefault : НетForced : Нет

Текст #3Идентификатор : 5Формат : PGSРежим смешивания : zlibИдентификатор кодека : S_HDMV/PGSИдентификатор кодека/Информация : Picture based subtitle format used on BDs/HD-DVDsПродолжительность : 1 ч. 45 м.Битрейт : 32,4 Кбит/секElementCount : 2919Размер потока : 24,4 Мбайт (0%)Язык : ChineseDefault : НетForced : Нет

Текст #4Идентификатор : 6Формат : PGSРежим смешивания : zlibИдентификатор кодека : S_HDMV/PGSИдентификатор кодека/Информация : Picture based subtitle format used on BDs/HD-DVDsПродолжительность : 1 ч. 45 м.Битрейт : 27,2 Кбит/секElementCount : 2297Размер потока : 20,5 Мбайт (0%)Язык : EnglishDefault : НетForced : Нет

Меню00:00:00.000 : en:残響 / Echo00:01:34.094 : en:オープニング / Opening00:03:21.868 : en:端緒 / Beginning00:05:13.271 : en:宮水一家 / Miyamizu Family00:08:37.308 : en:お前は誰だ? / Who Are You?00:12:11.314 : en:組紐 / Kumihimo00:14:32.371 : en:口噛み酒 / Kuchikamizake00:17:22.500 : en:東京 / Tokyo00:22:57.918 : en:奥寺先輩 / Okudera-senpai00:27:05.624 : en:異変1 / Accident 100:28:16.570 : en:異変2 / Accident 200:29:53.542 : en:入れ替わりの日々 / Day by Day00:32:42.836 : en:御神体 / Object of Worship00:37:26.995 : en:デート / Date00:41:57.765 : en:秋祭り / Autumn Festival00:44:30.334 : en:断絶 / Disconnection00:45:54.001 : en:探訪 / Searching00:48:28.656 : en:消えた糸守町 / Itomori Town that Disappeared00:53:01.387 : en:追求 / Pursuit00:56:53.869 : en:記憶 / Recollection01:03:42.318 : en:再演 / Replay01:06:03.793 : en:作戦会議 / Strategy Meeting01:09:44.931 : en:予感 / Premonition01:12:41.816 : en:邂逅 / Chance Meeting01:16:42.473 : en:カタワレ時 / Twilight01:21:21.710 : en:うつくしく, もがく / Beautiful, Struggling01:29:12.806 : en:恋 / Love01:32:51.858 : en:あと少しだけ / Just a Little Longer01:37:01.733 : en:君の名は. / Your Name.01:41:19.615 : en:スタッフ・クレジット / Staff Roll

piratbit.ru

Твоё имя / Kimi no na wa [2016 Мело BDRip 1080p] MVO [AlexFilm] скачать через торрент

ВидеоИдентификатор : 1Формат : AVCФормат/Информация : Advanced Video CodecПрофиль формата : [email protected]Параметр CABAC формата : ДаПараметр ReFrames формата : 1 кадрПараметр GOP формата : M=1, N=25Идентификатор кодека : V_MPEG4/ISO/AVCПродолжительность : 1 ч. 46 м.Вид битрейта : ПостоянныйНоминальный битрейт : 16,1 Мбит/секШирина : 1920 пикселейВысота : 1080 пикселейСоотношение сторон : 16:9Режим частоты кадров : ПостоянныйЧастота кадров : 23,976 (24000/1001) кадра/секЦветовое пространство : YUVСубдискретизация насыщенности : 4:2:0Битовая глубина : 8 битТип развёртки : ПрогрессивнаяБит/(Пиксели*Кадры) : 0.324Заголовок : ВидеоЯзык : JapaneseDefault : ДаForced : НетDURATION : 01:46:35.639000000

Аудио #1Идентификатор : 2Формат : FLACФормат/Информация : Free Lossless Audio CodecИдентификатор кодека : A_FLACПродолжительность : 1 ч. 46 м.Вид битрейта : ПеременныйКаналы : 6 каналовРасположение каналов : Front: L C R, Side: L R, LFEЧастота : 48,0 КГцБитовая глубина : 24 битЗаголовок : MVO - AlexFilmБиблиотека кодирования : libFLAC 1.2.1 (UTC 2007-09-17)Язык : RussianDefault : ДаForced : Нет

Аудио #2Идентификатор : 3Формат : FLACФормат/Информация : Free Lossless Audio CodecИдентификатор кодека : A_FLACПродолжительность : 1 ч. 46 м.Вид битрейта : ПеременныйКаналы : 2 каналаРасположение каналов : Front: L RЧастота : 48,0 КГцБитовая глубина : 16 битЗаголовок : ОригиналБиблиотека кодирования : libFLAC 1.3.2 (UTC 2017-01-01)Язык : JapaneseDefault : НетForced : Нет

Текст #1Идентификатор : 4Формат : ASSИдентификатор кодека : S_TEXT/ASSИдентификатор кодека/Информация : Advanced Sub Station AlphaМетод сжатия : Без потерьЗаголовок : форсированные (надписи, песни)Язык : RussianDefault : ДаForced : Нет

Текст #2Идентификатор : 5Формат : ASSИдентификатор кодека : S_TEXT/ASSИдентификатор кодека/Информация : Advanced Sub Station AlphaМетод сжатия : Без потерьЗаголовок : полныеЯзык : RussianDefault : НетForced : Нет

piratbit.ru


Смотрите также