Скачать через торрент стартрек возмездие в хорошем качестве


Возмездие через торрент в хорошем качестве бесплатно DVD9

Title: Startrek.Vozmezdiye.2013.DVD9Size: 6.83 Gb ( 7 165 538,00 KBytes ) - DVD-9Enabled regions: 1, 2, 3, 4, 5, 6, 7, 8

VTS_01 :Play Length: 00:00:00Video: NTSC 16:9 (720x480) VBR, Auto Letterboxed

VTS_02 :Play Length: 00:00:00Video: NTSC 16:9 (720x480) VBR, Auto Letterboxed

VTS_03 :Play Length: 00:00:00Video: NTSC 16:9 (720x480) VBR, Auto Letterboxed

VTS_04 :Play Length: 00:00:00Video: NTSC 16:9 (720x480) VBR, Auto Letterboxed

VTS_05 :Play Length: 00:00:00Video: PAL 16:9 (720x576) VBR, Auto Pan&ScanAudio:Not specified (Dolby AC3, 2 ch)Not specified (Dolby AC3, 2 ch)Not specified (Dolby AC3, 2 ch)Not specified (Dolby AC3, 2 ch)Not specified (Dolby AC3, 2 ch)Not specified (Dolby AC3, 2 ch)Not specified (Dolby AC3, 2 ch)Not specified (Dolby AC3, 2 ch)Subtitles:Not specifiedNot specifiedNot specifiedNot specifiedNot specifiedNot specifiedNot specifiedNot specifiedNot specifiedNot specifiedNot specifiedNot specified

VTS_06 :Play Length: 00:00:00Video: NTSC 16:9 (720x480) VBR, Auto Letterboxed

VTS_07 :Play Length: 00:00:00Video: NTSC 16:9 (720x480) VBR, Auto Letterboxed

VTS_08 :Play Length: 00:00:00Video: NTSC 16:9 (720x480) VBR, Auto Letterboxed

VTS_09 :Play Length: 00:06:48+00:00:01+{00:00:01}+{00:00:01}+{00:00:01}+{00:00:01}+00:05:50Video: PAL 16:9 (720x576) VBR, Auto LetterboxedAudio:English (Dolby AC3, 2 ch)Subtitles:EnglishRussianUkrainian

VTS_10 :Play Length: 00:00:00Video: NTSC 16:9 (720x480) VBR, Auto Letterboxed

VTS_11 :Play Length: 00:00:00Video: NTSC 16:9 (720x480) VBR, Auto Letterboxed

VTS_12 :Play Length: 00:00:00Video: NTSC 16:9 (720x480) VBR, Auto Letterboxed

VTS_13 :Play Length: 00:00:00Video: NTSC 16:9 (720x480) VBR, Auto Letterboxed

VTS_14 :Play Length: 00:00:12+02:06:43+{00:00:12}+{00:00:12}+{00:00:12}+{00:00:12}+{00:00:12}+00:00:15+00:00:15Video: PAL 16:9 (720x576) VBR, Auto LetterboxedAudio:English (Dolby AC3, 6 ch)Russian (Dolby AC3, 6 ch)Ukrainian (Dolby AC3, 6 ch)Subtitles:EnglishRussianUkrainianRussianUkrainian

VTS_15 :Play Length: 00:00:00Video: NTSC 16:9 (720x480) VBR, Auto Letterboxed

VTS_16 :Play Length: 00:00:00Video: NTSC 16:9 (720x480) VBR, Auto Letterboxed

VTS_17 :Play Length: 00:00:00Video: NTSC 16:9 (720x480) VBR, Auto Letterboxed

VTS_18 :Play Length: 00:00:00+00:00:00Video: PAL 16:9 (720x576) VBR, Auto Letterboxed

* Menus Information *

VIDEO_TS MenuVideo:PAL 16:9 (720x576) VBRAuto Pan&ScanEnglish Language Unit :Title Menu

VTS_01 MenuVideo:NTSC 4:3 (720x480) VBRAuto Pan&Scan, Auto LetterboxedLanguage Unit :Subpicture MenuAngle menuLanguage Unit :

Language Unit :

Language Unit :

Language Unit :

VTS_02 MenuVideo:NTSC 4:3 (720x480) VBRAuto Pan&Scan, Auto LetterboxedLanguage Unit :Subpicture MenuAngle menuLanguage Unit :

Language Unit :

Language Unit :

Language Unit :

VTS_03 MenuVideo:NTSC 4:3 (720x480) VBRAuto Pan&Scan, Auto LetterboxedLanguage Unit :Subpicture MenuAngle menuLanguage Unit :

Language Unit :

Language Unit :

Language Unit :

VTS_04 MenuVideo:NTSC 4:3 (720x480) VBRAuto Pan&Scan, Auto LetterboxedLanguage Unit :Subpicture MenuAngle menuLanguage Unit :

Language Unit :

Language Unit :

Language Unit :

VTS_05 MenuVideo:NTSC 4:3 (720x480) VBRAuto Pan&Scan, Auto LetterboxedEnglish Language Unit :Root Menu

VTS_06 MenuVideo:NTSC 4:3 (720x480) VBRAuto Pan&Scan, Auto LetterboxedLanguage Unit :Subpicture MenuAngle menuLanguage Unit :

Language Unit :

Language Unit :

Language Unit :

VTS_07 MenuVideo:NTSC 4:3 (720x480) VBRAuto Pan&Scan, Auto LetterboxedLanguage Unit :Subpicture MenuAngle menuLanguage Unit :

Language Unit :

Language Unit :

Language Unit :

VTS_08 MenuVideo:NTSC 4:3 (720x480) VBRAuto Pan&Scan, Auto LetterboxedLanguage Unit :Subpicture MenuAngle menuLanguage Unit :

Language Unit :

Language Unit :

Language Unit :

VTS_09 MenuVideo:NTSC 4:3 (720x480) VBRAuto Pan&Scan, Auto LetterboxedEnglish Language Unit :Root Menu

VTS_10 MenuVideo:NTSC 4:3 (720x480) VBRAuto Pan&Scan, Auto LetterboxedLanguage Unit :Subpicture MenuAngle menuLanguage Unit :

Language Unit :

Language Unit :

Language Unit :

VTS_11 MenuVideo:NTSC 4:3 (720x480) VBRAuto Pan&Scan, Auto LetterboxedLanguage Unit :Subpicture MenuAngle menuLanguage Unit :

Language Unit :

Language Unit :

Language Unit :

VTS_12 MenuVideo:NTSC 4:3 (720x480) VBRAuto Pan&Scan, Auto LetterboxedLanguage Unit :Subpicture MenuAngle menuLanguage Unit :

Language Unit :

Language Unit :

Language Unit :

VTS_13 MenuVideo:NTSC 4:3 (720x480) VBRAuto Pan&Scan, Auto LetterboxedLanguage Unit :Subpicture MenuAngle menuLanguage Unit :

Language Unit :

Language Unit :

Language Unit :

VTS_14 MenuVideo:PAL 16:9 (720x576) VBRAuto Pan&ScanAudio:Not specified (Dolby AC3, 2 ch)English Language Unit :Root MenuSubpicture MenuAudio MenuAngle menuChapter (PTT) Menu

VTS_15 MenuVideo:NTSC 4:3 (720x480) VBRAuto Pan&Scan, Auto LetterboxedLanguage Unit :Subpicture MenuAngle menuLanguage Unit :

Language Unit :

Language Unit :

Language Unit :

VTS_16 MenuVideo:NTSC 4:3 (720x480) VBRAuto Pan&Scan, Auto LetterboxedLanguage Unit :Subpicture MenuAngle menuLanguage Unit :

Language Unit :

Language Unit :

Language Unit :

VTS_17 MenuVideo:NTSC 4:3 (720x480) VBRAuto Pan&Scan, Auto LetterboxedLanguage Unit :Subpicture MenuAngle menuLanguage Unit :

Language Unit :

Language Unit :

Language Unit :

VTS_18 MenuVideo:PAL 16:9 (720x576) VBRAuto Pan&ScanAudio:Not specified (Dolby AC3, 2 ch)English Language Unit :Root MenuAngle menu

piratbit.ru

Возмездие через торрент в хорошем качестве бесплатно 720p

GeneralUnique ID                                : 176753812162226565543909441532208584727 (0x84F98BC437895D10907DDFC5A5839817)Complete name                            : Star.Trek.Into.Darkness.2013.IMAX.BDRip.720p.2xRus.Ukr.Eng.Subs.by.Messafan.mkvFormat                                   : MatroskaFormat version                           : Version 4 / Version 2File size                                : 9.44 GiBDuration                                 : 2h 12mnOverall bit rate                         : 10.2 MbpsMovie name                               : Star Trek Into Darkness (2013) IMAX edition BDRip 720p by MessafanEncoded date                             : UTC 2014-09-22 13:41:28Writing application                      : mkvmerge v6.7.0 ('Back to the Ground') 64bit built on Jan  8 2014 15:10:52Writing library                          : libebml v1.3.0 + libmatroska v1.4.1

VideoID                                       : 1Format                                   : AVCFormat/Info                              : Advanced Video CodecFormat profile                           : [email protected] settings, CABAC                   : YesFormat settings, ReFrames                : 9 framesCodec ID                                 : V_MPEG4/ISO/AVCDuration                                 : 2h 12mnBit rate                                 : 6 997 KbpsWidth                                    : 1 280 pixelsHeight                                   : 720 pixelsDisplay aspect ratio                     : 16:9Frame rate                               : 23.976 fpsColor space                              : YUVChroma subsampling                       : 4:2:0Bit depth                                : 8 bitsScan type                                : ProgressiveBits/(Pixel*Frame)                       : 0.317Stream size                              : 6.27 GiB (66%)Title                                    : Star Trek Into Darkness (2013) IMAX edition BDRip 720p by MessafanWriting library                          : x264 core 142 r2479kMod dd79a61Encoding settings                        : cabac=1 / ref=9 / deblock=1:-3:-3 / analyse=0x3:0x113 / me=umh / subme=10 / psy=1 / fade_compensate=0.00 / psy_rd=1.05:0.05 / mixed_ref=1 / me_range=32 / chroma_me=1 / trellis=2 / 8x8dct=1 / cqm=0 / deadzone=21,11 / fast_pskip=0 / chroma_qp_offset=-5 / threads=6 / lookahead_threads=1 / sliced_threads=0 / nr=0 / decimate=1 / interlaced=0 / bluray_compat=0 / constrained_intra=0 / fgo=0 / bframes=11 / b_pyramid=2 / b_adapt=2 / b_bias=0 / direct=3 / weightb=1 / open_gop=0 / weightp=1 / keyint=240 / keyint_min=23 / scenecut=40 / intra_refresh=0 / rc_lookahead=60 / rc=2pass / mbtree=1 / bitrate=6997 / ratetol=1.0 / qcomp=0.80 / qpmin=0 / qpmax=69 / qpstep=4 / cplxblur=20.0 / qblur=0.5 / vbv_maxrate=50000 / vbv_bufsize=62500 / nal_hrd=none / filler=0 / ip_ratio=1.25 / aq=1:0.80Language                                 : EnglishDefault                                  : YesForced                                   : No

Audio #1ID                                       : 2Format                                   : AC-3Format/Info                              : Audio Coding 3Mode extension                           : CM (complete main)Codec ID                                 : A_AC3Duration                                 : 2h 12mnBit rate mode                            : ConstantBit rate                                 : 640 KbpsChannel(s)                               : 6 channelsChannel positions                        : Front: L C R, Side: L R, LFESampling rate                            : 48.0 KHzBit depth                                : 16 bitsCompression mode                         : LossyStream size                              : 605 MiB (6%)Title                                    : DUBLanguage                                 : RussianDefault                                  : YesForced                                   : No

Audio #2ID                                       : 3Format                                   : DTSFormat/Info                              : Digital Theater SystemsCodec ID                                 : A_DTSDuration                                 : 2h 12mnBit rate mode                            : ConstantBit rate                                 : 1 510 KbpsChannel(s)                               : 6 channelsChannel positions                        : Front: L C R, Side: L R, LFESampling rate                            : 48.0 KHzBit depth                                : 24 bitsCompression mode                         : LossyStream size                              : 1.39 GiB (15%)Title                                    : AVO NemahovLanguage                                 : RussianDefault                                  : NoForced                                   : No

Audio #3ID                                       : 4Format                                   : AC-3Format/Info                              : Audio Coding 3Mode extension                           : CM (complete main)Codec ID                                 : A_AC3Duration                                 : 2h 12mnBit rate mode                            : ConstantBit rate                                 : 448 KbpsChannel(s)                               : 6 channelsChannel positions                        : Front: L C R, Side: L R, LFESampling rate                            : 48.0 KHzBit depth                                : 16 bitsCompression mode                         : LossyStream size                              : 423 MiB (4%)Title                                    : UKRLanguage                                 : UkrainianDefault                                  : NoForced                                   : No

Audio #4ID                                       : 5Format                                   : AC-3Format/Info                              : Audio Coding 3Mode extension                           : CM (complete main)Codec ID                                 : A_AC3Duration                                 : 2h 12mnBit rate mode                            : ConstantBit rate                                 : 640 KbpsChannel(s)                               : 6 channelsChannel positions                        : Front: L C R, Side: L R, LFESampling rate                            : 48.0 KHzBit depth                                : 16 bitsCompression mode                         : LossyStream size                              : 605 MiB (6%)Title                                    : EnglishLanguage                                 : EnglishDefault                                  : NoForced                                   : No

Text #1ID                                       : 6Format                                   : UTF-8Codec ID                                 : S_TEXT/UTF8Codec ID/Info                            : UTF-8 Plain TextTitle                                    : RUS ForcedLanguage                                 : RussianDefault                                  : YesForced                                   : Yes

Text #2ID                                       : 7Format                                   : UTF-8Codec ID                                 : S_TEXT/UTF8Codec ID/Info                            : UTF-8 Plain TextTitle                                    : Rus FullLanguage                                 : RussianDefault                                  : NoForced                                   : No

Text #3ID                                       : 8Format                                   : UTF-8Codec ID                                 : S_TEXT/UTF8Codec ID/Info                            : UTF-8 Plain TextTitle                                    : UKR ForcedLanguage                                 : UkrainianDefault                                  : NoForced                                   : No

Text #4ID                                       : 9Format                                   : UTF-8Codec ID                                 : S_TEXT/UTF8Codec ID/Info                            : UTF-8 Plain TextTitle                                    : UKR FullLanguage                                 : UkrainianDefault                                  : NoForced                                   : No

Text #5ID                                       : 10Format                                   : UTF-8Codec ID                                 : S_TEXT/UTF8Codec ID/Info                            : UTF-8 Plain TextTitle                                    : ENG SDH ColoredLanguage                                 : EnglishDefault                                  : NoForced                                   : No

Text #6ID                                       : 11Format                                   : UTF-8Codec ID                                 : S_TEXT/UTF8Codec ID/Info                            : UTF-8 Plain TextTitle                                    : Eng SDHLanguage                                 : EnglishDefault                                  : NoForced                                   : No

Text #7ID                                       : 12Format                                   : UTF-8Codec ID                                 : S_TEXT/UTF8Codec ID/Info                            : UTF-8 Plain TextTitle                                    : ENG FullLanguage                                 : EnglishDefault                                  : NoForced                                   : No

piratbit.ru

Возмездие через торрент в хорошем качестве бесплатно BDRip-AVC

ОбщееУникальный идентификатор : 171536812147450575166237438892013148965 (0x810CC9CE8CC1CE2D8C79B1A8DC865B25)Полное имя : Startrek.Vozmezdije.2013.RUS.BDRip.x264.-HELLYWOOD.mkvФормат : MatroskaВерсия формата : Version 4 / Version 2Размер файла : 2,19 ГбайтПродолжительность : 2 ч. 12 м.Общий поток : 2373 Кбит/секНазвание фильма : HELLYWOOD - rip by potroksДата кодирования : UTC 2013-09-11 16:17:49Программа кодирования : mkvmerge v5.9.0 ('On The Loose') built on Dec 15 2012 16:39:58Библиотека кодирования : libebml v1.3.0 + libmatroska v1.4.0

ВидеоИдентификатор : 1Формат : AVCФормат/Информация : Advanced Video CodecПрофиль формата : [email protected]Параметр CABAC формата : ДаПараметр ReFrames формата : 11 кадровИдентификатор кодека : V_MPEG4/ISO/AVCПродолжительность : 2 ч. 12 м.Битрейт : 1923 Кбит/секШирина : 1016 пикселейВысота : 424 пикселяСоотношение сторон : 2,40:1Режим частоты кадров : ПостоянныйЧастота кадров : 23,976 кадра/секЦветовое пространство : YUVСубдискретизация насыщенности : 4:2:0Битовая глубина : 8 битТип развёртки : ПрогрессивнаяБит/(Пиксели*Кадры) : 0.186Размер потока : 1,73 Гбайт (79%)Заголовок : Star Trek Into DarknessБиблиотека кодирования : x264 core 130 r2273 b3065e6Настройки программы : cabac=1 / ref=11 / deblock=1:-2:-2 / analyse=0x3:0x133 / me=umh / subme=11 / psy=1 / psy_rd=1.02:0.00 / mixed_ref=1 / me_range=48 / chroma_me=1 / trellis=2 / 8x8dct=1 / cqm=0 / deadzone=21,11 / fast_pskip=0 / chroma_qp_offset=-2 / threads=8 / lookahead_threads=2 / sliced_threads=0 / nr=0 / decimate=1 / interlaced=0 / bluray_compat=0 / constrained_intra=0 / bframes=12 / b_pyramid=2 / b_adapt=2 / b_bias=0 / direct=3 / weightb=1 / open_gop=0 / weightp=2 / keyint=250 / keyint_min=23 / scenecut=40 / intra_refresh=0 / rc_lookahead=60 / rc=2pass / mbtree=0 / bitrate=1923 / ratetol=1.0 / qcomp=0.70 / qpmin=0 / qpmax=69 / qpstep=4 / cplxblur=20.0 / qblur=0.5 / vbv_maxrate=20000 / vbv_bufsize=20000 / nal_hrd=none / ip_ratio=1.35 / pb_ratio=1.25 / aq=1:0.90Язык : EnglishDefault : ДаForced : Нет

АудиоИдентификатор : 2Формат : AC-3Формат/Информация : Audio Coding 3Расширение режима : CM (complete main)Параметр Endianness формата : BigИдентификатор кодека : A_AC3Продолжительность : 2 ч. 12 м.Вид битрейта : ПостоянныйБитрейт : 448 Кбит/секКаналы : 6 каналовРасположение каналов : Front: L C R, Side: L R, LFEЧастота : 48,0 КГцБитовая глубина : 16 битМетод сжатия : С потерямиРазмер потока : 423 Мбайт (19%)Заголовок : Dub | DD 5.1 @ 448 kbps - Blu-Ray CEEЯзык : RussianDefault : ДаForced : Да

Текст #1Идентификатор : 3Формат : UTF-8Идентификатор кодека : S_TEXT/UTF8Идентификатор кодека/Информация : UTF-8 Plain TextЗаголовок : ForcedЯзык : RussianDefault : ДаForced : Да

Текст #2Идентификатор : 4Формат : UTF-8Идентификатор кодека : S_TEXT/UTF8Идентификатор кодека/Информация : UTF-8 Plain TextЯзык : RussianDefault : НетForced : Нет

Текст #3Идентификатор : 5Формат : UTF-8Идентификатор кодека : S_TEXT/UTF8Идентификатор кодека/Информация : UTF-8 Plain TextЯзык : UkrainianDefault : НетForced : Нет

Текст #4Идентификатор : 6Формат : UTF-8Идентификатор кодека : S_TEXT/UTF8Идентификатор кодека/Информация : UTF-8 Plain TextЯзык : EnglishDefault : НетForced : Нет

Текст #5Идентификатор : 7Формат : UTF-8Идентификатор кодека : S_TEXT/UTF8Идентификатор кодека/Информация : UTF-8 Plain TextЗаголовок : SDHЯзык : EnglishDefault : НетForced : Нет

Текст #6Идентификатор : 8Формат : UTF-8Идентификатор кодека : S_TEXT/UTF8Идентификатор кодека/Информация : UTF-8 Plain TextЗаголовок : SDH-COLOREDЯзык : EnglishDefault : НетForced : Нет

Текст #7Идентификатор : 9Формат : UTF-8Идентификатор кодека : S_TEXT/UTF8Идентификатор кодека/Информация : UTF-8 Plain TextЗаголовок : NotabenoidЯзык : RussianDefault : НетForced : Нет

Текст #8Идентификатор : 10Формат : UTF-8Идентификатор кодека : S_TEXT/UTF8Идентификатор кодека/Информация : UTF-8 Plain TextЗаголовок : ForcedЯзык : UkrainianDefault : НетForced : Нет

Меню00:00:00.000 : en:00:00:00.00000:10:20.370 : en:00:10:20.37000:19:21.494 : en:00:19:21.49400:30:03.969 : en:00:30:03.96900:40:09.115 : en:00:40:09.11500:46:05.262 : en:00:46:05.26200:56:38.228 : en:00:56:38.22801:06:35.783 : en:01:06:35.78301:12:55.663 : en:01:12:55.66301:22:45.752 : en:01:22:45.75201:30:54.741 : en:01:30:54.74101:38:36.369 : en:01:38:36.36901:47:09.548 : en:01:47:09.54801:54:17.142 : en:01:54:17.14201:59:20.653 : en:01:59:20.65302:03:18.308 : en:02:03:18.308

piratbit.ru

Возмездие через торрент в хорошем качестве бесплатно HDRip] |Дубляж

Раздают: 1 [ 0 KB/s ]
Размер: 1.37 GB | Добавлен: 4 года 1 мес. назад | Торрент скачан:11203 раза
Реклама Дарим 3000 рублей за регистрацию, не упусти свой шанс получить шикарный бонус!!!

09-09-2013 19:40 Стартрек: Возмездие Скачать торрент  

Стартрек: Возмездие / Star Trek Into Darkness«Beyond the darkness, lies greatness.»
  • Год выпуска:2013
  • Страна:США
  • Жанр:фантастика, боевик, приключения
  • Продолжительность: 02:12:05
  • Перевод:Профессиональный (полное дублирование) |iTunes Russia / лицензия|
  • Субтитры: Нет
    • Режиссер:Джей Джей Абрамс / J.J. Abrams
    • Сценарий: Роберто Орси / Roberto Orci, Алекс Куртцман / Alex Kurtzman, Дэймон Линделоф / Damon Lindelof, Джин Родденберри / Gene Roddenberry
    • Продюсер: Джей Джей Абрамс / J.J. Abrams, Роберто Орси / Roberto Orci, Брайан Берк / Bryan Burk, Алекс Куртцман / Alex Kurtzman, Дэймон Линделоф / Damon Lindelof
  • В ролях:Крис Пайн (Kirk), Закари Куинто (Spock), Бенедикт Камбербэтч (John Harrison), Саймон Пегг (Scotty), Карл Урбан (Bones), Зои Салдана (Uhura), Элис Ив (Carol), Джон Чо (Sulu), Антон Ельчин (Chekov), Питер Уэллер (Marcus), Брюс Гринвуд (Pike), Леонард Нимой (Spock Prime, в титрах не указан)
    • Описание:Вернувшись на Землю, команда корабля «Энтерпрайз» обнаруживает, что деятельность и принципы их организации подорваны изнутри. Флот скован необъяснимым ужасом и бездействует, пока мир все глубже погружается в бездну.Капитан Кирк берет на себя руководство операцией по поимке злодея, ответственного за этот хаос и способного уничтожить все человечество.В запутанной игре не на жизнь, а на смерть, любовь и дружба будут принесены в жертву ради единственного, что осталось у Кирка - его команды.
  • Рейтингkinopoisk.ru: 8.021 (31 604)imdb.com: 8.00 (164 072)MPAA: PG-13 - Детям до 13 лет просмотр не желателен
    • Качество:HDRip
    • Формат:AVI
    • Видео кодек: XviD
    • Аудио кодек:AC3
    • Видео: XviD, 720x304 , 23.976 fps, 1089 Kbps
    • Аудио: 48.0 KHz, AC3, 384 kb/s (6 ch)
    • Питер Уэллер ранее снимался в фильме «Приключения Бакару Банзая в восьмом измерении» (1984) вместе с бывшим злодеем из «Звездного пути» - Кристофером Ллойдом, а также в фильме «Робокоп» (1987) вместе с другими «ветеранами» серии - Ронни Коксом, Кертвудом Смитом и Мигелем Феррером.
    • Студия Paramount Pictures попросила режиссера Джей Джей Абрамса снять фильм в 3D. Однако Абрамс хотел снимать в 2D на пленку, используя камеры IMAX. В итоге они пришли к компромиссу, и результатом стало то, что этот фильм стал первым в истории кино снятым в IMAX-формате, а затем преобразованным в 3D на стадии пост-продакшна.
    • Сценаристы Роберто Орси и Алекс Куртцман объяснили, что дилеммой для сиквела был выбор - столкнуть экипаж с новым злодеем или же сделать «исследовательский научно-фантастический сюжет», как в сериале «Звездный путь» (1966-1969).
    • По словам Джей Джей Абрамса понятие путешествия во времени, которое было в предыдущем фильме, использовалось преднамеренно, для того чтобы иметь больший простор для работы над новыми фильмами: «То, что теперь мы не зависим от временного периода, позволяет нам использовать любые моменты прошлого, либо же придумывать совершенно новые для создания сюжета».
    • Хейли Этвелл и Тереза Палмер пробовались на роль Кэрол Маркус.
    • Бенисио Дель Торо предлагали роль Джона Харрисона, но в итоге отказался из-за денежных вопросов. Затем на эту роль рассматривались Демиан Бишир, Эдгар Рамирес и Хорди Молья, но в итоге она досталась Бенедикту Камбербэтчу.
    • Это второе появление Питера Уэллера в фильмах серии «Звездный путь». Он ранее снимался в качестве приглашенной звезды в сериале «Звездный путь: Энтерпрайз» (2001-2005).
    • Бенедикта Камбербэтча Джей Джей Абрамсу рекомендовал его сопродюсер по фильму «Супер 8» (2011) - Стивен Спилберг, который работал вместе с Камбербэтчем в фильме «Боевой конь» (2011).
    • Бенедикт Камбербэтч стал широко известен благодаря своей роли в сериале «Шерлок» (2010). Леонард Нимой играл Шерлока Холмса в сценических постановках в 1970-х, и даже упоминает этот факт в фильме «Звездный путь 6: Неоткрытая страна» (1991), ссылаясь на логику Холмса, говоря: «когда вы исключаете невозможное, то, что остается, обычно маловероятно, но должно быть правдой». Так же Кристофер Пламмер исполнял роль Холмса и произносил его фирменную фразу: «Ставки сделаны» (The game`s afoot). Еще Нимой записывал песню в 1970-х - «The Ballad of Bilbo Baggins» (Баллада о Бильбо Бэггинсе), а Камбербэтч озвучивал дракона Смога в фильме «Хоббит: Пустошь Смауга» (2013), в котором его коллега по сериалу «Шерлок» (2010) - Мартин Фриман - сыграл Бильбо Бэггинса.
    • Бенедикт Камбербэтч записал видео ролик для кинопроб на кухне своего лучшего друга при помощи iPhone.
    • Из всех предлагаемых названий для фильма, включая и шуточные, сценаристу Дэймону Линделофу больше всего понравилось: «Звездный путь: Трансформеры 4». Он сказал: «Технически мы без проблем можем исполнить и это».
    • Майкл Дорн, который ранее играл клингонского лейтенанта Ворфа, на момент начала съемок приглашался на роль офицера. Но в конечном итоге создатели фильма решили не смешивать старый и новый актерский состав из серии фильмов «Звездный путь».
    • Сценаристы для вдохновения изучали научно-фантастические романы Артура Ч. Кларка и Ларри Найвена.
    • Это первый раз, когда фильм серии «Звездный путь» снимался за пределами США. Были съемки для сцен со спецэффектами в Исландии.
    • В фильме Джон Харрисон дает Джеймсу Т. Кирку пространственные координаты 23174611. Это координаты орбиты одной из лун Юпитера.
    • Брюс Гринвуд и Питер Уэллер озвучивали героев DC Comics - Брюса Уэйна / Бэтмана: Гринвуд в мультфильме «Бэтмен: Под колпаком» (2010) и сериале «Юная Лига Справедливости» (2010), а Уэллер в «Темный рыцарь: Возрождение легенды. Часть 1» (2012).
    • Коллекция моделей на столе адмирала Маркуса напоминает галерею старых кораблей «Энтерпрайз» из «Звездный путь: Фильм» (1979). В обеих коллекциях есть шаттл НАСА и «XCV 330 USS Энтерпрайз» (корабль с кольцами вокруг его корпуса). Также среди моделей присутствует «NX-01 Энтерпрайз» из сериала «Звездный путь: Энтерпрайз» (2001-2005).
    • Эпизодическую роль транспортного сотрудника в фильме сыграл Кристофер Дуэн - сын «ветерана» серии - Джеймса Дуэна.
    • еще 15 фактов
    • В фильме на 57 минуте, когда Спок целует Ухуру, меняется расположение лица. То её голова к правому плечу, то в следующем кадре голова уже к левому плечу.
    • Когда старый Спок появляется на экране Энтерпрайза, изображение зеркально отображено. Это можно заметить потому, что у актера Нимоя вытянута мочка правого уха, а не левого.
    • Ремень безопасности Сулу то появляется, то исчезает во время сцены финальной битвы.
    • Когда Кирк лежит и умирает у двери с окном, Спок прикладывает свою руку к окну, и делает жест - «Вулканский салют», в следующем кадре его рука уже не показывает этот жест.
    • еще 1 ошибка
            © Оформление by Vetal
  • Скачать Стартрек: Возмездие через торрент http://pic.pb.wtf/images/3/ho6og511wc.jpg Скачать фильм Стартрек: Возмездие через торрент бесплантно в хорошем качестве Описание:Вернувшись на Землю, команда корабля «Энтерпрайз» обнаруживает, что деятельность и принципы их организации подорваны изнутри. Флот ... 2013-09-09 19:40 9.6 10 230

    Loading...

    Loading...

    Рекламный пират

    10-09-2013 04:34 Стартрек: Возмездие Скачать торрент  

    спасибо!) фильм реально крутой, смотрел в кино, очень понравился)

    10-09-2013 09:52 Стартрек: Возмездие Скачать торрент  

    itunes это оригинальные голоса или любительские? а то третий сэпл качаю и в голосах не пойму - они ли в кино были. Подскажите пожалуйста

    10-09-2013 10:16 Стартрек: Возмездие Скачать торрент  

    народ есть смысал смотреть его, если предыдушие части невидел ?

    10-09-2013 10:24 Стартрек: Возмездие Скачать торрент  

    XBoy360 писал(а):

    itunes это оригинальные голоса или любительские? а то третий сэпл качаю и в голосах не пойму - они ли в кино были. Подскажите пожалуйста

    Да, это тот перевод, что был в кинотеатре))а не то убогое Г*ВН* которое недавно выкладывали) скачал недавно....вроде дубляж а голоса не те, только потом понял, что ребятки просто взяли и своими голосами озвучили фильм. Сами они переводить не стали, весь текст они скатали из оригинального дубляжа с экранки. Мало того, они ещё решили, что можно добавить в фильм ещё своих саундтреков, я блевался от такого рукоделия лучше бы вообще не брались...испортили весь фильм, озвучивали вообще почти без интонации...Гореть им в аду с оторванными руками!

    10-09-2013 22:34 Стартрек: Возмездие Скачать торрент  

    10-09-2013 23:43 Стартрек: Возмездие Скачать торрент  

    Красиво смотреть в 3D! Советую...

    12-09-2013 05:13 Стартрек: Возмездие Скачать торрент  

    интересный фильм

    12-09-2013 13:15 Стартрек: Возмездие Скачать торрент  

    Pекламный агент PB

    12-09-2013 19:45 Стартрек: Возмездие Скачать торрент  

    Фильм для детей.

    15-09-2013 17:50 Стартрек: Возмездие Скачать торрент  

    фильм отличный достойное продолжения 1 части, кто б что не писал.Нужно обязательно смотреть только после первой.Смотрел в 3д супер.Жду 3 части

    15-09-2013 18:17 Стартрек: Возмездие Скачать торрент  

    16-09-2013 09:19 Стартрек: Возмездие Скачать торрент  

    Первые три раза начинал смотреть, но засыпал, с четвёртого раза глянул, на разок посмотреть можно.

    18-09-2013 14:12 Стартрек: Возмездие Скачать торрент  

    это просто супер фильм вырубил на середине ибо этот бред смотреть не было сил... и этот Абрамс собрался снимать новый эпизод по звёздным войнам. боже храни галактику....

    20-09-2013 04:27 Стартрек: Возмездие Скачать торрент  

    Vetаl писал(а):

    Стартрек: Возмездие / Star Trek Into Darkness (Джей Джей Абрамс) [2013, фантастика, боевик, приключения, HDRip] |Дубляж, iTunes Russia / лицензия|

    Терь Понятно почему я недосмотрел 1 часть ) это ещё те сопли

    20-09-2013 23:56 Стартрек: Возмездие Скачать торрент  

    Отличный фильм для вечернего просмотра )

    21-09-2013 15:36 Стартрек: Возмездие Скачать торрент  

    Victor4507 писал(а):

    Фильм для детей.

    Все мы дети, только игрушки у всех разные. Мне за 30, досих пор в GTA шпилюсь и нормуль.А фильм надеюсь не хуже первой части. Раздающему благодарочка.

    Pекламный агент PB

    21-09-2013 23:20 Стартрек: Возмездие Скачать торрент  

    скачал 6ти гиговый файл, а перевода нет.. так и должно быть?

    22-09-2013 00:36 Стартрек: Возмездие Скачать торрент  

    АлексейАндреевич писал(а):

    ачал 6ти гиговый файл, а перевода нет.. так и должно быть?

    Нужно в плеере дорожку выбрать.А может где качали там только оригинал.

    03-10-2013 20:04 Стартрек: Возмездие Скачать торрент  

    Спасибо, посмотрю

    27-11-2013 18:00 Стартрек: Возмездие Скачать торрент  

    :rofle:

    27-11-2013 18:32 Стартрек: Возмездие Скачать торрент  

    Бенедикт сыграл отлично! а фильм супер, что первая, что вторая часть.

    01-12-2013 19:00 Стартрек: Возмездие Скачать торрент  

    Первый мне больше понравился.

    02-12-2013 19:03 Стартрек: Возмездие Скачать торрент  

    Victor4507 писал(а):

    Фильм для детей.

    хочу всегда оставаться ребенком!!!!!!!!!!!!!!!!

    Дорогой пользователь! Огромная просьба, поблагодарите релизера, оцените раздачу и оставьте свои комментарий, если Вы скачали Стартрек: Возмездие через торрент бесплатно! Внесите свою лепту в развитие PiratBit!

    Комментировать посты могут только пользователи прошедшие не сложную регистрацию

    Стартрек: Возмездие через торрент Скачать бесплатно Стартрек: Возмездие Стартрек: Возмездие скачать торрент Стартрек: Возмездие смотреть онлайн Cкачать фильм Стартрек: Возмездие бесплатно Стартрек: Возмездие скачать торрент в хорошем качестве Стартрек: Возмездие смотреть онлайн бесплатно в хорошем качестве

    Вы не можете начинать темыВы не можете отвечать на сообщенияВы не можете редактировать свои сообщенияВы не можете удалять свои сообщенияВы не можете голосовать в опросахВы не можете прикреплять файлы к сообщениямВы можете скачивать файлы

    piratbit.ru

    Скачать Стартрек: Возмездие через торрент

    Категория: Фильмы 2212 0 Торрент добавлен: 17-04-2015 Рейтинг:

    2013 / боевик, приключения, фантастика / 123 мин.Выпущено: СШАРежиссёр: Джей Джей АбрамсВ ролях: Крис Пайн, Закари Куинто, Карл Урбан, Зои Салдана, Саймон Пегг, Бенедикт Камбербэтч, Антон Ельчин, Элис Ив, Джон Чо, Питер Уэллер

    После того как команда космического корабля «Интерпрайс» возвращается из очередного путешествия, происходит разлад коллектива изнутри. Люди, словно стали не замечать проблемы, стали апатичны и все шло к тому, что мир может погрузиться в далекую бездну. Капитан Кирк со своей верной командой намерен остановить это и чтобы не позволить человечеству полностью погибнуть они собираются найти виновника сложившиеся ситуации. События становятся невероятно запутанными, и Капитану Кирку предстоит сделать выбор между выполнением своего долга, любовью и дружбой.

    Трейлер к фильму Стартрек: Возмездие

    Стартрек: Возмездие скачать торрент

    Качество: Blu-Ray Remux (1080p)Видео: MPEG-4 AVC, 26.2 Мбит/с, 1920x1080, 23.976 кадр/сАудио: Русский (AC3, 6 ch, 384 Кбит/с), английский (TrueHD, 8 ch, 4342 Кбит/с), (AC3, 6 ch, 640 Кбит/с) Дублированный [iTunes Russia]
    3DФормат 3D: Half OverUnder / Вертикальная анаморфная стереопараКачество: BDRip (1080p)Видео: MPEG-4 AVC, 16.5 Мбит/с, 1920x1080, 23.976 кадр/сАудио: Русский (AC3, 6 ch, 384 Кбит/с), английский (AC3, 6 ch, 640 Кбит/с)Перевод: Дублированный [iTunes Russia]

    16,18 Gb

    Качество: BDRip (1080p)Видео: MPEG-4 AVC, 14.2 Мбит/с, 1918x800, 23.976 кадра/секАудио: Русский (AC3, 6 ch, 384 Кбит/с), английский (AC3, 6 ch, 640 Кбит/с)Дублированный [iTunes Russia]

    14,33 Gb

    Качество: НDRipФормат: AVIВидео: 720x304 (2.37:1), 23.976 fps, XviD build 73 ~1369 kbps avg, 0.26 bit/pixelАудио: 48 kHz, AC3 Dolby Digital, 2/0 (L,R) ch, ~192 kbps, Дубляж - iTunes Russia

    1,45 Gb

    Вы находитесь на странице, где можете совершенно бесплатно скачать фильм Стартрек: Возмездие в хорошем качестве через торрент, в любом формате, который больше всего вам на данный момент подходит. Скачивание осуществляется через торрент, что означает максимально высокую скорость загрузки. Желаем Вам приятного просмотра!. Не забудь поделиться своими впечатлениями после того как посмотришь фильм Стартрек: Возмездие.

    Информация Посетители, находящиеся в группе Гости, не могут оставлять комментарии к данной публикации.

    psp-gu.ru

    Возмездие через торрент в хорошем качестве бесплатно BDRip-AVC

    Раздают: 1 [ 0 KB/s ]
    Размер: 1.46 GB | Добавлен: 4 года 1 мес. назад | Торрент скачан:784 раза
    Реклама Дарим 3000 рублей за регистрацию, не упусти свой шанс получить шикарный бонус!!!

    11-09-2013 14:24 Стартрек: Возмездие Скачать торрент  

    Стартрек: Возмездие / Star Trek Into Darkness«Beyond the darkness, lies greatness.» Страна: США / Paramount Pictures, Skydance Productions, Bad RobotЖанр: фантастика, боевик, приключенияГод выпуска: 2013 Продолжительность: 02:12:05

    Перевод: Профессиональный (полное дублирование) (Лицензия)Cубтитры: Нет

    Режиссер: Джей Джей Абрамс / J.J. Abrams

    В ролях: Крис Пайн (Kirk), Закари Куинто (Spock), Бенедикт Камбербэтч (John Harrison), Саймон Пегг (Scotty), Карл Урбан (Bones), Зои Салдана (Uhura), Элис Ив (Carol), Джон Чо (Sulu), Антон Ельчин (Chekov), Питер Уэллер (Marcus), Брюс Гринвуд (Pike), Леонард Нимой (Spock Prime), Ноэль Кларк (Thomas Harewood)

    Описание: Вернувшись на Землю, команда корабля «Энтерпрайз» обнаруживает, что деятельность и принципы их организации подорваны изнутри. Флот скован необъяснимым ужасом и бездействует, пока мир все глубже погружается в бездну. Капитан Кирк берет на себя руководство операцией по поимке злодея, ответственного за этот хаос и способного уничтожить все человечество. В запутанной игре не на жизнь, а на смерть, любовь и дружба будут принесены в жертву ради единственного, что осталось у Кирка — его команды.

    |

    Релиз:

    Автор рипа: S.T.A.L.K.E.R.2 (aka Stalker oK)

    Сэмпл: http://multi-up.com/902403

    Качество: BDRip-AVC [Blu-ray 1080p]Формат: MKVВидео кодек: AVCАудио кодек: AACВидео: 1317 Кбит/сек, 964*402 (2,35:1), в 23,976 кадр/сек, AVCАудио: Russian, 264,6 Кбит/сек, 48,0 КГц, 6 канала(ов), AAC (LC)

    ОбщееУникальный идентификатор : 214140378981921105281025370254605892919 (0xA119EFD3542AFE20B451AC7F83093D37)Полное имя : H:Стартрек 2Startrek_Vozmezdie_2013_BDRip_AVC_Dub__stalkerok.mkvФормат : MatroskaРазмер файла : 1,46 ГбайтПродолжительность : 2 ч. 12 м.Общий поток : 1583 Кбит/секНазвание фильма : Star Trek Into Darkness 2013 (Youtracker) (Rip by Stalker oK)Дата кодирования : UTC 2013-09-11 14:06:42Программа кодирования : mkvmerge v6.2.0 ('Promised Land') built on Apr 28 2013 12:22:01Библиотека кодирования : libebml v1.3.0 + libmatroska v1.4.0

    ВидеоИдентификатор : 1Формат : AVCФормат/Информация : Advanced Video CodecПрофиль формата : [email protected]Параметр CABAC формата : ДаПараметр ReFrames формата : 10 кадрыПараметры GOP формата : M=11, N=24Идентификатор кодека : V_MPEG4/ISO/AVCПродолжительность : 2 ч. 12 м.Номинальный битрейт : 1317 Кбит/секШирина : 964 пикс.Высота : 402 пикс.Соотношение сторон : 2,35:1Частота кадров : 23,976 кадр/секЦветовое пространство : YUVПодвыборка цветности : 4:2:0Битовая глубина : 8 битТип развёртки : ПрогрессивнаяБит/(Пиксели*Кадры) : 0.142Библиотека кодирования : x264 core 130 r2273 b3065e6Настройки программы : cabac=1 / ref=10 / deblock=1:-2:-2 / analyse=0x3:0x133 / me=umh / subme=11 / psy=1 / psy_rd=1.03:0.06 / mixed_ref=1 / me_range=32 / chroma_me=1 / trellis=2 / 8x8dct=1 / cqm=0 / deadzone=21,11 / fast_pskip=0 / chroma_qp_offset=-3 / threads=6 / lookahead_threads=1 / sliced_threads=0 / nr=0 / decimate=0 / interlaced=0 / bluray_compat=0 / constrained_intra=0 / bframes=10 / b_pyramid=2 / b_adapt=2 / b_bias=0 / direct=3 / weightb=1 / open_gop=0 / weightp=2 / keyint=240 / keyint_min=23 / scenecut=40 / intra_refresh=0 / rc_lookahead=60 / rc=2pass / mbtree=1 / bitrate=1317 / ratetol=2.0 / qcomp=0.70 / qpmin=0 / qpmax=69 / qpstep=4 / cplxblur=20.0 / qblur=0.5 / vbv_maxrate=17000 / vbv_bufsize=20000 / nal_hrd=none / ip_ratio=1.40 / aq=2:0.80

    АудиоИдентификатор : 2Формат : AACФормат/Информация : Advanced Audio CodecПрофиль формата : LCИдентификатор кодека : A_AACПродолжительность : 2 ч. 12 м.Канал(ы) : 6 канала(ов)Расположение каналов : Front: L C R, Side: L R, LFEЧастота : 48,0 КГцМетод сжатия : С потерямиЗадержка видео : 9 мс.Заголовок : Dub (Лицензия)Язык : Russian

    Скачать Стартрек: Возмездие через торрент http://i60.fastpic.ru/big/2013/0828/6a/068f06dff119334ddd2c79b32d71ac6a.png Скачать фильм Стартрек: Возмездие через торрент бесплантно в хорошем качестве Описание: Вернувшись на Землю, команда корабля «Энтерпрайз» обнаруживает, что деятельность и принципы их организации подорваны изнутри. ... 2013-09-11 14:24 9.4 10 10

    Loading...

    Loading...

    % Раздел Тема Автор DL S | L
    Фильмы 2013 [DVDrip, WEB-DLRip, HDrip] [ 2.18 GB ] Стартрек: Возмездие / Star Trek Into Darkness [2013 BDRip DUB [лицензия] + ENG +DUB + SUB Ворон Скачать
    Фильмы [HD 720p, 1080p] (Хороший звук DUB, MVO) [ 15.13 GB ] Стартрек: Возмездие / Star Trek Into Darkness [2013 BDRip 1080p DUB] лисяра Скачать
    Фильмы [HD 720p, 1080p] (Хороший звук DUB, MVO) [ 9.44 GB ] Стартрек: Возмездие / Star Trek Into Darkness [IMAX Edition] [2013 BDRip 720p] DUB + AVO [Ю. Немахов] + UKR + Subs от R.G. PiratFilms Messa-fan Скачать
    Фильмы (Blu-ray, BD-Remux, HDDVD) [ 29.11 GB ] Стартрек: Возмездие / Star Trek Into Darkness [2013 BDRemux] | Russia / лицензия| Ворон Скачать
    Фильмы [HD 720p, 1080p] (Хороший звук DUB, MVO) [ 21.82 GB ] Стартрек: Возмездие / Star Trek Into Darkness [2013 BDRip 1080p DUB] [] лисяра Скачать
    3D Фильмы [ 18.41 GB ] Стартрек: Возмездие 3D / Star Trek Into Darkness 3D [2013 BDRip 1080p DUB] [] Half OverUnder / Вертикальная анаморфная стереопара лисяра Скачать
    Фильмы 2013 [DVDrip, WEB-DLRip, HDrip] [ 1.37 GB ] Стартрек: Возмездие / Star Trek Into Darkness [2013 HDRip] | Russia / лицензия| Ворон Скачать

    Рекламный пират

    11-09-2013 14:42 Стартрек: Возмездие Скачать торрент  

    Vetаl, это не айтюнс, зачем исправил

    11-09-2013 15:19 Стартрек: Возмездие Скачать торрент  

    Разницы никакой нету с айтюнс, особенно для таких рипов.А вот любителям HD прийдеться ждать DTS, глянул исходник что то он сомнительный.Надо дождаться наш блюрей.

    11-09-2013 15:34 Стартрек: Возмездие Скачать торрент  

    Vetаl, хе смайлик убрал :ad: А вообще это и есть с блюрея звукУже и DTS-HD на клабе с ремуксом выложили

    11-09-2013 16:01 Стартрек: Возмездие Скачать торрент  

    sokol_ok писал(а):

    хе смайлик убрал

    Ну ты подбирай на будущее смайлики.

    Дорогой пользователь! Огромная просьба, поблагодарите релизера, оцените раздачу и оставьте свои комментарий, если Вы скачали Стартрек: Возмездие через торрент бесплатно! Внесите свою лепту в развитие PiratBit!

    Комментировать посты могут только пользователи прошедшие не сложную регистрацию

    Стартрек: Возмездие через торрент Скачать бесплатно Стартрек: Возмездие Стартрек: Возмездие скачать торрент Стартрек: Возмездие смотреть онлайн Cкачать фильм Стартрек: Возмездие бесплатно Стартрек: Возмездие скачать торрент в хорошем качестве Стартрек: Возмездие смотреть онлайн бесплатно в хорошем качестве

    Вы не можете начинать темыВы не можете отвечать на сообщенияВы не можете редактировать свои сообщенияВы не можете удалять свои сообщенияВы не можете голосовать в опросахВы не можете прикреплять файлы к сообщениямВы можете скачивать файлы

    piratbit.ru

    Скачать фильм Стартрек: Возмездие (2013) через торрент

    2 февраля 2016 07:26 Стартрек: Возмездие / Star Trek Into Darkness (2013) BDRip 720p от HELLYWOOD | IMAX .torrent   [Информация о файле (нажмите для просмотра)] Перевод: Профессиональный (полное дублирование) Blu-ray CEE Авторский (одноголосый, закадровый) Ю.Немахов Украинский профессиональный (полное дублирование) R5 Оригинальная звуковая дорожкаСубтитры: Русские(полные, форсированные), Украинские (полные, форсированные), Английские (полные, SDH, SDH цветные).Формат: MKVКачество: BDRip 720p [IMAX Edition] (Исходник: HDClub/ Blu-ray Remux [IMAX Edition] /1080p)Видео: 1278x720 at 23.976 fps, [email protected], 2pass, ~9231 kbps avgАудио #1: 48 kHz, AC3 Dolby Digital, 3/2 (L,C,R,l,r) + LFE ch, ~640 kbps|DUB, Blu-ray CEE|Аудио #2: 48 kHz, AC3 Dolby Digital, 3/2 (L,C,R,l,r) + LFE ch, ~640 kbps|AVO, Ю.Немахов|Аудио #3: 48 kHz, AC3 Dolby Digital, 3/2 (L,C,R,l,r) + LFE ch, ~448 kbps|UKR, R5|Аудио #4: 48 kHz, AC3 Dolby Digital, 3/2 (L,C,R,l,r) + LFE ch, ~640 kbps|ENG| 10,71 Gb 33 3 2 февраля 2016 07:26 Стартрек: Возмездие / Star Trek Into Darkness (2013) BDRip 1080p от Neofilm | IMAX | Лицензия .torrent   [Информация о файле (нажмите для просмотра)] Перевод: Дубляж, Blu-ray CEEКодек: x.264Качество: BDRip 1080pВидео: ~19300 kb/s, 1920x1080, 23.976 fpsЗвук: Аудио#1: Russian: 48 kHz, AC3, 3/2 (L,C,R,l,r) + LFE ch, ~640.00 kbps avg |Дубляж, Blu-ray CEE| Аудио#2: Ukrainian: 48 kHz, AC3, 3/2 (L,C,R,l,r) + LFE ch, ~448.00 kbps avg |Дубляж, R5| Аудио#3: Russian: 48 kHz, AC3, 3/2 (L,C,R,l,r) + LFE ch, ~640.00 kbps avg |Одноголосый закадровый, Ю.Немахов| Аудио#4: English: 48 kHz, AC3, 3/2 (L,C,R,l,r) + LFE ch, ~640.00 kbps avgСубтитры: Russian (Forced), Russian, Ukrainian (Forced), Ukrainian, English, English (SDH), English (SDH-COLORED) 20,36 Gb 28 6 2 февраля 2016 07:26 Стартрек: Возмездие / Star Trek Into Darkness (2013) BDRip 720p от HQ-ViDEO | Лицензия .torrent   [Информация о файле (нажмите для просмотра)] Перевод: Профессиональный дублированный /Лицензия Blu-Ray CEE/Субтитры: Русские (форс. + полные), Английские (3 вида)Видео: x.264, 1280x534 (2.40:1), ~8324 kbps avg, 23,976 fpsАудио #1: AC3 Dolby Digital, 48 KHz, ~640 kbps, 3/2 (L,C,R,l,r) + LFE ch/RUS/Аудио #2: AC3 Dolby Digital, 48 KHz, ~640 kbps, 3/2 (L,C,R,l,r) + LFE ch/ENG/ 8,87 Gb 54 7 2 февраля 2016 07:26 Стартрек: Возмездие / Star Trek Into Darkness (2013) BDRip-AVC от HQCLUB | IMAX | Лицензия .torrent   [Информация о файле (нажмите для просмотра)] Перевод: Профессиональный (полное дублирование),BD EURСубтитры: русские (полные, форсированные), украинские (полные, форсированные), английские (полные, SDH, SDH Colored)Формат: MKVКачество: BDRip-AVC (источник / Blu-ray EUR / 1080p)Видео: 1068x602 (1.774:1), 23.976 fps, MPEG-4 AVC, ~4328 kbps avg, 0.281 bit/pixelАудио #1: 48 kHz, AC3 Dolby Digital, 3/2 (L,C,R,l,r) + LFE ch, ~448 kbps (DUB)Аудио #2: 48 kHz, AC3 Dolby Digital, 3/2 (L,C,R,l,r) + LFE ch, ~448 kbps (ENG)Аудио #3: 48 kHz, AC3 Dolby Digital, 3/2 (L,C,R,l,r) + LFE ch, ~448 kbps (AVO.NEMAHOV)(отдельно)Аудио #4: 48 kHz, AC3 Dolby Digital, 3/2 (L,C,R,l,r) + LFE ch, ~448 kbps (UKR)(отдельно)Видео: Идентификатор : 1 Формат : AVC Формат/Информация : Advanced Video Codec Профиль формата : [email protected] Параметр CABAC формата : Да Параметр ReFrames формата : 11 кадров Идентификатор кодека : V_MPEG4/ISO/AVC Продолжительность : 2 ч. 12 м. Битрейт : 4328 Кбит/сек Ширина : 1068 пикселей Высота : 602 пикселя Соотношение сторон : 16:9 Режим частоты кадров : Постоянный Частота кадров : 23,976 кадра/сек Цветовое пространство : YUV Субдискретизация насыщенности : 4:2:0 Битовая глубина : 8 бит Тип развёртки : Прогрессивная Бит/(Пиксели*Кадры) : 0.281 Размер потока : 3,99 Гбайт (81%) Заголовок : Стартрек: Возмездие / Star Trek Into Darkness [IMAX Edition] (2013) BDRip-AVC by HQCLUB [Elheym] Библиотека кодирования : x264 core 142 r2479 dd79a61 Настройки программы : cabac=1 / ref=11 / deblock=1:-3:-2 / analyse=0x3:0x113 / me=umh / subme=11 / psy=1 / psy_rd=1.06:0.00 / mixed_ref=1 / me_range=32 / chroma_me=1 / trellis=2 / 8x8dct=1 / cqm=0 / deadzone=21,11 / fast_pskip=0 / chroma_qp_offset=-4 / threads=6 / lookahead_threads=1 / sliced_threads=0 / nr=0 / decimate=1 / interlaced=0 / bluray_compat=0 / constrained_intra=0 / bframes=11 / b_pyramid=2 / b_adapt=2 / b_bias=0 / direct=1 / weightb=1 / open_gop=0 / weightp=2 / keyint=230 / keyint_min=23 / scenecut=40 / intra_refresh=0 / rc_lookahead=40 / rc=crf / mbtree=1 / crf=16.1 / qcomp=0.60 / qpmin=0 / qpmax=69 / qpstep=4 / vbv_maxrate=50000 / vbv_bufsize=62500 / crf_max=0.0 / nal_hrd=none / filler=0 / ip_ratio=1.40 / aq=2:0.90 Язык : English Default : Да Forced : НетАудио #1: Идентификатор : 2 Формат : AC-3 Формат/Информация : Audio Coding 3 Расширение режима : CM (complete main) Параметр Endianness формата : Big Идентификатор кодека : A_AC3 Продолжительность : 2 ч. 12 м. Вид битрейта : Постоянный Битрейт : 448 Кбит/сек Каналы : 6 каналов Расположение каналов : Front: L C R, Side: L R, LFE Частота : 48,0 КГц Битовая глубина : 16 бит Метод сжатия : С потерями Размер потока : 423 Мбайт (8%) Заголовок : АС3 5.1 @ 448 kbps - Dub, BD EUR Язык : Russian Default : Нет Forced : НетАудио #2: Идентификатор : 3 Формат : AC-3 Формат/Информация : Audio Coding 3 Расширение режима : CM (complete main) Параметр Endianness формата : Big Идентификатор кодека : A_AC3 Продолжительность : 2 ч. 12 м. Вид битрейта : Постоянный Битрейт : 448 Кбит/сек Каналы : 6 каналов Расположение каналов : Front: L C R, Side: L R, LFE Частота : 48,0 КГц Битовая глубина : 16 бит Метод сжатия : С потерями Размер потока : 423 Мбайт (8%) Заголовок : АС3 5.1 @ 448 kbps - Original Язык : English Default : Нет Forced : Нет 4,92 Gb 82 3 2 февраля 2016 07:26 Стартрек: Возмездие / Star Trek Into Darkness (2013) BDRip 1080p | IMAX .torrent   [Информация о файле (нажмите для просмотра)] Перевод: Дублированный (лицензия)Кодек: x264Качество: BDRip (источник: Blu-ray Disc)Видео: 1920x1080 (16:9), 23.976 fps, 11,2 MbpsАудио #1: AC-3, 6 ch, 640 kbps (Rus)Аудио #2: AC-3, 6 ch, 640 kbps (Eng)Субтитры: Русские (форс,полные), АнглийскиеВидео: Идентификатор : 1 Формат : AVC Формат/Информация : Advanced Video Codec Профиль формата : [email protected] Параметр CABAC формата : Да Параметр ReFrames формата : 4 кадра Идентификатор кодека : V_MPEG4/ISO/AVC Продолжительность : 2 ч. 12 м. Битрейт : 11,2 Мбит/сек Ширина : 1920 пикселей Высота : 1080 пикселей Соотношение сторон : 16:9 Режим частоты кадров : Постоянный Частота кадров : 23,976 кадра/сек Цветовое пространство : YUV Субдискретизация насыщенности : 4:2:0 Битовая глубина : 8 бит Тип развёртки : Прогрессивная Бит/(Пиксели*Кадры) : 0.225 Размер потока : 10,1 Гбайт (88%) Заголовок : Release by AlexKa Библиотека кодирования : x264 core 142 r2479 dd79a61 Настройки программы : cabac=1 / ref=4 / deblock=1:-3:-3 / analyse=0x3:0x133 / me=umh / subme=11 / psy=1 / psy_rd=1.00:0.00 / mixed_ref=1 / me_range=32 / chroma_me=1 / trellis=2 / 8x8dct=1 / cqm=0 / deadzone=21,11 / fast_pskip=0 / chroma_qp_offset=-2 / threads=12 / lookahead_threads=2 / sliced_threads=0 / nr=0 / decimate=0 / interlaced=0 / bluray_compat=0 / constrained_intra=0 / bframes=9 / b_pyramid=2 / b_adapt=2 / b_bias=0 / direct=3 / weightb=1 / open_gop=0 / weightp=2 / keyint=240 / keyint_min=23 / scenecut=40 / intra_refresh=0 / rc=2pass / mbtree=0 / bitrate=11200 / ratetol=1.0 / qcomp=0.60 / qpmin=0 / qpmax=69 / qpstep=4 / cplxblur=20.0 / qblur=0.5 / ip_ratio=1.40 / pb_ratio=1.30 / aq=1:0.80 Язык : EnglishАудио #1: Идентификатор : 2 Формат : AC-3 Формат/Информация : Audio Coding 3 Расширение режима : CM (complete main) Параметр Endianness формата : Big Идентификатор кодека : A_AC3 Продолжительность : 2 ч. 12 м. Вид битрейта : Постоянный Битрейт : 640 Кбит/сек Каналы : 6 каналов Расположение каналов : Front: L C R, Side: L R, LFE Частота : 48,0 КГц Битовая глубина : 16 бит Метод сжатия : С потерями Размер потока : 605 Мбайт (5%) Заголовок : Rus Язык : RussianАудио #2: Идентификатор : 3 Формат : AC-3 Формат/Информация : Audio Coding 3 Расширение режима : CM (complete main) Параметр Endianness формата : Big Идентификатор кодека : A_AC3 Продолжительность : 2 ч. 12 м. Вид битрейта : Постоянный Битрейт : 640 Кбит/сек Каналы : 6 каналов Расположение каналов : Front: L C R, Side: L R, LFE Частота : 48,0 КГц Битовая глубина : 16 бит Метод сжатия : С потерями Размер потока : 605 Мбайт (5%) Заголовок : Eng Язык : English 11,51 Gb 79 9 2 февраля 2016 07:25 Стартрек: Возмездие / Star Trek Into Darkness (2013) BD-Remux 1080p от Neofilm | IMAX | Лицензия .torrent   [Информация о файле (нажмите для просмотра)] Перевод: Дубляж, Paramount PicturesКодек: H.264Качество: BD-Remux 1080pВидео: ~21458 kb/s, 1920x1080, 23.976 fpsЗвук: Аудио#1: Russian: 48 kHz/24-bit, DTS-HD MA 5.1, ~4055.00 kbps avg |Дубляж, Paramount Pictures| Аудио#2: English: 48 kHz/24-bit, Dolby TrueHD 7.1, ~4342.00 kbps avg Аудио#3: English: 48 kHz, AC3, 3/2 (L,C,R,l,r) + LFE ch, ~640.00 kbps avg |Комментарии|Субтитры: Russian (Forced, iTunes), Russian (iTunes), English (iTunes), English, English (SDH), English (SDH-COLORED) 28,13 Gb 12 10 2 февраля 2016 07:25 Стартрек: Возмездие / Star Trek Into Darkness (2013) BDRip 1080p .torrent   [Информация о файле (нажмите для просмотра)] Перевод: Дублированный (лицензия) + ОригиналКодек: x264Качество: BDRip (источник: Blu-ray Disc)Видео: 1920x800 (2,40:1), 23.976 fps, 11,2 MbpsАудио #1: AC-3, 6 ch, 640 kbps (Rus) Blu-ray CEEАудио #2: AC-3, 6 ch, 640 kbps (Eng) ОригиналСубтитры: Русские (Forced), Русские, АнглийскиеВидео: Идентификатор : 1 Формат : AVC Формат/Информация : Advanced Video Codec Профиль формата : [email protected] Параметр CABAC формата : Да Параметр ReFrames формата : 5 кадров Идентификатор кодека : V_MPEG4/ISO/AVC Продолжительность : 2 ч. 12 м. Битрейт : 11,2 Мбит/сек Ширина : 1920 пикселей Высота : 800 пикселей Соотношение сторон : 2,40:1 Режим частоты кадров : Постоянный Частота кадров : 23,976 кадра/сек Цветовое пространство : YUV Субдискретизация насыщенности : 4:2:0 Битовая глубина : 8 бит Тип развёртки : Прогрессивная Бит/(Пиксели*Кадры) : 0.305 Размер потока : 10,1 Гбайт (88%) Заголовок : Release by N1NT3NDO Библиотека кодирования : x264 core 138 r2358 9e941d1 Настройки программы : cabac=1 / ref=5 / deblock=1:-3:-3 / analyse=0x3:0x133 / me=umh / subme=11 / psy=1 / psy_rd=1.00:0.00 / mixed_ref=1 / me_range=32 / chroma_me=1 / trellis=2 / 8x8dct=1 / cqm=0 / deadzone=21,11 / fast_pskip=0 / chroma_qp_offset=-2 / threads=12 / lookahead_threads=1 / sliced_threads=0 / nr=0 / decimate=0 / interlaced=0 / bluray_compat=0 / constrained_intra=0 / bframes=6 / b_pyramid=2 / b_adapt=2 / b_bias=0 / direct=3 / weightb=1 / open_gop=0 / weightp=2 / keyint=240 / keyint_min=23 / scenecut=40 / intra_refresh=0 / rc_lookahead=80 / rc=2pass / mbtree=0 / bitrate=11233 / ratetol=1.0 / qcomp=0.60 / qpmin=0 / qpmax=69 / qpstep=4 / cplxblur=20.0 / qblur=0.5 / vbv_maxrate=50000 / vbv_bufsize=62500 / nal_hrd=none / ip_ratio=1.40 / pb_ratio=1.30 / aq=1:1.00 Язык : English Default : Да Forced : НетАудио #1: Идентификатор : 2 Формат : AC-3 Формат/Информация : Audio Coding 3 Расширение режима : CM (complete main) Параметр Endianness формата : Big Идентификатор кодека : A_AC3 Продолжительность : 2 ч. 12 м. Вид битрейта : Постоянный Битрейт : 640 Кбит/сек Каналы : 6 каналов Расположение каналов : Front: L C R, Side: L R, LFE Частота : 48,0 КГц Битовая глубина : 16 бит Метод сжатия : С потерями Размер потока : 605 Мбайт (5%) Заголовок : Rus (Blu-ray CEE) Язык : Russian Default : Да Forced : НетАудио #2: Идентификатор : 3 Формат : AC-3 Формат/Информация : Audio Coding 3 Расширение режима : CM (complete main) Параметр Endianness формата : Big Идентификатор кодека : A_AC3 Продолжительность : 2 ч. 12 м. Вид битрейта : Постоянный Битрейт : 640 Кбит/сек Каналы : 6 каналов Расположение каналов : Front: L C R, Side: L R, LFE Частота : 48,0 КГц Битовая глубина : 16 бит Метод сжатия : С потерями Размер потока : 605 Мбайт (5%) Заголовок : Eng Язык : English Default : Нет Forced : Нет 11,54 Gb 71 9 2 февраля 2016 07:25 Стартрек: Возмездие / Star Trek Into Darkness (2013) DVD5 от New-Team | D | сжатый .torrent   [Информация о файле (нажмите для просмотра)] Перевод: Профессиональный (дублированный)Формат: DVD VideoВидео: PAL 16x9 (720х576) VBR ~ 4407 kbps, Auto LetterboxedАудио: 48 kHz, Dolby AC3, 6 ch, 448 kbps,русский 4,37 Gb 7 2 2 февраля 2016 07:25 Стартрек: Возмездие / Star Trek Into Darkness (2013) DVD9 R5 от New-Team | D | лицензия .torrent   [Информация о файле (нажмите для просмотра)] Перевод: Профессиональный (дублированный)Формат: DVD VideoВидео: PAL 16x9 (720х576) VBR ~ 5600 kbps, Auto LetterboxedАудио 1: 48 kHz, Dolby AC3, 6 ch, 448 kbps, английскийАудио 2: 48 kHz, Dolby AC3, 6 ch, 448 kbps,русскийАудио 3: 48 kHz, Dolby AC3, 6 ch, 448 kbps, украинский 6,83 Gb 11 2 2 февраля 2016 07:25 Стартрек: Возмездие / Star Trek Into Darkness (2013) Blu-Ray 1080p | Лицензия | 3D-Video .torrent   [Информация о файле (нажмите для просмотра)] Качество: Blu-Ray 3DВидео: MPEG-4 AVC, 21.9 Мбит/с, 1920x1080Аудио: Английский (TrueHD, 8 ch, 4342 Кбит/с), чешский, венгерский, польский, русский, тайский, турецкий (AC3, 6 ch, 640 Кбит/с)Перевод: Дублированный [лицензия]Субтитры: Русские, английские, французские, португальские, арабские, индонезийские, малайские, болгарские, китайские, чешские, греческие, эстонские, иврит, хинди, хорватские, исландские, корейские, латышские, литовские, венгерские, польские, румынские, словенские, словацкие, сербские, тайские, турецкие 43,66 Gb 20 4 2 февраля 2016 07:25 Стартрек: Возмездие / Star Trek Into Darkness (2013) Blu-Ray 1080p | Лицензия .torrent   [Информация о файле (нажмите для просмотра)] Качество: Blu-Ray (1080p)Видео: MPEG-4 AVC, 26.2 Мбит/с, 1920x1080Аудио: Английский (TrueHD, 8 ch, 4342 Кбит/с), чешкий, венгерский, польский, русский, тайский, турецкий (AC3, 6 ch, 640 Кбит/с)Перевод: Дублированный [лицензия]Субтитры: Русские, английские, французские, португальские, арабские, индонезийские, малайские, болгарские, китайские, чешские, греческие, эстонские, иврит, хинди, хорватские, исландские, корейские, латышские, литовские, венгерские, польские, румынские, словенские, словацкие, сербские, тайские, турецкие 44,27 Gb 14 3 2 февраля 2016 07:25 Стартрек: Возмездие / Star Trek Into Darkness (2013) BD-Remux 1080p от Neofilm | Лицензия .torrent   [Информация о файле (нажмите для просмотра)] Перевод: Дубляж, Paramount PicturesКодек: H.264Качество: BD-Remux 1080pВидео: ~26267 kb/s, 1920x1080, 23.976 fpsЗвук: Аудио#1: Russian: 48 kHz/24-bit, DTS-HD MA 5.1, ~4055.00 kbps avg |Дубляж, Paramount Pictures| Аудио#2: English: 48 kHz/24-bit, Dolby TrueHD 7.1, ~4342.00 kbps avg Аудио#3: English: 48 kHz, AC3, 3/2 (L,C,R,l,r) + LFE ch, ~640.00 kbps avg |Комментарии|Субтитры: Russian (Forced, iTunes), Russian (iTunes), English (iTunes), English, English (SDH), English (SDH-COLORED) 32,5 Gb 4 8 2 февраля 2016 07:25 Стартрек: Возмездие / Star Trek Into Darkness (2013) BDRip 720p от HELLYWOOD | D | Лицензия .torrent   [Информация о файле (нажмите для просмотра)] Перевод: Профессиональный (полное дублирование) лицензияСубтитры: Русские (Forced, iTunes), русские (iTunes), русские (Notabenoid), украинские (полные + форс.), английские (iTunes), английские (SDH), английские (SDH-COLORED)Качество: BDRip 720p [Star.Trek.Into.Darkness.2013.1080p.BluRay.AVC.TrueHD.7.1-PublicHD]Формат: MKVВидео: х.264, 1280x534 (2,40:1), 23,976 fps, 3420 Кbps, 0.209 bit/pixelАудио#1: 48 kHz, AC3 Dolby Digital, 3/2 (L,C,R,l,r) + LFE ch, 640.00 kbps |RUSАудио#2: 48 kHz, AC3 Dolby Digital, 3/2 (L,C,R,l,r) + LFE ch, 640.00 kbps |ENG 4,34 Gb 166 5 2 февраля 2016 07:25 Стартрек: Возмездие / Star Trek Into Darkness (2013) BDRip-AVC от Leonardo and Scarabey | Лицензия | iPad .torrent   [Информация о файле (нажмите для просмотра)] Перевод: Профессиональный (полное дублирование) ЛицензияФормат: MP4 (контейнер m4v)Видео кодек: MPEG-4 AVC Аудио кодек: AACВидео: AVC, 1024x428 (2.40:1) at 23.976 fps, AVC at 3173 kbps avg, 0.302 bit/pixelАудио: AAC LC, 2 ch, 48 кГц, VBR, 120 kbps - RussianСубтитры: Русские, английские 3,05 Gb 2 2 2 февраля 2016 07:25 Стартрек: Возмездие / Star Trek Into Darkness (2013) BDRip 720p от Leonardo and Scarabey | Лицензия .torrent   [Информация о файле (нажмите для просмотра)] Перевод: Профессиональный (полное дублирование) ЛицензияФормат: MKVВидео кодек: MPEG-4 AVC Аудио кодек: AC3Видео: AVC, 1280x534 (2.40:1) at 23.976 fps, AVC at 5512 kbps avg, 0.336 bit/pixelАудио: 48 kHz, AC3 Dolby Digital, 3/2 (L,C,R,l,r) + LFE ch, 640.00 kbps - RussianАудио: 48 kHz, AC3 Dolby Digital, 3/2 (L,C,R,l,r) + LFE ch, 640.00 kbps - EnglishСубтитры: Русские, английские 6,39 Gb 34 7 2 февраля 2016 07:25 Стартрек: Возмездие / Star Trek Into Darkness (2013) BDRip-AVC от Leonardo and Scarabey | Лицензия .torrent   [Информация о файле (нажмите для просмотра)] Перевод: Профессиональный (полное дублирование) ЛицензияФормат: MKVВидео кодек: MPEG-4 AVC Аудио кодек: AC3Видео: AVC, 1024x428 (2.40:1) at 23.976 fps, AVC at 3099 kbps avg, 0.295 bit/pixelАудио: 48 kHz, AC3 Dolby Digital, 3/2 (L,C,R,l,r) + LFE ch, 640.00 kbps - RussianСубтитры: Русские, английские 3,52 Gb 11 3 2 февраля 2016 07:25 Стартрек: Возмездие / Star Trek Into Darkness (2013) BDRip 1080p | 3D-Video | halfOU | Лицензия .torrent   [Информация о файле (нажмите для просмотра)] Перевод: Профессиональный дублированный (Лицензия)Качество: BDRip (byAsh61)Контейнер: MKVВидео: AVC / 23,976 fps /1920х1080p / 16.6 MbpsАудио: #1 - Русский / AC3 / 48 KHz / 5.1 ch / 640 Kbps (Дубляж - с BD CEE)Субтитры: (SRT) 16,79 Gb 53 10 2 февраля 2016 07:25 Стартрек: Возмездие / Star Trek Into Darkness (2013) BDRip 1080p | 3D-Video | HSBS | Лицензия | от marcury .torrent   [Информация о файле (нажмите для просмотра)] Перевод: Дублированный (Лицензия) / Любительский одноголосый (Andi)Кодек: MPEG-4 AVCКачество: BDRip (1080p)Видео: 11.5 Мбит/с, 1920x1080Звук: Русский (AC3, 6 ch, 640 Кбит/с),(DTS, 6 ch, 1510 Кбит/с), английский (DTS, 6 ch, 1510 Кбит/с)Видео: Идентификатор : 1 Формат : AVC Формат/Информация : Advanced Video Codec Профиль формата : [email protected] Параметр CABAC формата : Да Параметр ReFrames формата : 2 кадра Параметр GOP формата : M=3, N=24 Идентификатор кодека : V_MPEG4/ISO/AVC Продолжительность : 2 ч. 12 м. Битрейт : 11,4 Мбит/сек Ширина : 1920 пикселей Высота : 1080 пикселей Соотношение сторон : 16:9 Режим частоты кадров : Постоянный Частота кадров : 23,976 кадра/сек Цветовое пространство : YUV Субдискретизация насыщенности : 4:2:0 Битовая глубина : 8 бит Тип развёртки : Прогрессивная Бит/(Пиксели*Кадры) : 0.229 Размер потока : 10,5 Гбайт (74%) Заголовок : Стартрек: Возмездие / Star Trek Into Darkness Библиотека кодирования : x264 core Язык : English Default : Нет Forced : Да Основные цвета : BT.709 Характеристики трансфера : BT.709 Коэффициенты матрицы : BT.709Аудио #1: Идентификатор : 2 Формат : AC-3 Формат/Информация : Audio Coding 3 Расширение режима : CM (complete main) Параметр Endianness формата : Big Идентификатор кодека : A_AC3 Продолжительность : 2 ч. 12 м. Вид битрейта : Постоянный Битрейт : 640 Кбит/сек Каналы : 6 каналов Расположение каналов : Front: L C R, Side: L R, LFE Частота : 48,0 КГц Битовая глубина : 16 бит Метод сжатия : С потерями Размер потока : 605 Мбайт (4%) Заголовок : Русский (AC3, 6 ch, 640 Кбит/с) - ДБ (BD CEE) Язык : Russian Default : Да Forced : ДаАудио #2: Идентификатор : 3 Формат : DTS Формат/Информация : Digital Theater Systems Режим : 16 Параметр Endianness формата : Big Идентификатор кодека : A_DTS Продолжительность : 2 ч. 12 м. Вид битрейта : Постоянный Битрейт : 1510 Кбит/сек Каналы : 6 каналов Расположение каналов : Front: L C R, Side: L R, LFE Частота : 48,0 КГц Битовая глубина : 16 бит Метод сжатия : С потерями Размер потока : 1,39 Гбайт (10%) Заголовок : Русский (DTS, 6 ch, 1510 Кбит/с) - ЛО (Andi) Язык : Russian Default : Нет Forced : НетАудио #3: Идентификатор : 4 Формат : DTS Формат/Информация : Digital Theater Systems Режим : 16 Параметр Endianness формата : Big Идентификатор кодека : A_DTS Продолжительность : 2 ч. 12 м. Вид битрейта : Постоянный Битрейт : 1510 Кбит/сек Каналы : 6 каналов Расположение каналов : Front: L C R, Side: L R, LFE Частота : 48,0 КГц Битовая глубина : 24 бит Метод сжатия : С потерями Задержка видео : 11 мс. Размер потока : 1,39 Гбайт (10%) Заголовок : Английский (DTS, 6 ch, 1510 Кбит/с) Язык : English Default : Нет Forced : Нет 14,16 Gb 5 3 2 февраля 2016 07:25 Стартрек: Возмездие / Star Trek Into Darkness (2013) BDRip 1080p от Neofilm | Лицензия .torrent   [Информация о файле (нажмите для просмотра)] Перевод: Дублированный (лицензия)Кодек: x.264Качество: BDRip 1080pВидео: 17500 kb/s, 1918x800, 23.976 fpsЗвук: DTS, 1536 kb/s (6Ch)-Дублированный (лицензия) DTS, 1536 kb/s (6Ch)-Оригинал AC3, 640 kb/s (6Ch)-КомментарииСубтитры: Russian (Forced, iTunes), Russian (iTunes), Ukrainian (Blu-ray), English (iTunes), English, English (SDH), English (SDH-COLORED) 19,91 Gb 8 2 2 февраля 2016 07:25 Стартрек: Возмездие / Star Trek Into Darkness (2013) BDRip 1080p | 3D-Video | Лицензия .torrent   [Информация о файле (нажмите для просмотра)] Перевод: русский профессиональный (полное дублирование)[Лицензия, BD CEE]Контейнер: MKVВидео: AVC / [email protected] /2 pass / 23,976 fps / 1920x1080p (16:9) / 12,0 Mbps / 0.241Аудио 1: AC3 / 5.1 ch / 640 kbps / Русский дубляж, BD CEEАудио 2: AC3 / 5.1 ch / 640 kbps / Английский original, BD USСубтитры: [softsub SRT]Видео: Идентификатор : 1 Формат : AVC Формат/Информация : Advanced Video Codec Профиль формата : [email protected] Параметр CABAC формата : Да Параметр ReFrames формата : 4 кадра Идентификатор кодека : V_MPEG4/ISO/AVC Продолжительность : 2 ч. 12 м. Битрейт : 12,0 Мбит/сек Ширина : 1920 пикселей Высота : 1080 пикселей Соотношение сторон : 16:9 Режим частоты кадров : Постоянный Частота кадров : 23,976 кадра/сек Цветовое пространство : YUV Субдискретизация насыщенности : 4:2:0 Битовая глубина : 8 бит Тип развёртки : Прогрессивная Бит/(Пиксели*Кадры) : 0.241 Размер потока : 10,8 Гбайт (88%) Заголовок : Star Trek Into Darkness 3D (2013) Библиотека кодирования : x264 core 138 r2358 9e941d1 Настройки программы : cabac=1 / ref=4 / deblock=1:-3:-3 / analyse=0x3:0x113 / me=umh / subme=10 / psy=1 / psy_rd=1.00:0.15 / mixed_ref=1 / me_range=32 / chroma_me=1 / trellis=2 / 8x8dct=1 / cqm=0 / deadzone=21,11 / fast_pskip=0 / chroma_qp_offset=-3 / threads=3 / lookahead_threads=1 / sliced_threads=0 / nr=0 / decimate=0 / interlaced=0 / bluray_compat=0 / constrained_intra=0 / bframes=8 / b_pyramid=2 / b_adapt=2 / b_bias=0 / direct=3 / weightb=1 / open_gop=0 / weightp=2 / keyint=240 / keyint_min=24 / scenecut=40 / intra_refresh=0 / rc_lookahead=60 / rc=2pass / mbtree=0 / bitrate=12000 / ratetol=1.0 / qcomp=0.65 / qpmin=0 / qpmax=69 / qpstep=4 / cplxblur=20.0 / qblur=0.5 / vbv_maxrate=40000 / vbv_bufsize=30000 / nal_hrd=none / frame-packing=4 / ip_ratio=1.40 / pb_ratio=1.30 / aq=1:0.80 Язык : English Default : Да Forced : НетАудио #1: Идентификатор : 2 Формат : AC-3 Формат/Информация : Audio Coding 3 Расширение режима : CM (complete main) Параметр Endianness формата : Big Идентификатор кодека : A_AC3 Продолжительность : 2 ч. 12 м. Вид битрейта : Постоянный Битрейт : 640 Кбит/сек Каналы : 6 каналов Расположение каналов : Front: L C R, Side: L R, LFE Частота : 48,0 КГц Битовая глубина : 16 бит Метод сжатия : С потерями Размер потока : 605 Мбайт (5%) Заголовок : AC3 / 5.1 ch / 640 kbps / Русский дубляж, BD CEE Язык : Russian Default : Да Forced : НетАудио #2: Идентификатор : 3 Формат : AC-3 Формат/Информация : Audio Coding 3 Расширение режима : CM (complete main) Параметр Endianness формата : Big Идентификатор кодека : A_AC3 Продолжительность : 2 ч. 12 м. Вид битрейта : Постоянный Битрейт : 640 Кбит/сек Каналы : 6 каналов Расположение каналов : Front: L C R, Side: L R, LFE Частота : 48,0 КГц Битовая глубина : 16 бит Метод сжатия : С потерями Размер потока : 605 Мбайт (5%) Заголовок : AC3 / 5.1 ch / 640 kbps / Английский original, BD US Язык : English Default : Нет Forced : Нет 12,25 Gb 36 9 2 февраля 2016 07:25 Стартрек: Возмездие / Star Trek Into Darkness (2013) BDRip 1080p | Лицензия .torrent   [Информация о файле (нажмите для просмотра)] Перевод: русский профессиональный (полное дублирование)[Лицензия, BD CEE]Контейнер: MKVВидео: AVC / [email protected] /2 pass / 23,976 fps / 1916x800p (2,40:1) / 13,5 Mbps / 0.367Аудио 1: AC3 / 5.1 ch / 640 kbps / Русский дубляж, BD CEEАудио 2: AC3 / 5.1 ch / 640 kbps / Английский original, BD USСубтитры: [softsub SRT]Видео: Идентификатор : 1 Формат : AVC Формат/Информация : Advanced Video Codec Профиль формата : [email protected] Параметр CABAC формата : Да Параметр ReFrames формата : 4 кадра Идентификатор кодека : V_MPEG4/ISO/AVC Продолжительность : 2 ч. 12 м. Битрейт : 13,5 Мбит/сек Ширина : 1916 пикселей Высота : 800 пикселей Соотношение сторон : 2,40:1 Режим частоты кадров : Постоянный Частота кадров : 23,976 кадра/сек Цветовое пространство : YUV Субдискретизация насыщенности : 4:2:0 Битовая глубина : 8 бит Тип развёртки : Прогрессивная Бит/(Пиксели*Кадры) : 0.367 Размер потока : 12,2 Гбайт (89%) Заголовок : Star Trek Into Darkness (2013) Библиотека кодирования : x264 core 138 r2358 9e941d1 Настройки программы : cabac=1 / ref=4 / deblock=1:-3:-3 / analyse=0x3:0x113 / me=umh / subme=10 / psy=1 / psy_rd=1.00:0.15 / mixed_ref=1 / me_range=32 / chroma_me=1 / trellis=2 / 8x8dct=1 / cqm=0 / deadzone=21,11 / fast_pskip=0 / chroma_qp_offset=-3 / threads=3 / lookahead_threads=1 / sliced_threads=0 / nr=0 / decimate=0 / interlaced=0 / bluray_compat=0 / constrained_intra=0 / bframes=8 / b_pyramid=2 / b_adapt=2 / b_bias=0 / direct=3 / weightb=1 / open_gop=0 / weightp=2 / keyint=240 / keyint_min=24 / scenecut=40 / intra_refresh=0 / rc_lookahead=60 / rc=2pass / mbtree=0 / bitrate=13500 / ratetol=1.0 / qcomp=0.65 / qpmin=0 / qpmax=69 / qpstep=4 / cplxblur=20.0 / qblur=0.5 / vbv_maxrate=40000 / vbv_bufsize=30000 / nal_hrd=none / ip_ratio=1.40 / pb_ratio=1.30 / aq=2:0.80 Язык : English Default : Да Forced : НетАудио #1: Идентификатор : 2 Формат : AC-3 Формат/Информация : Audio Coding 3 Расширение режима : CM (complete main) Параметр Endianness формата : Big Идентификатор кодека : A_AC3 Продолжительность : 2 ч. 12 м. Вид битрейта : Постоянный Битрейт : 640 Кбит/сек Каналы : 6 каналов Расположение каналов : Front: L C R, Side: L R, LFE Частота : 48,0 КГц Битовая глубина : 16 бит Метод сжатия : С потерями Размер потока : 605 Мбайт (4%) Заголовок : AC3 / 5.1 ch / 640 kbps / Русский дубляж, BD CEE Язык : Russian Default : Да Forced : НетАудио #2: Идентификатор : 3 Формат : AC-3 Формат/Информация : Audio Coding 3 Расширение режима : CM (complete main) Параметр Endianness формата : Big Идентификатор кодека : A_AC3 Продолжительность : 2 ч. 12 м. Вид битрейта : Постоянный Битрейт : 640 Кбит/сек Каналы : 6 каналов Расположение каналов : Front: L C R, Side: L R, LFE Частота : 48,0 КГц Битовая глубина : 16 бит Метод сжатия : С потерями Размер потока : 605 Мбайт (4%) Заголовок : AC3 / 5.1 ch / 640 kbps / Английский original, BD US Язык : English Default : Нет Forced : Нет 13,62 Gb 20 7 2 февраля 2016 07:25 Стартрек: Возмездие / Star Trek Into Darkness (2013) BDRip 720p от Neofilm | Лицензия .torrent   [Информация о файле (нажмите для просмотра)] Перевод: Дублированный (лицензия)Кодек: x.264Качество: BDRip 720pВидео: 8947 kb/s, 1280x534, 23.976 fpsЗвук: DTS, 1536 kb/s (6Ch)-Дублированный (лицензия) DTS, 1536 kb/s (6Ch)-Оригинал AC3, 640 kb/s (6Ch)-КомментарииСубтитры: Russian (Forced, iTunes), Russian (iTunes), Ukrainian (Blu-ray), English (iTunes), English, English (SDH), English (SDH-COLORED) 11,87 Gb 16 1 2 февраля 2016 07:25 Стартрек: Возмездие / Star Trek Into Darkness (2013) BDRip-AVC от New-Team | D | Лицензия .torrent   [Информация о файле (нажмите для просмотра)] Перевод: Профессиональный (полное дублирование) [Лицензия]Качество: BDRip-AVCФормат: MKVВидео: 720 Кбит/сек, 714*298 (2,35:1), в 23,976 кадр/сек, AVCАудио: Russian, 66,15 Кбит/сек, 48,0 КГц / 24,0 КГц, 2 канала(ов), AAC (HE-AAC / LC)Видео: Идентификатор : 1 Формат : AVC Формат/Информация : Advanced Video Codec Профиль формата : [email protected] Параметр CABAC формата : Да Параметр ReFrames формата : 10 кадры Параметры GOP формата : M=12, N=24 Идентификатор кодека : V_MPEG4/ISO/AVC Продолжительность : 2 ч. 12 м. Номинальный битрейт : 720 Кбит/сек Ширина : 714 пикс. Высота : 298 пикс. Соотношение сторон : 2,35:1 Частота кадров : 23,976 кадр/сек Цветовое пространство : YUV Подвыборка цветности : 4:2:0 Битовая глубина : 8 бит Тип развёртки : Прогрессивная Бит/(Пиксели*Кадры) : 0.141 Библиотека кодирования : x264 core 130 r2273 b3065e6 Настройки программы : cabac=1 / ref=10 / deblock=1:-2:-1 / analyse=0x3:0x133 / me=umh / subme=11 / psy=1 / psy_rd=1.00:0.10 / mixed_ref=1 / me_range=32 / chroma_me=1 / trellis=2 / 8x8dct=1 / cqm=0 / deadzone=21,11 / fast_pskip=0 / chroma_qp_offset=-3 / threads=6 / lookahead_threads=1 / sliced_threads=0 / nr=0 / decimate=0 / interlaced=0 / bluray_compat=0 / constrained_intra=0 / bframes=11 / b_pyramid=2 / b_adapt=2 / b_bias=0 / direct=3 / weightb=1 / open_gop=0 / weightp=2 / keyint=240 / keyint_min=23 / scenecut=40 / intra_refresh=0 / rc_lookahead=60 / rc=2pass / mbtree=1 / bitrate=720 / ratetol=2.0 / qcomp=0.70 / qpmin=0 / qpmax=69 / qpstep=4 / cplxblur=20.0 / qblur=0.5 / vbv_maxrate=17500 / vbv_bufsize=20000 / nal_hrd=none / ip_ratio=1.35 / aq=2:0.90Аудио: Идентификатор : 2 Формат : AAC Формат/Информация : Advanced Audio Codec Профиль формата : HE-AAC / LC Идентификатор кодека : A_AAC Продолжительность : 2 ч. 12 м. Канал(ы) : 2 канала(ов) Расположение каналов : Front: L R Частота : 48,0 КГц / 24,0 КГц Метод сжатия : С потерями Задержка видео : 31 мс. Заголовок : Dub (Лицензия) Язык : Russian 742,89 Mb 22 7 2 февраля 2016 07:25 Стартрек: Возмездие / Star Trek Into Darkness (2013) BDRip-AVC от New-Team | D | Лицензия .torrent   [Информация о файле (нажмите для просмотра)] Перевод: Профессиональный (полное дублирование) [Лицензия]Качество: BDRip-AVCФормат: MKVВидео: 1317 Кбит/сек, 964*402 (2,35:1), в 23,976 кадр/сек, AVCАудио: Russian, 264,6 Кбит/сек, 48,0 КГц, 6 канала(ов), AAC (LC)Видео: Идентификатор : 1 Формат : AVC Формат/Информация : Advanced Video Codec Профиль формата : [email protected] Параметр CABAC формата : Да Параметр ReFrames формата : 10 кадры Параметры GOP формата : M=11, N=24 Идентификатор кодека : V_MPEG4/ISO/AVC Продолжительность : 2 ч. 12 м. Номинальный битрейт : 1317 Кбит/сек Ширина : 964 пикс. Высота : 402 пикс. Соотношение сторон : 2,35:1 Частота кадров : 23,976 кадр/сек Цветовое пространство : YUV Подвыборка цветности : 4:2:0 Битовая глубина : 8 бит Тип развёртки : Прогрессивная Бит/(Пиксели*Кадры) : 0.142 Библиотека кодирования : x264 core 130 r2273 b3065e6 Настройки программы : cabac=1 / ref=10 / deblock=1:-2:-2 / analyse=0x3:0x133 / me=umh / subme=11 / psy=1 / psy_rd=1.03:0.06 / mixed_ref=1 / me_range=32 / chroma_me=1 / trellis=2 / 8x8dct=1 / cqm=0 / deadzone=21,11 / fast_pskip=0 / chroma_qp_offset=-3 / threads=6 / lookahead_threads=1 / sliced_threads=0 / nr=0 / decimate=0 / interlaced=0 / bluray_compat=0 / constrained_intra=0 / bframes=10 / b_pyramid=2 / b_adapt=2 / b_bias=0 / direct=3 / weightb=1 / open_gop=0 / weightp=2 / keyint=240 / keyint_min=23 / scenecut=40 / intra_refresh=0 / rc_lookahead=60 / rc=2pass / mbtree=1 / bitrate=1317 / ratetol=2.0 / qcomp=0.70 / qpmin=0 / qpmax=69 / qpstep=4 / cplxblur=20.0 / qblur=0.5 / vbv_maxrate=17000 / vbv_bufsize=20000 / nal_hrd=none / ip_ratio=1.40 / aq=2:0.80Аудио: Идентификатор : 2 Формат : AAC Формат/Информация : Advanced Audio Codec Профиль формата : LC Идентификатор кодека : A_AAC Продолжительность : 2 ч. 12 м. Канал(ы) : 6 канала(ов) Расположение каналов : Front: L C R, Side: L R, LFE Частота : 48,0 КГц Метод сжатия : С потерями Задержка видео : 9 мс. Заголовок : Dub (Лицензия) Язык : Russian 1,46 Gb 36 5 2 февраля 2016 07:25 Стартрек: Возмездие / Star Trek Into Darkness (2013) BDRip от HQ-ViDEO | Лицензия .torrent   [Информация о файле (нажмите для просмотра)] Перевод: Профессиональный дублированный /Лицензия Blu-Ray CEE/Субтитры: Русские (форс. + полные), Английские (3 вида)Видео: XviD, 720x304 (2.37:1), ~1907 kbps avg, 23,976 fpsАудио #1: AC3 Dolby Digital, 48 KHz, ~448 kbps, 3/2 (L,C,R,l,r) + LFE ch/RUS/Аудио #2: AC3 Dolby Digital, 48 KHz, ~448 kbps, 3/2 (L,C,R,l,r) + LFE ch/ENG, скачать отдельно с disk.yandex.ru/ 2,18 Gb 62 7 2 февраля 2016 07:25 Стартрек: Возмездие / Star Trek Into Darkness (2013) BDRemux 1080p | Лицензия .torrent   [Информация о файле (нажмите для просмотра)] Качество: Blu-Ray Remux (1080p)Видео: MPEG-4 AVC, 26.2 Мбит/с, 1920x1080, 23.976 кадр/сАудио: Русский (AC3, 6 ch, 640 Кбит/с), английский (TrueHD, 8 ch, 4342 Кбит/с), (AC3, 6 ch, 640 Кбит/с)Перевод: Дублированный [лицензия]Субтитры: Русские, английские, украинскиеВидео: Идентификатор : 1 Формат : AVC Формат/Информация : Advanced Video Codec Профиль формата : [email protected] Параметр CABAC формата : Да Параметр ReFrames формата : 4 кадра Идентификатор кодека : V_MPEG4/ISO/AVC Продолжительность : 2 ч. 12 м. Вид битрейта : Переменный Максимальный битрейт : 31,7 Мбит/сек Ширина : 1920 пикселей Высота : 1080 пикселей Соотношение сторон : 16:9 Режим частоты кадров : Постоянный Частота кадров : 23,976 кадра/сек Цветовое пространство : YUV Субдискретизация насыщенности : 4:2:0 Битовая глубина : 8 бит Тип развёртки : Прогрессивная Заголовок : Стартрек.Возмездие-Star.Trek.Into.Darkness.(2013).BDRemux.[1080p] Язык : English Default : Да Forced : НетАудио #1: Идентификатор : 2 Формат : AC-3 Формат/Информация : Audio Coding 3 Расширение режима : CM (complete main) Параметр Endianness формата : Big Идентификатор кодека : A_AC3 Продолжительность : 2 ч. 12 м. Вид битрейта : Постоянный Битрейт : 640 Кбит/сек Каналы : 6 каналов Расположение каналов : Front: L C R, Side: L R, LFE Частота : 48,0 КГц Битовая глубина : 16 бит Метод сжатия : С потерями Размер потока : 605 Мбайт (2%) Язык : Russian Default : Да Forced : НетАудио #2: Идентификатор : 3 Формат : TrueHD Идентификатор кодека : A_TRUEHD Продолжительность : 2 ч. 12 м. Вид битрейта : Переменный Максимальный битрейт : 6510 Кбит/сек Каналы : 8 каналов Расположение каналов : Front: L C R, Side: L R, Back: L R, LFE Частота : 48,0 КГц Метод сжатия : Без потерь Заголовок : TrueHD 7.1 / 4342 kbps / Original Язык : English Default : Нет Forced : НетАудио #3: Идентификатор : 10 Формат : AC-3 Формат/Информация : Audio Coding 3 Расширение режима : CM (complete main) Параметр Endianness формата : Big Идентификатор кодека : A_AC3 Продолжительность : 2 ч. 12 м. Вид битрейта : Постоянный Битрейт : 640 Кбит/сек Каналы : 6 каналов Расположение каналов : Front: L C R, Side: L R, LFE Частота : 48,0 КГц Битовая глубина : 16 бит Метод сжатия : С потерями Размер потока : 605 Мбайт (2%) Заголовок : AC3 5.1 / 640 kbps / Deive Язык : English Default : Нет Forced : Нет 29,35 Gb 12 3 2 февраля 2016 07:25 Стартрек: Возмездие / Star Trek Into Darkness (2013) BDRip 1080p | Лицензия .torrent   [Информация о файле (нажмите для просмотра)] Качество: BDRip (1080p)Видео: MPEG-4 AVC, 17.5 Мбит/с, 1918x800, 23.976 кадра/секАудио: Русский (AC3, 6 ch, 640 Кбит/с), английский (AC3, 6 ch, 640 Кбит/с)Перевод: Дублированный [лицензия]Субтитры: Русские, английские, украинскиеВидео: Идентификатор : 1 Формат : AVC Формат/Информация : Advanced Video Codec Профиль формата : [email protected] Параметр CABAC формата : Да Параметр ReFrames формата : 5 кадров Идентификатор кодека : V_MPEG4/ISO/AVC Продолжительность : 2 ч. 12 м. Битрейт : 17,5 Мбит/сек Ширина : 1918 пикселей Высота : 800 пикселей Соотношение сторон : 2,40:1 Режим частоты кадров : Постоянный Частота кадров : 23,976 кадра/сек Цветовое пространство : YUV Субдискретизация насыщенности : 4:2:0 Битовая глубина : 8 бит Тип развёртки : Прогрессивная Бит/(Пиксели*Кадры) : 0.476 Размер потока : 16,2 Гбайт (87%) Заголовок : Star.Trek.Into.Darkness.2013.1080p.BluRay.DD5.1.x264-EbP Библиотека кодирования : x264 core 135 r2345 f0c1c53 Настройки программы : cabac=1 / ref=5 / deblock=1:-3:-3 / analyse=0x3:0x113 / me=tesa / subme=10 / psy=1 / psy_rd=1.05:0.00 / mixed_ref=1 / me_range=16 / chroma_me=1 / trellis=2 / 8x8dct=1 / cqm=0 / deadzone=21,11 / fast_pskip=0 / chroma_qp_offset=-2 / threads=12 / lookahead_threads=2 / sliced_threads=0 / nr=0 / decimate=0 / interlaced=0 / bluray_compat=0 / constrained_intra=0 / bframes=7 / b_pyramid=2 / b_adapt=2 / b_bias=0 / direct=3 / weightb=1 / open_gop=0 / weightp=2 / keyint=250 / keyint_min=23 / scenecut=40 / intra_refresh=0 / rc=crf / mbtree=0 / crf=17.0 / qcomp=0.65 / qpmin=0 / qpmax=69 / qpstep=4 / ip_ratio=1.30 / pb_ratio=1.30 / aq=1:0.80 / zones=180660,190031,crf=30 Язык : English Default : Да Forced : НетАудио #1: Идентификатор : 2 Формат : AC-3 Формат/Информация : Audio Coding 3 Расширение режима : CM (complete main) Параметр Endianness формата : Big Идентификатор кодека : A_AC3 Продолжительность : 2 ч. 12 м. Вид битрейта : Постоянный Битрейт : 640 Кбит/сек Каналы : 6 каналов Расположение каналов : Front: L C R, Side: L R, LFE Частота : 48,0 КГц Битовая глубина : 16 бит Метод сжатия : С потерями Размер потока : 605 Мбайт (3%) Язык : Russian Default : Да Forced : НетАудио #2: Идентификатор : 3 Формат : DTS Формат/Информация : Digital Theater Systems Режим : 16 Параметр Endianness формата : Big Идентификатор кодека : A_DTS Продолжительность : 2 ч. 12 м. Вид битрейта : Постоянный Битрейт : 1509 Кбит/сек Каналы : 6 каналов Расположение каналов : Front: L C R, Side: L R, LFE Частота : 48,0 КГц Битовая глубина : 24 бит Метод сжатия : С потерями Размер потока : 1,39 Гбайт (8%) Язык : English Default : Нет Forced : Нет 18,52 Gb 13 1

    gig-torrent.net


    Смотрите также