Скачать через торрент разлом сан андреас в хорошем качестве


Скачать Разлом Сан-Андреас (2015) через торрент

Категория: Фильмы 3876 0 Торрент добавлен: 28-10-2015 Рейтинг:

2015 / боевик, триллер, драма / 114 мин.Название: Разлом Сан-Андреас / San AndreasСтрана: США, Австралия, Канада Режиссер: Брэд Пейтон Роли сыграли: Дуэйн Джонсон, Карла Гуджино, Александра Даддарио, Йоан Гриффит, Арчи Панджаби, Пол Джаматти, Хьюго Джонстон-Барт, Арт Паркинсон, Уилл Юн Ли, Кайли Миноуг

Рэй уже давно работает пилотом спасательного вертолета и повидал многое. Ему приходилось работать в жесточайших условиях, на пределе своих возможностей. Когда Рэй со своей командой профессиональных спасателей прибывают на место крушения, то ситуация порой настолько безвыходная, что казалось бы, никто не сможет спасти людей, попавших в беду.

Однако этим ребятам всегда улыбается удача, которая в совокупности с их колоссальным опытом дает отличные результаты и сотни спасенных жизней. Рэю приходилось участвовать в невероятных по накалу спасательных операциях, что ему казалось, он прошел огонь и воду, но это было большое заблуждение, ведь судьба ему подкинет самое трудное испытание, которое ему нужно будет преодолеть. Калифорния — это место где частенько случаются сильнейшие природные катаклизмы, но на этот раз тут произошло землетрясение небывалой силы, которое разрушило тысячи построек и послужило причиной образования огромной трещины в земле.

Толчки продолжаются один за другим и с каждым разом становится все больше жертв. Работы у таких спасателей как Рэй невероятно много. Рэй уже спас множество людей, которые могли оказаться под завалами, однако вскоре он узнает, что его маленькая дочь тоже в опасности и ей необходима его помощь. Ему приходиться одновременно заниматься поисками своей дочери и спасать других людей, ведь это его работа и бросить он никого не может.

Трейлер к фильму Разлом Сан-Андреас (2015)

 

Разлом Сан-Андреас (2015) скачать торрент

Кодек: H.264Качество: Blu-RayВидео: 1920x1080 at 23.976 fps, x264, ~ 23938 kbps avgЗвук: Russian: 48 kHz, AC3, 6 ch, ~448 kbps avg |Дубляж, Blu-ray CEE|

24,05 Gb

Кодек: MPEG4 Video (h364)Качество: BDRipВидео: 1920x800, 8 806 Kbps, 23.976fpЗвук: Аудио: AC-3, 6 ch, 448 kbps (Rus)Дублированный (лицензия)

7,76 Gb

Качество видео: HDRipФормат видео: AVIВидео: 720x304 (2.37:1), 23.976 fps, XviD build 73 ~1353 kbps avg, 0.26 bit/pixelАудио: 48 kHz, AC3 Dolby Digital, 3/2 (L,C,R,l,r) + LFE ch, ~448.00 kbps avg, Полное дублирование

1,45 Gb

Вы находитесь на странице, где можете совершенно бесплатно скачать фильм Разлом Сан-Андреас (2015) в хорошем качестве через торрент, в любом формате, который больше всего вам на данный момент подходит. Скачивание осуществляется через торрент, что означает максимально высокую скорость загрузки. Желаем Вам приятного просмотра!. Не забудь поделиться своими впечатлениями после того как посмотришь фильм Разлом Сан-Андреас (2015).

Информация Посетители, находящиеся в группе Гости, не могут оставлять комментарии к данной публикации.

psp-gu.ru

Скачать фильм Разлом Сан-Андреас через торрент в хорошем качестве бесплатно 1080p от HDClub / Лицензия

Общее

Уникальный идентификатор : 191760001130704086283361909824061379597 (0x9043A2013C0115EC98ABA916ED33140D)

Полное имя : C:San.Andreas.2015.1080p.BluRay.Rus.Eng.HDCLUB.mkv

Формат : Matroska

Версия формата : Version 4 / Version 2

Размер файла : 14,3 Гбайт

Продолжительность : 1 ч. 54 м.

Общий поток : 17,9 Мбит/сек

Название фильма : San Andreas (2015) - Release for HDCLUB

Дата кодирования : UTC 2015-09-25 18:41:11

Программа кодирования : mkvmerge v8.3.0 ('Over the Horizon') 64bit

Библиотека кодирования : libebml v1.3.1 + libmatroska v1.4.2

Видео

Идентификатор : 1

Формат : AVC

Формат/Информация : Advanced Video Codec

Профиль формата : [email protected]

Параметр CABAC формата : Да

Параметр ReFrames формата : 5 кадров

Идентификатор кодека : V_MPEG4/ISO/AVC

Продолжительность : 1 ч. 54 м.

Битрейт : 15,4 Мбит/сек

Ширина : 1920 пикселей

Высота : 798 пикселей

Соотношение сторон : 2,40:1

Режим частоты кадров : Постоянный

Частота кадров : 23,976 кадра/сек

Цветовое пространство : YUV

Субдискретизация насыщенности : 4:2:0

Битовая глубина : 8 бит

Тип развёртки : Прогрессивная

Бит/(Пиксели*Кадры) : 0.419

Размер потока : 12,3 Гбайт (86%)

Заголовок : San Andreas (2015) - Release for HDCLUB

Библиотека кодирования : x264 core 142 r2431+42 c69a006 tMod [[email protected] X86_64]

Настройки программы : cabac=1 / ref=5 / deblock=1:-3:-3 / analyse=0x3:0x133 / me=umh / subme=11 / psy=1 / fade_compensate=0.00 / psy_rd=1.00:0.00 / mixed_ref=1 / me_range=48 / chroma_me=1 / trellis=2 / 8x8dct=1 / cqm=0 / deadzone=21,11 / fast_pskip=0 / chroma_qp_offset=-2 / threads=24 / lookahead_threads=4 / sliced_threads=0 / nr=0 / decimate=1 / interlaced=0 / bluray_compat=0 / constrained_intra=0 / fgo=0 / bframes=8 / b_pyramid=2 / b_adapt=2 / b_bias=0 / direct=1 / weightb=1 / open_gop=0 / weightp=2 / keyint=240 / keyint_min=23 / scenecut=40 / intra_refresh=0 / rc_lookahead=60 / rc=crf / mbtree=0 / crf=17.2000 / qcomp=0.60 / qpmin=0:0:0 / qpmax=69:69:69 / qpstep=4 / vbv_maxrate=50000 / vbv_bufsize=62500 / crf_max=0.0 / nal_hrd=none / filler=0 / ip_ratio=1.35 / pb_ratio=1.25 / aq=4:0.80 / aq-sensitivity=10.00 / aq-factor=1.00:1.00:1.00 / aq2=0 / aq3=0

Язык : English

Default : Да

Forced : Нет

Аудио #1

Идентификатор : 2

Формат : AC-3

Формат/Информация : Audio Coding 3

Расширение режима : CM (complete main)

Параметр Endianness формата : Big

Идентификатор кодека : A_AC3

Продолжительность : 1 ч. 54 м.

Вид битрейта : Постоянный

Битрейт : 448 Кбит/сек

Каналы : 6 каналов

Расположение каналов : Front: L C R, Side: L R, LFE

Частота : 48,0 КГц

Метод сжатия : С потерями

Размер потока : 367 Мбайт (3%)

Заголовок : AC3 5.1 @ 448 kbps - DUB, Blu-ray CEE

Язык : Russian

Default : Да

Forced : Нет

Аудио #2

Идентификатор : 3

Формат : DTS

Формат/Информация : Digital Theater Systems

Режим : 16

Параметр Endianness формата : Big

Идентификатор кодека : A_DTS

Продолжительность : 1 ч. 54 м.

Вид битрейта : Постоянный

Битрейт : 1509 Кбит/сек

Каналы : 6 каналов

Расположение каналов : Front: L C R, Side: L R, LFE

Частота : 48,0 КГц

Битовая глубина : 24 бит

Метод сжатия : С потерями

Размер потока : 1,21 Гбайт (8%)

Заголовок : DTS 5.1 @ 1536 kbps

Язык : English

Default : Нет

Forced : Нет

Аудио #3

Идентификатор : 4

Формат : AC-3

Формат/Информация : Audio Coding 3

Профиль формата : Dolby Digital

Расширение режима : CM (complete main)

Параметр Endianness формата : Big

Идентификатор кодека : A_AC3

Продолжительность : 1 ч. 54 м.

Вид битрейта : Постоянный

Битрейт : 192 Кбит/сек

Каналы : 2 канала

Расположение каналов : Front: L R

Частота : 48,0 КГц

Метод сжатия : С потерями

Размер потока : 157 Мбайт (1%)

Заголовок : AC3 2.0 @ 192 kbps - Commentary

Язык : English

Default : Нет

Forced : Нет

Текст #1

Идентификатор : 5

Формат : UTF-8

Идентификатор кодека : S_TEXT/UTF8

Идентификатор кодека/Информация : UTF-8 Plain Text

Заголовок : Forced

Язык : Russian

Default : Да

Forced : Да

Текст #2

Идентификатор : 6

Формат : UTF-8

Идентификатор кодека : S_TEXT/UTF8

Идентификатор кодека/Информация : UTF-8 Plain Text

Язык : Russian

Default : Нет

Forced : Нет

Текст #3

Идентификатор : 7

Формат : UTF-8

Идентификатор кодека : S_TEXT/UTF8

Идентификатор кодека/Информация : UTF-8 Plain Text

Язык : English

Default : Нет

Forced : Нет

00:00:00.000 : en:00:00:00.000

00:09:29.944 : en:00:09:29.944

00:18:47.209 : en:00:18:47.209

00:30:10.100 : en:00:30:10.100

00:40:08.823 : en:00:40:08.823

00:50:18.098 : en:00:50:18.098

00:59:44.498 : en:00:59:44.498

01:11:27.366 : en:01:11:27.366

01:19:43.612 : en:01:19:43.612

01:30:40.810 : en:01:30:40.810

01:39:56.490 : en:01:39:56.490

01:47:10.924 : en:01:47:10.924

piratbit.ru

Скачать фильм Разлом Сан-Андреас через торрент в хорошем качестве бесплатно 1080p

GeneralUnique ID : 194462001581857740090375681984608182424 (0x924C04E99550EC10BF6611B769BDA098)Complete name : D:\Торенты\RaZl0m.SA.2015.D.BDRip.1080p.3D.H0U.mkvFormat : MatroskaFormat version : Version 4 / Version 2File size : 9.95 GiBDuration : 1h 54mnOverall bit rate : 12.4 MbpsMovie name : SAN_ANDREAS.Title98.Bluray3DRipEncoded date : UTC 2015-09-27 11:32:48Writing application : mkvmerge v6.9.1 ('Blue Panther') 64bit built on Apr 18 2014 18:23:38Writing library : libebml v1.3.0 + libmatroska v1.4.1

VideoID : 1Format : AVCFormat/Info : Advanced Video CodecFormat profile : [email protected] settings, CABAC : YesFormat settings, ReFrames : 2 framesCodec ID : V_MPEG4/ISO/AVCDuration : 1h 54mnBit rate : 11.8 MbpsWidth : 1 920 pixelsHeight : 1 080 pixelsDisplay aspect ratio : 16:9Frame rate : 23.976 fpsColor space : YUVChroma subsampling : 4:2:0Bit depth : 8 bitsScan type : ProgressiveBits/(Pixel*Frame) : 0.236Stream size : 9.40 GiB (94%)Writing library : x264 coreDefault : YesForced : NoColor primaries : BT.709-5, BT.1361, IEC 61966-2-4, SMPTE RP177Transfer characteristics : BT.709-5, BT.1361Matrix coefficients : BT.709-5, BT.1361, IEC 61966-2-4 709, SMPTE RP177

AudioID : 2Format : AC-3Format/Info : Audio Coding 3Mode extension : CM (complete main)Codec ID : A_AC3Duration : 1h 54mnBit rate mode : ConstantBit rate : 448 KbpsChannel(s) : 6 channelsChannel positions : Front: L C R, Side: L R, LFESampling rate : 48.0 KHzBit depth : 16 bitsCompression mode : LossyStream size : 367 MiB (4%)Language : RussianDefault : YesForced : No

Text #1ID : 3Format : UTF-8Codec ID : S_TEXT/UTF8Codec ID/Info : UTF-8 Plain TextTitle : ForcedLanguage : RussianDefault : YesForced : Yes

Text #2ID : 4Format : UTF-8Codec ID : S_TEXT/UTF8Codec ID/Info : UTF-8 Plain TextTitle : FullLanguage : RussianDefault : NoForced : No

Text #3ID : 5Format : UTF-8Codec ID : S_TEXT/UTF8Codec ID/Info : UTF-8 Plain TextLanguage : EnglishDefault : NoForced : No

Menu00:00:00.000 : en:(01)00:00:00:00000:09:29.944 : en:(02)00:09:29:94400:18:47.209 : en:(03)00:18:47:20900:30:10.099 : en:(04)00:30:10:09900:40:08.823 : en:(05)00:40:08:82300:50:18.098 : en:(06)00:50:18:09800:59:44.497 : en:(07)00:59:44:49701:11:27.366 : en:(08)01:11:27:36601:19:43.612 : en:(09)01:19:43:61201:30:40.810 : en:(10)01:30:40:81001:39:56.490 : en:(11)01:39:56:49001:47:10.924 : en:(12)01:47:10:92401:54:28.361 : en:(13)01:54:28:361

piratbit.ru

Скачать фильм Разлом Сан-Андреас через торрент в хорошем качестве бесплатно 720p от potroks

Общее Уникальный идентификатор : 215604716790862006426309171515987403549 (0xA233F540EBC34923BA7510BDE341231D) Полное имя : Razlom.San.Andreas.2015.DUAL.BDRip.720p.-HELLYWOOD.mkv Формат : Matroska Версия формата : Version 4 / Version 2 Размер файла : 4,37 Гбайт Продолжительность : 1 ч. 55 м. Общий поток : 5442 Кбит/сек Название фильма : San Andreas (2015) - HELLYWOOD Дата кодирования : UTC 2015-10-05 16:34:47 Программа кодирования : mkvmerge v5.9.0 ('On The Loose') built on Dec 15 2012 16:39:58 Библиотека кодирования : libebml v1.3.0 + libmatroska v1.4.0

Видео Идентификатор : 1 Формат : AVC Формат/Информация : Advanced Video Codec Профиль формата : [email protected] Параметр CABAC формата : Да Параметр ReFrames формата : 9 кадров Идентификатор кодека : V_MPEG4/ISO/AVC Продолжительность : 1 ч. 55 м. Битрейт : 4571 Кбит/сек Ширина : 1280 пикселей Высота : 532 пикселя Соотношение сторон : 2,40:1 Режим частоты кадров : Постоянный Частота кадров : 23,976 кадра/сек Цветовое пространство : YUV Субдискретизация насыщенности : 4:2:0 Битовая глубина : 8 бит Тип развёртки : Прогрессивная Бит/(Пиксели*Кадры) : 0.280 Размер потока : 3,56 Гбайт (82%) Заголовок : potroks Библиотека кодирования : x264 core 148 r2597M e86f3a1 Настройки программы : cabac=1 / ref=9 / deblock=1:-3:-3 / analyse=0x3:0x133 / me=umh / subme=11 / psy=1 / psy_rd=1.00:0.10 / mixed_ref=1 / me_range=56 / chroma_me=1 / trellis=2 / 8x8dct=1 / cqm=0 / deadzone=21,11 / fast_pskip=0 / chroma_qp_offset=-3 / threads=10 / lookahead_threads=2 / sliced_threads=0 / nr=0 / decimate=1 / interlaced=0 / bluray_compat=0 / constrained_intra=0 / bframes=10 / b_pyramid=2 / b_adapt=2 / b_bias=0 / direct=3 / weightb=1 / open_gop=0 / weightp=2 / keyint=250 / keyint_min=23 / scenecut=40 / intra_refresh=0 / rc=2pass / mbtree=0 / bitrate=4571 / ratetol=1.0 / qcomp=0.70 / qpmin=0 / qpmax=69 / qpstep=4 / cplxblur=20.0 / qblur=0.5 / ip_ratio=1.40 / pb_ratio=1.30 / aq=1:0.80 Язык : English Default : Да Forced : Нет

Аудио #1 Идентификатор : 2 Формат : AC-3 Формат/Информация : Audio Coding 3 Расширение режима : CM (complete main) Параметр Endianness формата : Big Идентификатор кодека : A_AC3 Продолжительность : 1 ч. 55 м. Вид битрейта : Постоянный Битрейт : 448 Кбит/сек Каналы : 6 каналов Расположение каналов : Front: L C R, Side: L R, LFE Частота : 48,0 КГц Метод сжатия : С потерями Размер потока : 369 Мбайт (8%) Заголовок : Dub | DD 5.1 2 448 kbps - Blu-Ray CEE Язык : Russian Default : Да Forced : Нет

Аудио #2 Идентификатор : 3 Формат : AC-3 Формат/Информация : Audio Coding 3 Расширение режима : CM (complete main) Параметр Endianness формата : Big Идентификатор кодека : A_AC3 Продолжительность : 1 ч. 55 м. Вид битрейта : Постоянный Битрейт : 448 Кбит/сек Каналы : 6 каналов Расположение каналов : Front: L C R, Side: L R, LFE Частота : 48,0 КГц Метод сжатия : С потерями Размер потока : 369 Мбайт (8%) Заголовок : Original | DD 5.1 @ 448 kbps Язык : English Default : Нет Forced : Нет

Текст #1 Идентификатор : 4 Формат : UTF-8 Идентификатор кодека : S_TEXT/UTF8 Идентификатор кодека/Информация : UTF-8 Plain Text Заголовок : Forced Язык : Russian Default : Да Forced : Нет

Текст #2 Идентификатор : 5 Формат : UTF-8 Идентификатор кодека : S_TEXT/UTF8 Идентификатор кодека/Информация : UTF-8 Plain Text Заголовок : Blu-Ray Язык : Russian Default : Нет Forced : Нет

Текст #3 Идентификатор : 6 Формат : UTF-8 Идентификатор кодека : S_TEXT/UTF8 Идентификатор кодека/Информация : UTF-8 Plain Text Заголовок : Full Язык : English Default : Нет Forced : Нет

Текст #4 Идентификатор : 7 Формат : UTF-8 Идентификатор кодека : S_TEXT/UTF8 Идентификатор кодека/Информация : UTF-8 Plain Text Заголовок : SDH Язык : English Default : Нет Forced : Нет

Текст #5 Идентификатор : 8 Формат : UTF-8 Идентификатор кодека : S_TEXT/UTF8 Идентификатор кодека/Информация : UTF-8 Plain Text Заголовок : SDH-Colored Язык : English Default : Нет Forced : Нет

Меню 00:00:00.000 : :(01)00:00:00:000 00:09:29.944 : :(02)00:09:29:944 00:18:47.209 : :(03)00:18:47:209 00:30:10.099 : :(04)00:30:10:099 00:40:08.823 : :(05)00:40:08:823 00:50:18.098 : :(06)00:50:18:098 00:59:44.497 : :(07)00:59:44:497 01:11:27.366 : :(08)01:11:27:366 01:19:43.612 : :(09)01:19:43:612 01:30:40.810 : :(10)01:30:40:810 01:39:56.490 : :(11)01:39:56:490 01:47:10.924 : :(12)01:47:10:924

piratbit.ru


Смотрите также