Скачать через торрент пандорум в хорошем качестве


Скачать торрент Пандорум / Pandorum (2009) BDRip 1080p

General Unique ID : 254517966816631356231183644118331505224 (0xBF7A609B2AEC4BE2A8D9417ABEF93A48) Complete name : F:Пандорум (Reap prepared Bayern).mkv Format : Matroska Format version : Version 4 / Version 2 File size : 11.1 GiB Duration : 1h 47mn Overall bit rate : 14.8 Mbps Movie name : Pandorum (2009) - Release for HDCLUB Encoded date : UTC 2015-09-19 13:34:42 Writing application : mkvmerge v7.4.0 ('Circles') 64bit built on Dec 12 2014 12:19:56 Writing library : libebml v1.3.0 + libmatroska v1.4.1 _STATISTICS_WRITING_APP : mkvmerge v7.4.0 ('Circles') 64bit built on Dec 12 2014 12:19:56 _STATISTICS_WRITING_DATE_UTC : 2015-09-19 13:34:42 _STATISTICS_TAGS : BPS DURATION NUMBER_OF_FRAMES NUMBER_OF_BYTES DURATION : 01:37:19.792000000 NUMBER_OF_FRAMES : 1033 NUMBER_OF_BYTES : 31553

Video ID : 1 Format : AVC Format/Info : Advanced Video Codec Format profile : [email protected] Format settings, CABAC : Yes Format settings, ReFrames : 4 frames Codec ID : V_MPEG4/ISO/AVC Duration : 1h 47mn Bit rate : 14.0 Mbps Width : 1 920 pixels Height : 816 pixels Display aspect ratio : 2.35:1 Frame rate mode : Constant Frame rate : 60.000 fps Color space : YUV Chroma subsampling : 4:2:0 Bit depth : 8 bits Scan type : Progressive Bits/(Pixel*Frame) : 0.149 Stream size : 10.1 GiB (91%) Writing library : x264 core 146 r2538 121396c Encoding settings : cabac=1 / ref=3 / deblock=1:0:0 / analyse=0x3:0x113 / me=umh / subme=9 / psy=1 / psy_rd=1.00:0.20 / mixed_ref=1 / me_range=32 / chroma_me=1 / trellis=2 / 8x8dct=1 / cqm=0 / deadzone=21,11 / fast_pskip=0 / chroma_qp_offset=-3 / threads=6 / lookahead_threads=1 / sliced_threads=0 / nr=0 / decimate=0 / interlaced=0 / bluray_compat=0 / constrained_intra=0 / bframes=16 / b_pyramid=2 / b_adapt=2 / b_bias=0 / direct=3 / weightb=1 / open_gop=0 / weightp=2 / keyint=600 / keyint_min=60 / scenecut=40 / intra_refresh=0 / rc_lookahead=40 / rc=2pass / mbtree=0 / bitrate=14000 / ratetol=1.0 / qcomp=0.60 / qpmin=0 / qpmax=69 / qpstep=4 / cplxblur=20.0 / qblur=0.5 / vbv_maxrate=14000 / vbv_bufsize=14000 / nal_hrd=none / filler=0 / ip_ratio=1.40 / pb_ratio=1.30 / aq=1:1.00 Language : English Default : Yes Forced : No _STATISTICS_WRITING_APP : mkvmerge v7.4.0 ('Circles') 64bit built on Dec 12 2014 12:19:56 _STATISTICS_WRITING_DATE_UTC : 2015-09-19 13:34:42 _STATISTICS_TAGS : BPS DURATION NUMBER_OF_FRAMES NUMBER_OF_BYTES DURATION : 01:47:52.767000000 NUMBER_OF_FRAMES : 388366 NUMBER_OF_BYTES : 11129190486

Audio #1 ID : 2 Format : AC-3 Format/Info : Audio Coding 3 Mode extension : CM (complete main) Format settings, Endianness : Big Codec ID : A_AC3 Duration : 1h 47mn Bit rate mode : Constant Bit rate : 384 Kbps Channel(s) : 6 channels Channel positions : Front: L C R, Side: L R, LFE Sampling rate : 48.0 KHz Compression mode : Lossy Stream size : 296 MiB (3%) Title : AC3 5.1 @ 384 kbps - Дублированный Language : Russian Default : Yes Forced : No

Audio #2 ID : 3 Format : AC-3 Format/Info : Audio Coding 3 Mode extension : CM (complete main) Format settings, Endianness : Big Codec ID : A_AC3 Duration : 1h 47mn Bit rate mode : Constant Bit rate : 640 Kbps Channel(s) : 6 channels Channel positions : Front: L C R, Side: L R, LFE Sampling rate : 48.0 KHz Compression mode : Lossy Stream size : 494 MiB (4%) Default : No Forced : No

Text #1 ID : 4 Format : UTF-8 Codec ID : S_TEXT/UTF8 Codec ID/Info : UTF-8 Plain Text Language : Russian Default : No Forced : No

Text #2 ID : 5 Format : UTF-8 Codec ID : S_TEXT/UTF8 Codec ID/Info : UTF-8 Plain Text Language : English Default : No Forced : No

Menu #1 00:00:00.000 : en:00:00:00.000 00:04:36.083 : en:00:04:36.083 00:07:32.208 : en:00:07:32.208 00:13:53.417 : en:00:13:53.417 00:18:54.042 : en:00:18:54.042 00:24:03.542 : en:00:24:03.542 00:28:36.958 : en:00:28:36.958 00:34:46.417 : en:00:34:46.417 00:39:20.333 : en:00:39:20.333 00:45:37.667 : en:00:45:37.667 00:53:21.250 : en:00:53:21.250 00:59:53.000 : en:00:59:53.000 01:08:46.417 : en:01:08:46.417 01:14:05.292 : en:01:14:05.292 01:20:54.958 : en:01:20:54.958 01:28:04.708 : en:01:28:04.708 01:36:42.917 : en:01:36:42.917 01:41:20.125 : en:01:41:20.125

Menu #2 00:00:00.000 : en:00:00:00.000 00:04:36.083 : en:00:04:36.083 00:07:32.208 : en:00:07:32.208 00:13:53.417 : en:00:13:53.417 00:18:54.042 : en:00:18:54.042 00:24:03.542 : en:00:24:03.542 00:28:36.958 : en:00:28:36.958 00:34:46.417 : en:00:34:46.417 00:39:20.333 : en:00:39:20.333 00:45:37.667 : en:00:45:37.667 00:53:21.250 : en:00:53:21.250 00:59:53.000 : en:00:59:53.000 01:08:46.417 : en:01:08:46.417 01:14:05.292 : en:01:14:05.292 01:20:54.958 : en:01:20:54.958 01:28:04.708 : en:01:28:04.708 01:36:42.917 : en:01:36:42.917 01:41:20.125 : en:01:41:20.125

m-torrent.org

Скачать фильм Пандорум через торрент в хорошем качестве бесплатно HDRip

piratbit.ru

Размер: 1.46 GB | Добавлен: 7 лет 1 мес. назад | Торрент скачан:1952 раза
Реклама Дарим 3000 рублей за регистрацию, не упусти свой шанс получить шикарный бонус!!!

17-09-2010 16:40 Пандорум Скачать торрент  

Год выпуска: 2009Страна: Германия, СШАЖанр: фантастика, боевик, триллерПродолжительность: 01:48:05Перевод: Профессиональный (полное дублирование)Режиссер: Кристиан АлвертПродюссер: Пол У. С. Андерсон, Джереми Болт, Астрид КюхбергерСценарий: Трейвис Миллоу, Кристиан АлвертБюджет: $33 000 000Премьера в мире: 25 сентября 2009IMDb | Sample | КиноПоискОписание В безднах космоса движется звездолет. Два члена команды, пробудившиеся от гиперсна, оказываются в сложной ситуации: оборудование не работает, вспомнить они ничего не могут. Какова была их миссия? Сколько времени прошло? Где они? Кто они? На все эти вопросы у них нет ответов. К тому же, на корабле обнаруживаются чужие — злобные воины, которые крушат все на своем пути. У космических путешественников очень мало времени. Теперь для них собственные жизни — не самое главное, ибо только от них двоих, возможно, зависит спасение человечества. Нужно любой ценой восстановить управление кораблем, пока загадочный Пандорум не взял власть в свои руки.Качество: HDRipФормат: AVIВидео кодек: XviDАудио кодек: AC3Видео: 720x304 (2.37:1), 23.976 fps, XviD build 47 ~1348 kbps avg, 0.26 bit/pixelАудио#1: 48 kHz, AC3 Dolby Digital, 3/2 (L,C,R,l,r) + LFE ch, ~384 kbpsАудио#2: 48 kHz, AC3 Dolby Digital, 2/0 (L,R) ch, ~192 kbps

* Фильм снимался на знаменитой студии Бабельсберг в Берлине, где ещё Фриц Ланг создавал свой «Метрополис».* На Западе фильм показывали в кинотеатрах с поддержкой D-Box. Это система вибраций и движений, которая монтируется в кресло и позволяет глубже погрузится в действие.

Пожалуйста не покидайте раздачу, дайте скачать другим. Скачать Пандорум через торрент http://i10.fastpic.ru/big/2010/0917/26/d0f5d7f028ca15e554a306ffd3e34026.png Скачать фильм Пандорум через торрент бесплантно в хорошем качестве Описание В безднах космоса движется звездолет. Два члена команды, пробудившиеся от гиперсна, оказываются в сложной ситуации: оборудование ... 2010-09-17 16:40 10 10 25

Loading...

Loading...

% Раздел Тема Автор DL S | L
Фильмы [HD 720p, 1080p] (Хороший звук DUB, MVO) [ 7.95 GB ] Пандорум / Pandorum [2009 BDRip 720p ] DUB AVO potroks Скачать
Фильмы [HD 720p, 1080p] (Хороший звук DUB, MVO) [ 19.82 GB ] Пандорум / Pandorum [2009 BDRip 1080p by msltel] DUB 3 x AVO / Open Matte msltel Скачать
Фильмы [HD 720p, 1080p] (Хороший звук DUB, MVO) [ 6.49 GB ] Пандорум / Pandorum [2009 BDRip 720p by msltel] DUB 3 x AVO / Open Matte msltel Скачать
Фильмы (HD 720p, 1080p) (48-60 fps) [ 11.14 GB ] Пандорум / Pandorum [2009 BDRip 1080p 60fps] DUB от R.G. HD-Films Бавария Скачать
T Релизы по Парсеру [Фильмы, Игры, Сериалы и другое...] [ 1.45 GB ] Пандорум / Pandorum [2009 Германия BDRip] Dub sanekbest1 Скачать
Фильмы [HD 720p, 1080p] (Хороший звук DUB, MVO) [ 12.47 GB ] Пандорум / Pandorum [2009 BDRip 1080p] RaSSeLBeatZ Скачать
Фильмы с авторской озвучкой [ 1.46 GB ] Пандорум / Pandorum [2009 BDRip] [AVO] killermax2013 Скачать

Рекламный пират

17-09-2010 18:38 Пандорум Скачать торрент  

21-09-2010 09:23 Пандорум Скачать торрент  

27-09-2010 19:27 Пандорум Скачать торрент  

Всем советую посмотреть!

30-09-2010 11:00 Пандорум Скачать торрент  

посмотрел странный фильм о психологическом расстройстве человека.мозг иногда может создавать эллюзии.

30-09-2010 17:50 Пандорум Скачать торрент  

Смотрел давненько) советую посмотреть! И сам пожалуй пересмотрю)

05-12-2010 14:15 Пандорум Скачать торрент  

Скорости дайтеее плиззз!!!

05-12-2010 14:52 Пандорум Скачать торрент  

Этот фильм из фильмов в лучших традициях приключенческой и научной фантастики. Снят очень прилично, рекомендую всем, кто любит жанр.

30-12-2010 21:04 Пандорум Скачать торрент  

Спасибо!!! Добротный фильм! Динамичней чем Спуск, хороший сюжет держит в

напряжении до конца, всем советую глянуть.

Pекламный агент PB

01-01-2011 17:56 Пандорум Скачать торрент  

Фильм очень класный. Сам ещё в прошлом году его посмотрел. Кто до сих пор не видел - советую.

08-02-2011 05:35 Пандорум Скачать торрент  

Фильм отличный. Всем советую посмотреть.

09-09-2014 19:13 Пандорум Скачать торрент  

скорости пожалуйста!

10-09-2014 22:15 Пандорум Скачать торрент  

Давненько мне не попадались -стоящие фильмы. Сценаристам и режиссеру респект!

01-07-2015 10:33 Пандорум Скачать торрент  

Фильм шикарный. Все смотреть. Спасибо за раздачу.

01-07-2015 10:45 Пандорум Скачать торрент  

Мггг... Скачалось 2% и привет.

Дорогой пользователь! Огромная просьба, поблагодарите релизера, оцените раздачу и оставьте свои комментарий, если Вы скачали Пандорум через торрент бесплатно! Внесите свою лепту в развитие PiratBit!

Комментировать посты могут только пользователи прошедшие не сложную регистрацию

Пандорум через торрент Скачать бесплатно Пандорум Пандорум скачать торрент Пандорум смотреть онлайн Cкачать фильм Пандорум бесплатно Пандорум скачать торрент в хорошем качестве Пандорум смотреть онлайн бесплатно в хорошем качестве

Вы не можете начинать темыВы не можете отвечать на сообщенияВы не можете редактировать свои сообщенияВы не можете удалять свои сообщенияВы не можете голосовать в опросахВы не можете прикреплять файлы к сообщениямВы можете скачивать файлы

Скачать фильм Пандорум через торрент в хорошем качестве бесплатно 720p

GeneralUnique ID                   : 235246325772174581095265279751194877354 (0xB0FACB57FA14789BA6C63022E54F1DAA)Complete name               : Pandorum.2009.5xRus.Ukr.Eng.BDRip.720p.by_potroks.mkvFormat                      : MatroskaFormat version              : Version 4 / Version 2File size                   : 7.95 GiBDuration                    : 1h 48mnOverall bit rate            : 10.5 MbpsMovie name                  : Pandorum (2009)Encoded date                : UTC 2016-04-28 16:29:10Writing application         : mkvmerge v5.9.0 ('On The Loose') built on Dec 15 2012 16:39:58Writing library             : libebml v1.3.0 + libmatroska v1.4.0

VideoID                          : 1Format                      : AVCFormat/Info                 : Advanced Video CodecFormat profile              : [email protected] settings, CABAC      : YesFormat settings, ReFrames   : 9 framesCodec ID                    : V_MPEG4/ISO/AVCDuration                    : 1h 48mnBit rate                    : 6 562 KbpsWidth                       : 1 280 pixelsHeight                      : 544 pixelsDisplay aspect ratio        : 2.35:1Frame rate mode             : ConstantFrame rate                  : 23.976 (24000/1001) fpsColor space                 : YUVChroma subsampling          : 4:2:0Bit depth                   : 8 bitsScan type                   : ProgressiveBits/(Pixel*Frame)          : 0.393Stream size                 : 4.80 GiB (60%)Title                       : potroksWriting library             : x264 core 148 r2665M a01e339Encoding settings           : cabac=1 / ref=9 / deblock=1:-3:-3 / analyse=0x3:0x133 / me=umh / subme=11 / psy=1 / psy_rd=0.99:0.05 / mixed_ref=1 / me_range=48 / chroma_me=1 / trellis=2 / 8x8dct=1 / cqm=0 / deadzone=21,11 / fast_pskip=0 / chroma_qp_offset=-3 / threads=9 / lookahead_threads=2 / sliced_threads=0 / nr=0 / decimate=1 / interlaced=0 / bluray_compat=0 / constrained_intra=0 / bframes=11 / b_pyramid=2 / b_adapt=2 / b_bias=0 / direct=3 / weightb=1 / open_gop=0 / weightp=2 / keyint=240 / keyint_min=23 / scenecut=40 / intra_refresh=0 / rc=2pass / mbtree=0 / bitrate=6562 / ratetol=1.0 / qcomp=0.70 / qpmin=0 / qpmax=69 / qpstep=4 / cplxblur=20.0 / qblur=0.5 / ip_ratio=1.35 / pb_ratio=1.25 / aq=1:0.85Language                    : EnglishDefault                     : YesForced                      : No

Audio #1ID                          : 2Format                      : AC-3Format/Info                 : Audio Coding 3Mode extension              : CM (complete main)Format settings, Endianness : BigCodec ID                    : A_AC3Duration                    : 1h 48mnBit rate mode               : ConstantBit rate                    : 384 KbpsChannel(s)                  : 6 channelsChannel positions           : Front: L C R, Side: L R, LFESampling rate               : 48.0 KHzFrame rate                  : 31.250 fps (1536 spf)Compression mode            : LossyDelay relative to video     : 30msStream size                 : 297 MiB (4%)Title                       : Dub | DD 5.1 @ 384 kbps - R5Language                    : RussianDefault                     : YesForced                      : No

Audio #2ID                          : 3Format                      : AC-3Format/Info                 : Audio Coding 3Mode extension              : CM (complete main)Format settings, Endianness : BigCodec ID                    : A_AC3Duration                    : 1h 48mnBit rate mode               : ConstantBit rate                    : 640 KbpsChannel(s)                  : 6 channelsChannel positions           : Front: L C R, Side: L R, LFESampling rate               : 48.0 KHzFrame rate                  : 31.250 fps (1536 spf)Compression mode            : LossyStream size                 : 495 MiB (6%)Title                       : AVO | DD 5.1 @ 640 kbps - D.YesarevLanguage                    : RussianDefault                     : NoForced                      : No

Audio #3ID                          : 4Format                      : AC-3Format/Info                 : Audio Coding 3Mode extension              : CM (complete main)Format settings, Endianness : BigCodec ID                    : A_AC3Duration                    : 1h 48mnBit rate mode               : ConstantBit rate                    : 640 KbpsChannel(s)                  : 6 channelsChannel positions           : Front: L C R, Side: L R, LFESampling rate               : 48.0 KHzFrame rate                  : 31.250 fps (1536 spf)Compression mode            : LossyStream size                 : 495 MiB (6%)Title                       : AVO | DD 5.1 @ 640 kbps - A.GavrilovLanguage                    : RussianDefault                     : NoForced                      : No

Audio #4ID                          : 5Format                      : AC-3Format/Info                 : Audio Coding 3Mode extension              : CM (complete main)Format settings, Endianness : BigCodec ID                    : A_AC3Duration                    : 1h 48mnBit rate mode               : ConstantBit rate                    : 640 KbpsChannel(s)                  : 6 channelsChannel positions           : Front: L C R, Side: L R, LFESampling rate               : 48.0 KHzFrame rate                  : 31.250 fps (1536 spf)Compression mode            : LossyStream size                 : 495 MiB (6%)Title                       : AVO | DD 5.1 @ 640 kbps - Yu.ZhivovLanguage                    : RussianDefault                     : NoForced                      : No

Audio #5ID                          : 6Format                      : AC-3Format/Info                 : Audio Coding 3Mode extension              : CM (complete main)Format settings, Endianness : BigCodec ID                    : A_AC3Duration                    : 1h 48mnBit rate mode               : ConstantBit rate                    : 640 KbpsChannel(s)                  : 6 channelsChannel positions           : Front: L C R, Side: L R, LFESampling rate               : 48.0 KHzFrame rate                  : 31.250 fps (1536 spf)Compression mode            : LossyStream size                 : 495 MiB (6%)Title                       : AVO | DD 5.1 @ 640 kbps - Yu.NemahovLanguage                    : RussianDefault                     : NoForced                      : No

Audio #6ID                          : 7Format                      : AC-3Format/Info                 : Audio Coding 3Mode extension              : CM (complete main)Format settings, Endianness : BigCodec ID                    : A_AC3Duration                    : 1h 48mnBit rate mode               : ConstantBit rate                    : 384 KbpsChannel(s)                  : 6 channelsChannel positions           : Front: L C R, Side: L R, LFESampling rate               : 48.0 KHzFrame rate                  : 31.250 fps (1536 spf)Compression mode            : LossyStream size                 : 297 MiB (4%)Title                       : MVO | DD 5.1 @ 384 kbps - R5Language                    : UkrainianDefault                     : NoForced                      : No

Audio #7ID                          : 8Format                      : AC-3Format/Info                 : Audio Coding 3Mode extension              : CM (complete main)Format settings, Endianness : BigCodec ID                    : A_AC3Duration                    : 1h 48mnBit rate mode               : ConstantBit rate                    : 640 KbpsChannel(s)                  : 6 channelsChannel positions           : Front: L C R, Side: L R, LFESampling rate               : 48.0 KHzFrame rate                  : 31.250 fps (1536 spf)Compression mode            : LossyStream size                 : 495 MiB (6%)Title                       : Original | DD 5.1 @ 640 kbpsLanguage                    : EnglishDefault                     : NoForced                      : No

Text #1ID                          : 9Format                      : UTF-8Codec ID                    : S_TEXT/UTF8Codec ID/Info               : UTF-8 Plain TextTitle                       : StevvieLanguage                    : RussianDefault                     : NoForced                      : No

Text #2ID                          : 10Format                      : UTF-8Codec ID                    : S_TEXT/UTF8Codec ID/Info               : UTF-8 Plain TextTitle                       : TamerlanLanguage                    : RussianDefault                     : NoForced                      : No

Text #3ID                          : 11Format                      : UTF-8Codec ID                    : S_TEXT/UTF8Codec ID/Info               : UTF-8 Plain TextTitle                       : FullLanguage                    : EnglishDefault                     : NoForced                      : No

Text #4ID                          : 12Format                      : UTF-8Codec ID                    : S_TEXT/UTF8Codec ID/Info               : UTF-8 Plain TextTitle                       : ForcedLanguage                    : UkrainianDefault                     : NoForced                      : No

Menu00:00:00.000                : :1. Elysium/Main Title00:02:56.426                : :2. Hyper-Sleep Disorientation00:07:46.257                : :3. Payton's Awakening00:12:18.237                : :4. Claustrophobia00:18:03.165                : :5. First Contact00:28:38.634                : :6. Rescuing Shepard00:36:41.699                : :7. A Little Solidarity00:44:31.127                : :8. Ecological Development00:50:09.340                : :9. Tough to Kill00:57:23.315                : :10. Corporal Gallo00:59:31.985                : :11. Leland the Cook01:03:38.898                : :12. Pandorum01:12:13.079                : :13. Race to the Reactor01:25:28.081                : :14. Duel to the Death01:36:48.678                : :15. Brave New World01:41:26.205                : :16. End Credits

piratbit.ru

Скачать фильм Пандорум через торрент в хорошем качестве бесплатно 1080p

General Complete name : D:\Pandorum.2009.1080p.BluRay.2xRus.Ukr.Eng.HDCLUB.mkv Format : Matroska File size : 12.5 GiB Duration : 1h 47mn Overall bit rate : 16.5 Mbps Movie name : Pandorum (2009) - Release for HDCLUB Encoded date : UTC 2010-06-27 21:06:28 Writing application : mkvmerge v3.3.0 ('Language') built on Mar 24 2010 14:59:24 Writing library : libebml v0.8.0 + libmatroska v0.9.0

VideoID : 1Format : AVCFormat/Info : Advanced Video CodecFormat profile : [email protected] settings, CABAC : YesFormat settings, ReFrames : 5 framesMuxing mode : Container [email protected] ID : V_MPEG4/ISO/AVCDuration : 1h 47mnBit rate : 12.2 MbpsNominal bit rate : 12.7 MbpsWidth : 1 920 pixelsHeight : 816 pixelsDisplay aspect ratio : 2.35:1Frame rate : 24.000 fpsResolution : 8 bitsColorimetry : 4:2:0Scan type : ProgressiveBits/(Pixel*Frame) : 0.324Stream size : 9.19 GiB (74%)Title : Release for HDCLUBWriting library : x264 core 80 r1376M 3feaec2Encoding settings : cabac=1 / ref=5 / deblock=1:-3:-3 / analyse=0x3:0x113 / me=umh / subme=9 / psy=1 / psy_rd=1.2:0.0 / mixed_ref=1 / me_range=24 / chroma_me=1 / trellis=2 / 8x8dct=1 / cqm=0 / deadzone=21,11 / fast_pskip=0 / chroma_qp_offset=-2 / threads=12 / sliced_threads=0 / nr=0 / decimate=0 / mbaff=0 / constrained_intra=0 / bframes=8 / b_pyramid=2 / b_adapt=2 / b_bias=-1 / direct=3 / wpredb=1 / wpredp=2 / keyint=250 / keyint_min=25 / scenecut=40 / rc_lookahead=80 / rc=2pass / mbtree=1 / bitrate=12670 / ratetol=1000000000.0 / qcomp=0.80 / qpmin=10 / qpmax=51 / qpstep=4 / cplxblur=20.0 / qblur=0.5 / ip_ratio=1.10 / aq=1:0.70 / zones=37382,37444,b=0.52/44615,45036,b=0.85Language : English

Audio #1ID : 2Format : AC-3Format/Info : Audio Coding 3Codec ID : A_AC3Duration : 1h 47mnBit rate mode : ConstantBit rate : 384 KbpsChannel(s) : 6 channelsChannel positions : Front: L C R, Side: L R, LFESampling rate : 48.0 KHzStream size : 296 MiB (2%)Title : AC3 5.1 @ 384 kbps - ДублированныйLanguage : Russian

Audio #2ID : 3Format : AC-3Format/Info : Audio Coding 3Codec ID : A_AC3Duration : 1h 47mnBit rate mode : ConstantBit rate : 384 KbpsChannel(s) : 6 channelsChannel positions : Front: L C R, Side: L R, LFESampling rate : 48.0 KHzStream size : 296 MiB (2%)Title : AC3 5.1 @ 384 kbps - Многоголосый закадровыйLanguage : Ukrainian

Audio #3ID : 4Format : DTSFormat/Info : Digital Theater SystemsCodec ID : A_DTSDuration : 1h 47mnBit rate mode : ConstantBit rate : 1 510 KbpsChannel(s) : 6 channelsChannel positions : Front: L C R, Side: L R, LFESampling rate : 48.0 KHzResolution : 16 bitsStream size : 1.14 GiB (9%)Title : DTS 5.1 @ 1536 kbps - Одноголосый закадровый, Ю.НемаховLanguage : Russian

Audio #4ID : 5Format : DTSFormat/Info : Digital Theater SystemsCodec ID : A_DTSDuration : 1h 47mnBit rate mode : ConstantBit rate : 1 510 KbpsChannel(s) : 6 channelsChannel positions : Front: L C R, Side: L R, LFESampling rate : 48.0 KHzResolution : 24 bitsStream size : 1.14 GiB (9%)Title : DTS 5.1 @ 1536 kbpsLanguage : English

Audio #5ID : 6Format : AC-3Format/Info : Audio Coding 3Codec ID : A_AC3Duration : 1h 47mnBit rate mode : ConstantBit rate : 224 KbpsChannel(s) : 2 channelsChannel positions : Front: L RSampling rate : 48.0 KHzStream size : 173 MiB (1%)Title : AC3 2.0 @ 224 kbps - КомментарииLanguage : English

Text #1ID : 7Format : UTF-8Codec ID : S_TEXT/UTF8Codec ID/Info : UTF-8 Plain TextLanguage : Russian

Text #2ID : 8Format : UTF-8Codec ID : S_TEXT/UTF8Codec ID/Info : UTF-8 Plain TextTitle : На моменты без переревода.Language : Ukrainian

Text #3ID : 9Format : UTF-8Codec ID : S_TEXT/UTF8Codec ID/Info : UTF-8 Plain TextLanguage : English

Menu #100:00:00.000 : en:00:00:00.00000:04:36.083 : en:00:04:36.08300:07:32.208 : en:00:07:32.20800:13:53.417 : en:00:13:53.41700:18:54.042 : en:00:18:54.04200:24:03.542 : en:00:24:03.54200:28:36.958 : en:00:28:36.95800:34:46.417 : en:00:34:46.41700:39:20.333 : en:00:39:20.33300:45:37.667 : en:00:45:37.66700:53:21.250 : en:00:53:21.25000:59:53.000 : en:00:59:53.00001:08:46.417 : en:01:08:46.41701:14:05.292 : en:01:14:05.29201:20:54.958 : en:01:20:54.95801:28:04.708 : en:01:28:04.70801:36:42.917 : en:01:36:42.91701:41:20.125 : en:01:41:20.125

Menu #200:00:00.000 : en:00:00:00.00000:04:36.083 : en:00:04:36.08300:07:32.208 : en:00:07:32.20800:13:53.417 : en:00:13:53.41700:18:54.042 : en:00:18:54.04200:24:03.542 : en:00:24:03.54200:28:36.958 : en:00:28:36.95800:34:46.417 : en:00:34:46.41700:39:20.333 : en:00:39:20.33300:45:37.667 : en:00:45:37.66700:53:21.250 : en:00:53:21.25000:59:53.000 : en:00:59:53.00001:08:46.417 : en:01:08:46.41701:14:05.292 : en:01:14:05.29201:20:54.958 : en:01:20:54.95801:28:04.708 : en:01:28:04.70801:36:42.917 : en:01:36:42.91701:41:20.125 : en:01:41:20.125

piratbit.ru

Скачать фильм Пандорум через торрент в хорошем качестве бесплатно 1080p

GeneralUnique ID : 254517966816631356231183644118331505224 (0xBF7A609B2AEC4BE2A8D9417ABEF93A48)Complete name : F:\Пандорум (Reap prepared Bayern).mkvFormat : MatroskaFormat version : Version 4 / Version 2File size : 11.1 GiBDuration : 1h 47mnOverall bit rate : 14.8 MbpsMovie name : Pandorum (2009) - Release for HDCLUBEncoded date : UTC 2015-09-19 13:34:42Writing application : mkvmerge v7.4.0 ('Circles') 64bit built on Dec 12 2014 12:19:56Writing library : libebml v1.3.0 + libmatroska v1.4.1_STATISTICS_WRITING_APP : mkvmerge v7.4.0 ('Circles') 64bit built on Dec 12 2014 12:19:56_STATISTICS_WRITING_DATE_UTC : 2015-09-19 13:34:42_STATISTICS_TAGS : BPS DURATION NUMBER_OF_FRAMES NUMBER_OF_BYTESDURATION : 01:37:19.792000000NUMBER_OF_FRAMES : 1033NUMBER_OF_BYTES : 31553

VideoID : 1Format : AVCFormat/Info : Advanced Video CodecFormat profile : [email protected] settings, CABAC : YesFormat settings, ReFrames : 4 framesCodec ID : V_MPEG4/ISO/AVCDuration : 1h 47mnBit rate : 14.0 MbpsWidth : 1 920 pixelsHeight : 816 pixelsDisplay aspect ratio : 2.35:1Frame rate mode : ConstantFrame rate : 60.000 fpsColor space : YUVChroma subsampling : 4:2:0Bit depth : 8 bitsScan type : ProgressiveBits/(Pixel*Frame) : 0.149Stream size : 10.1 GiB (91%)Writing library : x264 core 146 r2538 121396cEncoding settings : cabac=1 / ref=3 / deblock=1:0:0 / analyse=0x3:0x113 / me=umh / subme=9 / psy=1 / psy_rd=1.00:0.20 / mixed_ref=1 / me_range=32 / chroma_me=1 / trellis=2 / 8x8dct=1 / cqm=0 / deadzone=21,11 / fast_pskip=0 / chroma_qp_offset=-3 / threads=6 / lookahead_threads=1 / sliced_threads=0 / nr=0 / decimate=0 / interlaced=0 / bluray_compat=0 / constrained_intra=0 / bframes=16 / b_pyramid=2 / b_adapt=2 / b_bias=0 / direct=3 / weightb=1 / open_gop=0 / weightp=2 / keyint=600 / keyint_min=60 / scenecut=40 / intra_refresh=0 / rc_lookahead=40 / rc=2pass / mbtree=0 / bitrate=14000 / ratetol=1.0 / qcomp=0.60 / qpmin=0 / qpmax=69 / qpstep=4 / cplxblur=20.0 / qblur=0.5 / vbv_maxrate=14000 / vbv_bufsize=14000 / nal_hrd=none / filler=0 / ip_ratio=1.40 / pb_ratio=1.30 / aq=1:1.00Language : EnglishDefault : YesForced : No_STATISTICS_WRITING_APP : mkvmerge v7.4.0 ('Circles') 64bit built on Dec 12 2014 12:19:56_STATISTICS_WRITING_DATE_UTC : 2015-09-19 13:34:42_STATISTICS_TAGS : BPS DURATION NUMBER_OF_FRAMES NUMBER_OF_BYTESDURATION : 01:47:52.767000000NUMBER_OF_FRAMES : 388366NUMBER_OF_BYTES : 11129190486

Audio #1ID : 2Format : AC-3Format/Info : Audio Coding 3Mode extension : CM (complete main)Format settings, Endianness : BigCodec ID : A_AC3Duration : 1h 47mnBit rate mode : ConstantBit rate : 384 KbpsChannel(s) : 6 channelsChannel positions : Front: L C R, Side: L R, LFESampling rate : 48.0 KHzCompression mode : LossyStream size : 296 MiB (3%)Title : AC3 5.1 @ 384 kbps - ДублированныйLanguage : RussianDefault : YesForced : No

Audio #2ID : 3Format : AC-3Format/Info : Audio Coding 3Mode extension : CM (complete main)Format settings, Endianness : BigCodec ID : A_AC3Duration : 1h 47mnBit rate mode : ConstantBit rate : 640 KbpsChannel(s) : 6 channelsChannel positions : Front: L C R, Side: L R, LFESampling rate : 48.0 KHzCompression mode : LossyStream size : 494 MiB (4%)Default : NoForced : No

Text #1ID : 4Format : UTF-8Codec ID : S_TEXT/UTF8Codec ID/Info : UTF-8 Plain TextLanguage : RussianDefault : NoForced : No

Text #2ID : 5Format : UTF-8Codec ID : S_TEXT/UTF8Codec ID/Info : UTF-8 Plain TextLanguage : EnglishDefault : NoForced : No

Menu #100:00:00.000 : en:00:00:00.00000:04:36.083 : en:00:04:36.08300:07:32.208 : en:00:07:32.20800:13:53.417 : en:00:13:53.41700:18:54.042 : en:00:18:54.04200:24:03.542 : en:00:24:03.54200:28:36.958 : en:00:28:36.95800:34:46.417 : en:00:34:46.41700:39:20.333 : en:00:39:20.33300:45:37.667 : en:00:45:37.66700:53:21.250 : en:00:53:21.25000:59:53.000 : en:00:59:53.00001:08:46.417 : en:01:08:46.41701:14:05.292 : en:01:14:05.29201:20:54.958 : en:01:20:54.95801:28:04.708 : en:01:28:04.70801:36:42.917 : en:01:36:42.91701:41:20.125 : en:01:41:20.125

Menu #200:00:00.000 : en:00:00:00.00000:04:36.083 : en:00:04:36.08300:07:32.208 : en:00:07:32.20800:13:53.417 : en:00:13:53.41700:18:54.042 : en:00:18:54.04200:24:03.542 : en:00:24:03.54200:28:36.958 : en:00:28:36.95800:34:46.417 : en:00:34:46.41700:39:20.333 : en:00:39:20.33300:45:37.667 : en:00:45:37.66700:53:21.250 : en:00:53:21.25000:59:53.000 : en:00:59:53.00001:08:46.417 : en:01:08:46.41701:14:05.292 : en:01:14:05.29201:20:54.958 : en:01:20:54.95801:28:04.708 : en:01:28:04.70801:36:42.917 : en:01:36:42.91701:41:20.125 : en:01:41:20.125

piratbit.ru

Скачать фильм Пандорум через торрент в хорошем качестве бесплатно 720p by msltel] DUB

ОбщееУникальный идентификатор : 227584872411272945505616803855145735183 (0xAB374087707F67518939F1D422F1940F)Полное имя : D:\Video\Пандорум.2009.Open Matte.BDRip.720p by msltel.mkvФормат : MatroskaВерсия формата : Version 4 / Version 2Размер файла : 6,49 ГбайтПродолжительность : 1 ч. 47 м.Общий поток : 8611 Кбит/секНазвание фильма : Rip by msltelДата кодирования : UTC 2017-03-14 02:41:34Программа кодирования : mkvmerge v8.2.0 ('World of Adventure') 64bitБиблиотека кодирования : libebml v1.3.1 + libmatroska v1.4.2

ВидеоИдентификатор : 1Формат : AVCФормат/Информация : Advanced Video CodecПрофиль формата : [email protected]Параметр CABAC формата : ДаПараметр ReFrames формата : 9 кадровИдентификатор кодека : V_MPEG4/ISO/AVCПродолжительность : 1 ч. 47 м.Битрейт : 6378 Кбит/секШирина : 1280 пикселейВысота : 720 пикселейСоотношение сторон : 16:9Режим частоты кадров : ПостоянныйЧастота кадров : 24,000 кадра/секЦветовое пространство : YUVСубдискретизация насыщенности : 4:2:0Битовая глубина : 8 битТип развёртки : ПрогрессивнаяБит/(Пиксели*Кадры) : 0.288Размер потока : 4,80 Гбайт (74%)Библиотека кодирования : x264 core 146 r2538 121396cНастройки программы : cabac=1 / ref=9 / deblock=1:-1:-1 / analyse=0x3:0x113 / me=umh / subme=11 / psy=1 / psy_rd=1.00:0.15 / mixed_ref=1 / me_range=32 / chroma_me=1 / trellis=2 / 8x8dct=1 / cqm=0 / deadzone=21,11 / fast_pskip=0 / chroma_qp_offset=-3 / threads=6 / lookahead_threads=1 / sliced_threads=0 / nr=0 / decimate=1 / interlaced=0 / bluray_compat=0 / constrained_intra=0 / bframes=8 / b_pyramid=2 / b_adapt=2 / b_bias=0 / direct=1 / weightb=1 / open_gop=0 / weightp=2 / keyint=230 / keyint_min=23 / scenecut=40 / intra_refresh=0 / rc_lookahead=40 / rc=crf / mbtree=0 / crf=18.5 / qcomp=0.60 / qpmin=0 / qpmax=69 / qpstep=4 / vbv_maxrate=62500 / vbv_bufsize=78125 / crf_max=0.0 / nal_hrd=none / filler=0 / ip_ratio=1.40 / pb_ratio=1.30 / aq=1:1.00Язык : EnglishDefault : ДаForced : Нет

Аудио #1Идентификатор : 2Формат : AC-3Формат/Информация : Audio Coding 3Параметр Endianness формата : BigИдентификатор кодека : A_AC3Продолжительность : 1 ч. 47 м.Вид битрейта : ПостоянныйБитрейт : 448 Кбит/секКаналы : 6 каналовРасположение каналов : Front: L C R, Side: L R, LFEЧастота : 48,0 КГцЧастота кадров : 31,250 кадров/сек (1536 spf)Битовая глубина : 16 битМетод сжатия : С потерямиРазмер потока : 346 Мбайт (5%)Заголовок : DUB (С.Р.И.)Язык : RussianServiceKind/String : Complete MainDefault : ДаForced : Нет

Аудио #2Идентификатор : 3Формат : AC-3Формат/Информация : Audio Coding 3Параметр Endianness формата : BigИдентификатор кодека : A_AC3Продолжительность : 1 ч. 47 м.Вид битрейта : ПостоянныйБитрейт : 448 Кбит/секКаналы : 6 каналовРасположение каналов : Front: L C R, Side: L R, LFEЧастота : 48,0 КГцЧастота кадров : 31,250 кадров/сек (1536 spf)Битовая глубина : 16 битМетод сжатия : С потерямиРазмер потока : 346 Мбайт (5%)Заголовок : AVO (Андрей Гаврилов)Язык : RussianServiceKind/String : Complete MainDefault : НетForced : Нет

Аудио #3Идентификатор : 4Формат : AC-3Формат/Информация : Audio Coding 3Параметр Endianness формата : BigИдентификатор кодека : A_AC3Продолжительность : 1 ч. 47 м.Вид битрейта : ПостоянныйБитрейт : 448 Кбит/секКаналы : 6 каналовРасположение каналов : Front: L C R, Side: L R, LFEЧастота : 48,0 КГцЧастота кадров : 31,250 кадров/сек (1536 spf)Битовая глубина : 16 битМетод сжатия : С потерямиРазмер потока : 346 Мбайт (5%)Заголовок : AVO (Юрий Живов)Язык : RussianServiceKind/String : Complete MainDefault : НетForced : Нет

Аудио #4Идентификатор : 5Формат : AC-3Формат/Информация : Audio Coding 3Параметр Endianness формата : BigИдентификатор кодека : A_AC3Продолжительность : 1 ч. 47 м.Вид битрейта : ПостоянныйБитрейт : 448 Кбит/секКаналы : 6 каналовРасположение каналов : Front: L C R, Side: L R, LFEЧастота : 48,0 КГцЧастота кадров : 31,250 кадров/сек (1536 spf)Битовая глубина : 16 битМетод сжатия : С потерямиРазмер потока : 346 Мбайт (5%)Заголовок : AVO (Юрий Немахов)Язык : RussianServiceKind/String : Complete MainDefault : НетForced : Нет

Аудио #5Идентификатор : 6Формат : AC-3Формат/Информация : Audio Coding 3Параметр Endianness формата : BigИдентификатор кодека : A_AC3Продолжительность : 1 ч. 47 м.Вид битрейта : ПостоянныйБитрейт : 448 Кбит/секКаналы : 6 каналовРасположение каналов : Front: L C R, Side: L R, LFEЧастота : 48,0 КГцЧастота кадров : 31,250 кадров/сек (1536 spf)Битовая глубина : 16 битМетод сжатия : С потерямиРазмер потока : 346 Мбайт (5%)Заголовок : originalЯзык : EnglishServiceKind/String : Complete MainDefault : НетForced : Нет

Текст #1Идентификатор : 7Формат : UTF-8Идентификатор кодека : S_TEXT/UTF8Идентификатор кодека/Информация : UTF-8 Plain TextПродолжительность : 1 ч. 40 м.Битрейт : 69 бит/секElementCount : 1033Размер потока : 51,3 Кбайт (0%)Заголовок : русскиеЯзык : RussianDefault : НетForced : Нет

Текст #2Идентификатор : 8Формат : UTF-8Идентификатор кодека : S_TEXT/UTF8Идентификатор кодека/Информация : UTF-8 Plain TextПродолжительность : 1 ч. 37 м.Битрейт : 43 бит/секElementCount : 1026Размер потока : 30,8 Кбайт (0%)Заголовок : английскиеЯзык : EnglishDefault : НетForced : Нет

Меню00:00:00.000 : de:00:00:00.00000:03:14.041 : de:00:03:14.04100:13:48.416 : de:00:13:48.41600:23:32.708 : de:00:23:32.70800:35:16.208 : de:00:35:16.20800:45:18.125 : de:00:45:18.12500:53:42.083 : de:00:53:42.08301:00:16.541 : de:01:00:16.54101:13:05.541 : de:01:13:05.54101:27:00.458 : de:01:27:00.458

piratbit.ru


Смотрите также