Скачать через торрент диктатор в хорошем качестве


Скачать фильм Диктатор (2012) через торрент

gig-torrent.net

23 января 2016 14:41 Диктатор / The Dictator (2012) BDRip от HQCLUB | Расширенная версия .torrent   [Информация о файле (нажмите для просмотра)] Перевод: Авторский одноголосыйАнтон КиреевСубтитры: Русские(forced,full-voronine,Гоблин), английские(forced,full)Формат: AVIКачество: BDRip (источник: Видео: 720x304 (2.37:1), 23.976 fps, XviD build 65 ~1814 kbps avg, 0.34 bit/pixelАудио #1: 48 kHz, AC3 Dolby Digital, 3/2 (L,C,R,l,r) + LFE ch, ~448 kbps|Russian|Аудио #2: 48 kHz, AC3 Dolby Digital, 3/2 (L,C,R,l,r) + LFE ch, ~448 kbps|Russian|Аудио #3: 48 kHz, AC3 Dolby Digital, 3/2 (L,C,R,l,r) + LFE ch, ~448 kbps|English|Аудио #4: 48 kHz, AC3 Dolby Digital, 3/2 (L,C,R,l,r) + LFE ch, ~448 kbps|Russian| 2,18 Gb 254 7
23 января 2016 14:41 Диктатор / The Dictator (2012) BDRip 720p от Leonardo and Scarabey | Театральная версия | Лицензия .torrent   [Информация о файле (нажмите для просмотра)] Перевод: Профессиональный (полное дублирование) ЛицензияФормат: MKVВидео кодек: MPEG-4 AVC Аудио кодек: AC3Видео: AVC, 1280x534 (2.40:1) at 23.976 fps, AVC at 2056 kbps avg, 0.125 bit/pixelАудио: Russian; AC3; 640 Kbps; CBR; 6 ch; 16 bit; DUBСубтитры: русские 1,6 Gb 260 2
23 января 2016 14:41 Диктатор / The Dictator (2012) BDRip-AVC | L1 | UNRATED .torrent   [Информация о файле (нажмите для просмотра)] Перевод: Любительский (одноголосый закадровый) |А. Киреев по переводу Гоблина, без цензурыКачество: BDRip-AVC |Source: The Dictator 2012 Extended Cut 1080p Blu-ray Remux AVC DTS-HD MA 5.1 - KRaLiMaRKoВидео: x264, 1152x480 (2.40:1), 2648 kbps, 23.976 fpsЗвук: Russian; AC-3, 448 kbps, 3/2 (L,C,R,l,r) + LFE ch, 48.0 kHz, CBRСубтитры: русские (форсированные + Гоблин + Voronine), английские (форсированные + полные) 2,45 Gb 91 3
23 января 2016 14:41 Диктатор / The Dictator (2012) BDRip-AVC | iPad | Театральная версия .torrent   [Информация о файле (нажмите для просмотра)] Перевод: ДублированныйКодек: H.264/AVCФормат: MP4 (контейнер m4v)Видео: 1024x432 (2.35:1) at 23.976 fps, AVC at 1720 kbps avg, 0.162 bit/pixelЗвук: Русский: 48 kHz, AAC, 2ch, 128 kbps | ДублированныйЗвук: Английский: 48 kHz, AAC, 2ch, 128 Kbps | Оригинал 1,19 Gb 25 4
23 января 2016 14:41 Диктатор / The Dictator (2012) BDRip от Rulya74 | Театральная версия | Лицензия .torrent   [Информация о файле (нажмите для просмотра)] Перевод: Дубляж (Русский)+ Дубляж (Украинский) + Оригинал (Английский)Кодек: XVIDКачество: BDRipВидео: 720х304 (2,35:1), 23.976 fps, 2157 kbps, 0.411 bit/pixelАудио#1: 48 kHz, AC3 5.1, 448.00 kbps / Дубляж (Русский)Аудио#2: 48 kHz, AC3 5.1 448.00 kbps / Дубляж (Украинский)Аудио#3: 48 kHz, AC3 5.1, 448.00 kbps / Оригинал (Английский) 2,05 Gb 85 2
23 января 2016 14:41 Диктатор / The Dictator (2012) HDRip от Scarabey | Театральная версия | Лицензия .torrent   [Информация о файле (нажмите для просмотра)] Перевод: Профессиональный (дублированный) - ЛицензияВидео: 720x304 (2.37:1), 23.976 fps, XviD build 50 ~2042 kbps avg, 0.39 bit/pixelАудио: 48 kHz, AC3 Dolby Digital, 3/2 (L,C,R,l,r) + LFE ch, ~448.00 kbps avg 1,45 Gb 103 2
23 января 2016 14:41 Диктатор / The Dictator (2012) HDRip от Scarabey | Театральная версия | Лицензия .torrent   [Информация о файле (нажмите для просмотра)] Перевод: Профессиональный (дублированный) - ЛицензияВидео: 688x288 (2.39:1), 23.976 fps, XviD build 50 ~1106 kbps avg, 0.23 bit/pixelАудио: 48 kHz, MPEG Layer 3, 2 ch, ~128.00 kbps avg 741,11 Mb 20 1
23 января 2016 14:41 Диктатор / The Dictator (2012) BDRip 1080p от NOLIMITS-TEAM .torrent   [Информация о файле (нажмите для просмотра)] Перевод: Русский дублированныйКачество: BDRip 1080p (исходник Blu-ray Disc)Видео: 1920x800, 6878 Кбит/сек, 23.976 кадр/сек, AVC, x264, 2.40, 0.187 Бит/(Пиксели*Кадры)Аудио: AC-3, 640 Кбит/сек, 6 канала(ов), 48,0 КГц 4,37 Gb 76 7
23 января 2016 14:41 Диктатор / The Dictator (2012) BDRip от HQ-ViDEO | Theatrical Cut .torrent   [Информация о файле (нажмите для просмотра)] Перевод: Русский дублированный + Оригинальная дорожка Субтитры: Русские (полные, форсированные), Украинские (полные, форсированные), АнглийскиеКачество: BDRipКодек: XviD, build Видео: 720 x 304, 2.35:1; 23.976 fps; ~ Аудио #1: 48 kHz, AC3 Dolby Digital, 3/2 (L,C,R,l,r) + LFE ch, ~Аудио #2: 48 kHz, AC3Dolby Digital, 3/2 (L,C,R,l,r) + LFE ch, ~Аудио #3: 48 kHz, AC3 Dolby Digital, 3/2 (L,C,R,l,r) + LFE ch, ~ 1,68 Gb 8 3
23 января 2016 14:41 Диктатор / The Dictator (2012) BDRip 1080p от FREEISLAND | Театральная версия / Theatrical Cut .torrent   [Информация о файле (нажмите для просмотра)] Перевод: Профессиональный (дублированный)Кодек: H.264Качество: BDRip 1080pВидео: AVC, 1920x800 (2.40:1), 12769 kbps, 23,976 fps, 0,347 bppЗвук: русский / AC3 / 5.1 / 48 kHz / 448 kbps / 16 bit английский / AC3 / 5.1 / 48 kHz / 448 kbps / 16 bitСубтитры: Russian, english (srt) 7,95 Gb 34 2
23 января 2016 14:41 Диктатор / The Dictator (2012) BDRip от HQCLUB | Театральная версия .torrent   [Информация о файле (нажмите для просмотра)] Перевод: Профессиональный (полное дублирование)Субтитры: Русские, украинские, английские (внешние *.srt)Формат: AVIКачество: BDRip (источник:Видео: 720x304 (2.37:1), 23.976 fps, XviD build 65 ~2040 kbps avg, 0.39 bit/pixelАудио #1: 48 kHz, AC3 Dolby Digital, 3/2 (L,C,R,l,r) + LFE ch, ~448.00 kbps avgАудио #2: 48 kHz, AC3 Dolby Digital, 3/2 (L,C,R,l,r) + LFE ch, ~448.00 kbps avg|UKR|Аудио #3: 48 kHz, AC3 Dolby Digital, 3/2 (L,C,R,l,r) + LFE ch, ~448.00 kbps avg|ENG| 1,45 Gb 328 13
23 января 2016 14:41 Диктатор / The Dictator (2012) BDRip-AVC от Rulya74 | Театральная версия | Лицензия .torrent   [Информация о файле (нажмите для просмотра)] Перевод: Дубляж (Русский) + Дубляж (Украинский) | ЛицензияКодек: h.264Качество: BDRip-AVCВидео: 720x304 (2,35:1), 23.976 fps, 916 kbps, 0.175 bit/pixelАудио#1: 48 kHz, MP3 2/0 ch, 128.00 kbps (Русский)Аудио#2: 48 kHz, MP3 2/0 ch, 128.00 kbps (Украинский)Видео: Идентификатор : 1 Формат : AVC Формат/Информация : Advanced Video Codec Профиль формата : [email protected] Параметр CABAC формата : Да Параметр ReFrames формата : 5 кадров Идентификатор кодека : V_MPEG4/ISO/AVC Продолжительность : 1 ч. 23 м. Битрейт : 916 Кбит/сек Ширина : 720 пикселей Высота : 304 пикселя Соотношение сторон : 2,35:1 Частота кадров : 23,976 кадра/сек Цветовое пространство : YUV Субдискретизация насыщенности : 4:2:0 Битовая глубина : 8 бит Тип развёртки : Прогрессивная Бит/(Пиксели*Кадры) : 0.175 Размер потока : 533 Мбайт (76%) Библиотека кодирования : x264 core 125 r2208 d9d2288 Настройки программы : cabac=1 / ref=5 / deblock=1:-1:-1 / analyse=0x3:0x133 / me=umh / subme=9 / psy=1 / psy_rd=1.00:0.07 / mixed_ref=1 / me_range=32 / chroma_me=1 / trellis=2 / 8x8dct=1 / cqm=0 / deadzone=21,11 / fast_pskip=0 / chroma_qp_offset=-3 / threads=16 / lookahead_threads=2 / sliced_threads=0 / nr=0 / decimate=1 / interlaced=0 / bluray_compat=0 / constrained_intra=0 / bframes=5 / b_pyramid=2 / b_adapt=2 / b_bias=0 / direct=3 / weightb=1 / open_gop=0 / weightp=2 / keyint=240 / keyint_min=22 / scenecut=40 / intra_refresh=0 / rc=2pass / mbtree=0 / bitrate=916 / ratetol=1.0 / qcomp=0.60 / qpmin=10 / qpmax=51 / qpstep=4 / cplxblur=20.0 / qblur=0.5 / ip_ratio=1.40 / pb_ratio=1.30 / aq=1:1.00 Default : Да Forced : Нет Аудио #1: Идентификатор : 2 Формат : MPEG Audio Версия формата : Version 1 Профиль формата : Layer 3 Режим : Joint stereo Идентификатор кодека : A_MPEG/L3 Идентификатор кодека/Подсказка : MP3 Продолжительность : 1 ч. 23 м. Вид битрейта : Постоянный Битрейт : 128 Кбит/сек Каналы : 2 канала Частота : 48,0 КГц Метод сжатия : С потерями Размер потока : 76,3 Мбайт (11%) Заголовок : Дубляж Библиотека кодирования : LAME3.99r Настройки программы : -m j -V 4 -q 2 -lowpass 17 -b 128 Язык : Russian Default : Да Forced : Нет Аудио #2: Идентификатор : 3 Формат : MPEG Audio Версия формата : Version 1 Профиль формата : Layer 3 Режим : Joint stereo Расширение режима : MS Stereo Идентификатор кодека : A_MPEG/L3 Идентификатор кодека/Подсказка : MP3 Продолжительность : 1 ч. 23 м. Вид битрейта : Постоянный Битрейт : 128 Кбит/сек Каналы : 2 канала Частота : 48,0 КГц Метод сжатия : С потерями Размер потока : 76,3 Мбайт (11%) Заголовок : Дубляж Библиотека кодирования : LAME3.99r Настройки программы : -m j -V 4 -q 2 -lowpass 17 -b 128 Язык : Ukrainian Default : Нет Forced : Нет Скриншоты 699,57 Mb 23 1
23 января 2016 14:41 Диктатор / The Dictator (2012) BDRemux 1080p от LongTom .torrent   [Информация о файле (нажмите для просмотра)] Перевод: Профессиональный (дублированный) |Лицензия|Субтитры: ОтсутствуютКонтейнер: MKVВидео: MPEG-4 AVC, 1920x1080, 1.78:1, ~32600 kbps, 23,976 fpsАудио 1: 48 kHz, Ac3, 3/2 (L,C,R,l,r) + LFE ch, ~448.00 kbps avg |Dub - RusАудио 3: 48 kHz, Dts, 3/2 (L,C,R,l,r) + LFE ch, ~1510.00 kbps avg |Original 18,69 Gb 8 5
23 января 2016 14:41 Диктатор / The Dictator (2012) BDRip-AVC от potroks | Театральная версия | Лицензия .torrent   [Информация о файле (нажмите для просмотра)] Перевод: Профессиональный (полное дублирование)Субтитры: АнглийскиеКачество: BDRip-AVC [Blu-Ray Remux]Формат: MKVВидео: H.264, 1056x440 (2,40:1), 23,976 кадр/сек, 2063 Кбит/сек, 0.185 bit/pixelАудио#1: 48 kHz, AC3 Dolby Digital, 3/2 (L,C,R,l,r) + LFE ch, ~448.00 kbps avg |RUSАудио#2: 48 kHz, AC3 Dolby Digital, 3/2 (L,C,R,l,r) + LFE ch, ~448.00 kbps avg |ENG (narod.ru)Видео: Идентификатор : 1 Формат : AVC Формат/Информация : Advanced Video Codec Профиль формата : [email protected].1 Параметр CABAC формата : Да Параметр ReFrames формата : 9 кадров Идентификатор кодека : V_MPEG4/ISO/AVC Продолжительность : 1 ч. 23 м. Битрейт : 2063 Кбит/сек Ширина : 1056 пикселей Высота : 440 пикселей Соотношение сторон : 2,40:1 Соотношение сторон в оригинале : 2,40:1 Режим частоты кадров : Переменный Частота кадров : 23,976 кадра/сек Цветовое пространство : YUV Субдискретизация насыщенности : 4:2:0 Битовая глубина : 8 бит Тип развёртки : Прогрессивная Бит/(Пиксели*Кадры) : 0.185 Размер потока : 1,17 Гбайт (80%) Заголовок : Diktator.2012.BDRip.x264.potroks Библиотека кодирования : x264 core 116 r2019M 9cc407d Настройки программы : cabac=1 / ref=10 / deblock=1:-2:-2 / analyse=0x3:0x133 / me=umh / subme=10 / psy=1 / psy_rd=1.00:0.00 / mixed_ref=1 / me_range=32 / chroma_me=1 / trellis=2 / 8x8dct=1 / cqm=0 / deadzone=21,11 / fast_pskip=0 / chroma_qp_offset=-2 / threads=8 / sliced_threads=0 / nr=0 / decimate=1 / interlaced=0 / bluray_compat=0 / constrained_intra=0 / bframes=11 / b_pyramid=1 / b_adapt=2 / b_bias=0 / direct=3 / weightb=1 / open_gop=0 / weightp=2 / keyint=240 / keyint_min=23 / scenecut=40 / intra_refresh=0 / rc_lookahead=100 / rc=2pass / mbtree=1 / bitrate=2063 / ratetol=1.0 / qcomp=0.70 / qpmin=10 / qpmax=51 / qpstep=4 / cplxblur=20.0 / qblur=0.5 / vbv_maxrate=20000 / vbv_bufsize=20000 / nal_hrd=none / ip_ratio=1.35 / aq=1:1.00 Язык : English Default : Да Forced : НетАудио: Идентификатор : 2 Формат : AC-3 Формат/Информация : Audio Coding 3 Расширение режима : CM (complete main) Идентификатор кодека : A_AC3 Продолжительность : 1 ч. 23 м. Вид битрейта : Постоянный Битрейт : 448 Кбит/сек Каналы : 6 каналов Расположение каналов : Front: L C R, Side: L R, LFE Частота : 48,0 КГц Битовая глубина : 16 бит Метод сжатия : С потерями Размер потока : 267 Мбайт (18%) Заголовок : Dub Язык : Russian Default : Да Forced : Да 1,46 Gb 20 2
23 января 2016 14:41 Диктатор / The Dictator (2012) DVD5 от New-Team | сжатый | Театральная версия .torrent   [Информация о файле (нажмите для просмотра)] Перевод: Профессиональный (дублированный) лицензияВидео: PAL 16:9 (720x576) VBR ~ 6498 kbps, Auto LetterboxedАудио 1: 48 kHz, AC3, 6 ch, 448 kbps, русскийАудио 2: 48 kHz, AC3, 6 ch, 448 kbps, английскийАудио 3: 48 kHz, AC3, 6 ch, 448 kbps, украинский 4,33 Gb 2 2
23 января 2016 14:41 Диктатор / The Dictator (2012) BDRip 720p | Театральная версия | Лицензия .torrent   [Информация о файле (нажмите для просмотра)] Формат: MKV (H.264)Качество: BDRip 720pВидео: 8741 kb/s, 1280x536Аудио: Russian / English: AC3, 448 kb/s (6 ch) 5,61 Gb 53 9
23 января 2016 14:41 Диктатор / The Dictator (2012) BDRip 720p от DHT-Movies | Театральная версия .torrent   [Информация о файле (нажмите для просмотра)] Перевод: Дубляж (Профессиональный[Лицензия]) + Оригинал (Английский)Качество: BDRip720pФормат: MKVВидео: 1280x536/2.40:1/23.976 fps/4 022 Kbps/0.245 Bits/(Pixel*Frame) 2,86 Gb 44 8
23 января 2016 14:41 Диктатор / The Dictator (2012) HDRip | Театральная версия | Лицензия .torrent   [Информация о файле (нажмите для просмотра)] Формат: AVI (XviD)Качество: HDRipВидео: 1107 kb/s, 688x288Аудио: MP3, 128 kb/s (2 ch) 741,11 Mb 31 3
23 января 2016 14:41 Диктатор / The Dictator (2012) HDRip | Лицензия | Театральная версия .torrent   [Информация о файле (нажмите для просмотра)] Перевод: Дублированный [Лицензия]Кодек: XviDКачество: HDRipВидео: 1896 Кбит/с, 720x304Звук: AC3, 448 kb/s, 6 ch 1,45 Gb 427 15
23 января 2016 14:41 Диктатор / The Dictator (2012) HDRip от Scarabey | Расширенная версия / Unrated .torrent   [Информация о файле (нажмите для просмотра)] Перевод: Любительский одноголосый [А. Киреев по переводу Дмитрия Goblin'a Пучкова]Видео: 720x304 (2.37:1), 23.976 fps, XviD build 50 ~1643 kbps avg, 0.31 bit/pixelАудио: 48 kHz, AC3 Dolby Digital, 3/2 (L,C,R,l,r) + LFE ch, ~448.00 kbps avg 1,45 Gb 51 1
23 января 2016 14:41 Диктатор / The Dictator (2012) HDRip от Scarabey | Расширенная версия / Unrated .torrent   [Информация о файле (нажмите для просмотра)] Перевод: Любительский одноголосый [А. Киреев по переводу Дмитрия Goblin'a Пучкова]Видео: 688x288 (2.39:1), 23.976 fps, XviD build 50 ~912 kbps avg, 0.19 bit/pixelАудио: 48 kHz, MPEG Layer 3, 2 ch, ~128.00 kbps avg 741,89 Mb 13 6

Скачать фильм Диктатор через торрент в хорошем качестве бесплатно BDRip-AVC

piratbit.ru

Размер: 1.46 GB | Добавлен: 5 лет 1 мес. назад | Торрент скачан:787 раз
Реклама Дарим 3000 рублей за регистрацию, не упусти свой шанс получить шикарный бонус!!!

26-08-2012 20:03 Диктатор Скачать торрент  

Диктатор The DictatorГод выпуска: 2012Производство: США / Four by Two Films, Kanzaman S.A.Жанр: КомедияПродолжительность: 01:23:18Перевод: Профессиональный (полное дублирование) лицензияСубтитры: АнглийскиеРежиссер:

Ларри Чарльз

В ролях:

Саша Барон Коэн, Анна Фэрис, Бен Кингсли, Саид Бадрия, Мишель Берг, Роки Ситрон, Liam Campora, Аасиф Мандви, Ризван Манжи, Рик Чэмберс

Описание:

Героическая история диктатора, который рискует своей жизнью, чтобы ни в коем случае не допустить демократию в свою столь любовно угнетаемую страну.

Бюджет: $65 000 000 Качество: BDRip-AVC [Blu-Ray Remux]Формат: MKVВидео: H.264, 1056x440 (2,40:1), 23,976 кадр/сек, 2063 Кбит/сек, 0.185 bit/pixelАудио#1: 48 kHz, AC3 Dolby Digital, 3/2 (L,C,R,l,r) + LFE ch, ~448.00 kbps avg | RUSАудио#2: 48 kHz, AC3 Dolby Digital, 3/2 (L,C,R,l,r) + LFE ch, ~448.00 kbps avg | ENG (narod.ru)

ОбщееУникальный идентификатор : 237221340050467770393622989672446048341 (0xB2772B10CC9C01DF9F6D2AB305A63855)Полное имя : Diktator.2012.BDRip.x264.potroks.mkvФормат : MatroskaВерсия формата : Version 2Размер файла : 1,46 ГбайтПродолжительность : 1 ч. 23 м.Общий поток : 2513 Кбит/секНазвание фильма : -=POTROKS=-Дата кодирования : UTC 2012-08-16 06:15:02Программа кодирования : mkvmerge v5.6.0 ('Kenya Kane') built on May 27 2012 16:44:04Библиотека кодирования : libebml v1.2.3 + libmatroska v1.3.0ВидеоИдентификатор : 1Формат : AVCФормат/Информация : Advanced Video CodecПрофиль формата : [email protected]Параметр CABAC формата : ДаПараметр ReFrames формата : 9 кадровИдентификатор кодека : V_MPEG4/ISO/AVCПродолжительность : 1 ч. 23 м.Битрейт : 2063 Кбит/секШирина : 1056 пикселейВысота : 440 пикселейСоотношение сторон : 2,40:1Соотношение сторон в оригинале : 2,40:1Режим частоты кадров : ПеременныйЧастота кадров : 23,976 кадра/секЦветовое пространство : YUVСубдискретизация насыщенности : 4:2:0Битовая глубина : 8 битТип развёртки : ПрогрессивнаяБит/(Пиксели*Кадры) : 0.185Размер потока : 1,17 Гбайт (80%)Заголовок : Diktator.2012.BDRip.x264.potroksБиблиотека кодирования : x264 core 116 r2019M 9cc407dНастройки программы : cabac=1 / ref=10 / deblock=1:-2:-2 / analyse=0x3:0x133 / me=umh / subme=10 / psy=1 / psy_rd=1.00:0.00 / mixed_ref=1 / me_range=32 / chroma_me=1 / trellis=2 / 8x8dct=1 / cqm=0 / deadzone=21,11 / fast_pskip=0 / chroma_qp_offset=-2 / threads=8 / sliced_threads=0 / nr=0 / decimate=1 / interlaced=0 / bluray_compat=0 / constrained_intra=0 / bframes=11 / b_pyramid=1 / b_adapt=2 / b_bias=0 / direct=3 / weightb=1 / open_gop=0 / weightp=2 / keyint=240 / keyint_min=23 / scenecut=40 / intra_refresh=0 / rc_lookahead=100 / rc=2pass / mbtree=1 / bitrate=2063 / ratetol=1.0 / qcomp=0.70 / qpmin=10 / qpmax=51 / qpstep=4 / cplxblur=20.0 / qblur=0.5 / vbv_maxrate=20000 / vbv_bufsize=20000 / nal_hrd=none / ip_ratio=1.35 / aq=1:1.00Язык : EnglishDefault : ДаForced : НетАудиоИдентификатор : 2Формат : AC-3Формат/Информация : Audio Coding 3Расширение режима : CM (complete main)Идентификатор кодека : A_AC3Продолжительность : 1 ч. 23 м.Вид битрейта : ПостоянныйБитрейт : 448 Кбит/секКаналы : 6 каналовРасположение каналов : Front: L C R, Side: L R, LFEЧастота : 48,0 КГцБитовая глубина : 16 битМетод сжатия : С потерямиРазмер потока : 267 Мбайт (18%)Заголовок : DubЯзык : RussianDefault : ДаForced : ДаТекстИдентификатор : 3Формат : UTF-8Идентификатор кодека : S_TEXT/UTF8Идентификатор кодека/Информация : UTF-8 Plain TextЯзык : EnglishDefault : НетForced : Нет

Скачать Диктатор через торрент http://pic.pb.wtf/images/1/7k2mopuj7a.png Скачать фильм Диктатор через торрент бесплантно в хорошем качестве Описание: Героическая история диктатора, который рискует своей жизнью, чтобы ни в коем случае не допустить демократию в свою столь любовно ... 2012-08-26 20:03 9.6 10 9

Loading...

Loading...

Последний раз редактировалось: Night speed (2012-08-27 08:50), всего редактировалось 5 раз(а)

Рекламный пират

26-08-2012 20:03 Диктатор Скачать торрент  

Оформление в процессе!

26-08-2012 20:15 Диктатор Скачать торрент  

==Black<!>KOTik== писал(а):

Оформление в процессе!

Сначала оформляем потом заливаем.Пока устное предупреждения.

26-08-2012 20:15 Диктатор Скачать торрент  

Vetаl, Хорошо. Оформил!

26-08-2012 20:26 Диктатор Скачать торрент  

==Black<!>KOTik== писал(а):

Диктатор / The Dictator (Ларри Чарльз) [2012 г., Комедия, BDRip-AVC, Профессиональный (полное дублирование)] *Лицензия от potroks*

Убрать

==Black<!>KOTik== писал(а):

Диктатор / The Dictator (Ларри Чарльз) [2012 г., Комедия, BDRip-AVC, Профессиональный (полное дублирование (Лицензия)]

==Black<!>KOTik== писал(а):

Продолжительность: 01:33:47

исправляем.

Убираем из оформления красный цвет ,его можно использовать только для важной информации.

26-08-2012 20:31 Диктатор Скачать торрент  

Vetаl, Исправил, Красным выделил важную информацию. Продолжительность исправил.

Дорогой пользователь! Огромная просьба, поблагодарите релизера, оцените раздачу и оставьте свои комментарий, если Вы скачали Диктатор через торрент бесплатно! Внесите свою лепту в развитие PiratBit!

Комментировать посты могут только пользователи прошедшие не сложную регистрацию

Диктатор через торрент Скачать бесплатно Диктатор Диктатор скачать торрент Диктатор смотреть онлайн Cкачать фильм Диктатор бесплатно Диктатор скачать торрент в хорошем качестве Диктатор смотреть онлайн бесплатно в хорошем качестве

Вы не можете начинать темыВы не можете отвечать на сообщенияВы не можете редактировать свои сообщенияВы не можете удалять свои сообщенияВы не можете голосовать в опросахВы не можете прикреплять файлы к сообщениямВы можете скачивать файлы

Скачать фильм Диктатор через торрент в хорошем качестве бесплатно HDRip (Ларри Чарльз) [ комедия

piratbit.ru

Размер: 1.45 GB &verbar; Добавлен: 5 лет 1 мес. назад &verbar; Торрент скачан:5025 раз
Реклама Дарим 3000 рублей за регистрацию, не упусти свой шанс получить шикарный бонус!!!

26-08-2012 14:12 Диктатор Скачать торрент  

Диктатор / The Dictator

  • Год выпуска: 2012
  • Страна: США
  • Жанр: комедия
  • Продолжительность: 01:23
  • Перевод: Дублированный (Лицензия)
  • Режиссер:Ларри Чарльз
  • В ролях: Саша Барон Коэн, Анна Фэрис, Бен Кингсли, Джейсон Манцукас, Саид Бадрия, Мишель Берг, Роки Ситрон, Лиам Кампора, Аасиф Мандви, Ризван Манжи, Василий Дахненко, Никита Прозоровский, Илья Бледный, Диомид Виноградов, Михаил Тихонов
  • Описание: Героическая история диктатора, который рискует своей жизнью, чтобы ни в коем случае не допустить демократию в свою столь любовно угнетаемую страну.
  • Качество: HDRip [Рип с BDRip 720p]
  • Формат: AVI
  • Видео кодек: XviD
  • Аудио кодек: AC3
  • Видео: 720x304 , 23.976 fps, XviD build 50 ~2041 kbps avg, 0.39 bit/pixel
  • Аудио#1: 48 kHz, AC3 Dolby Digital, 3/2 (L,C,R,l,r) + LFE ch, ~448 kbps ОбщееПолное имя : D:\Торенты\Dictator.2012.D.HDRip.aviФормат : AVIФормат/Информация : Audio Video InterleaveРазмер файла : 1,45 ГбайтПродолжительность : 1 ч. 23 м.Общий поток : 2498 Кбит/секПрограмма кодирования : VirtualDubMod 1.5.10.3 | www.virtualdub-fr.org || (build 2550/release)Библиотека кодирования : VirtualDubMod build 2550/release

    ВидеоИдентификатор : 0Формат : MPEG-4 VisualПрофиль формата : Advanced [email protected]Параметр BVOP формата : 1Параметр QPel формата : НетПараметр GMC формата : Без точки переходаПараметр матрицы формата : ВыборочнаяИдентификатор кодека : XVIDИдентификатор кодека/Подсказка : XviDПродолжительность : 1 ч. 23 м.Битрейт : 2041 Кбит/секШирина : 720 пикселейВысота : 304 пикселяСоотношение сторон : 2,35:1Частота кадров : 23,976 кадра/секЦветовое пространство : YUVСубдискретизация насыщенности : 4:2:0Битовая глубина : 8 битТип развёртки : ПрогрессивнаяМетод сжатия : С потерямиБит/(Пиксели*Кадры) : 0.389Размер потока : 1,19 Гбайт (82%)Библиотека кодирования : XviD 1.2.1 (UTC 2008-12-04)

    АудиоИдентификатор : 1Формат : AC-3Формат/Информация : Audio Coding 3Расширение режима : CM (complete main)Идентификатор кодека : 2000Продолжительность : 1 ч. 23 м.Вид битрейта : ПостоянныйБитрейт : 448 Кбит/секКаналы : 6 каналовРасположение каналов : Front: L C R, Side: L R, LFEЧастота : 48,0 КГцБитовая глубина : 16 битМетод сжатия : С потерямиЗадержка видео : 2 мс.Размер потока : 267 Мбайт (18%)Выравнивание : Разделение по промежуткамПродолжительность промежутка : 42 мс. (1,00 видеокадр)Время предзагрузки промежутка : 500 мс.

  • © Оформление by Vetal Скачать Диктатор через торрент http://i42.fastpic.ru/big/2012/0826/2e/96d966fb6fe5eb6a9b533e850de53c2e.png Скачать фильм Диктатор через торрент бесплантно в хорошем качестве Описание: Героическая история диктатора, который рискует своей жизнью, чтобы ни в коем случае не допустить демократию в свою столь любовно ... 2012-08-26 14:12 9.3 10 14

    Loading...

    Loading...

    Последний раз редактировалось: Ворон (2012-08-26 17:16), всего редактировалось 2 раз(а)

    Рекламный пират

    26-08-2012 14:41 Диктатор Скачать торрент  

    26-08-2012 15:30 Диктатор Скачать торрент  

    С того фильма!

    27-08-2012 16:45 Диктатор Скачать торрент  

    Спасибо Vetаl посмотрим, что за фильм

    28-08-2012 16:51 Диктатор Скачать торрент  

    дистрофия еще та

    28-08-2012 18:30 Диктатор Скачать торрент  

    да нормальный, разок посмотреть можно. Там сабы есть?

    28-08-2012 18:30 Диктатор Скачать торрент  

    Фильмец зачотный! Смотрел в кинотеарте.

    28-08-2012 22:17 Диктатор Скачать торрент  

    KUSTELLO писал(а):

    Посмотрим

    походу америкосы даже таким способом начинают навязывать своё мировозрение на мир типа шуточное оправдание на действия против Ливии , Ирака, короче мусульман. Фуфло фильм , ужасно тупое!

    29-08-2012 15:16 Диктатор Скачать торрент  

    Pекламный агент PB

    29-08-2012 17:01 Диктатор Скачать торрент  

    ништяк фильмец

    30-08-2012 04:58 Диктатор Скачать торрент  

    Очередной раз америкосы доказали,что их тупость и убогость не знает границ...

    30-08-2012 05:06 Диктатор Скачать торрент  

    30-08-2012 12:22 Диктатор Скачать торрент  

    Брееееед!

    30-08-2012 18:31 Диктатор Скачать торрент  

    31-08-2012 07:43 Диктатор Скачать торрент  

    01-09-2012 06:24 Диктатор Скачать торрент  

    Too KUSTELLOПолностью с тобой согласен Вспомните фильм борат "борат" тот же стёб Самые лучшие комедии выпускал СССР,а французы продолжают выпускать США делают почти все фуфло плюс с уклоном на их мол "крутость" Ничтожные они люди)))Простите за флуд

    02-09-2012 09:42 Диктатор Скачать торрент  

    прикольная киношка

    Pекламный агент PB

    03-09-2012 08:41 Диктатор Скачать торрент  

    заценим, автору спасибо.

    03-09-2012 12:17 Диктатор Скачать торрент  

    Бредятина полная!

    03-09-2012 19:32 Диктатор Скачать торрент  

    Из всего фильма понравилось только 2 момента - сюжет с вертолетом и речь о диктатуре в америке, остальное - полный отстой....

    07-12-2012 18:48 Диктатор Скачать торрент  

    ну так поугорать можно))

    01-04-2013 11:51 Диктатор Скачать торрент  

    Наслышан!!!????Хочется посмотреть самому!!!!! Всем спасибо, за высказанное свое мнение!!!!! Респект автору за работу!!!!! :good:

    01-04-2013 19:09 Диктатор Скачать торрент  

    28-11-2014 10:31 Диктатор Скачать торрент  

    Ребят прибавьте скорости !!!

    Дорогой пользователь! Огромная просьба, поблагодарите релизера, оцените раздачу и оставьте свои комментарий, если Вы скачали Диктатор через торрент бесплатно! Внесите свою лепту в развитие PiratBit!

    Комментировать посты могут только пользователи прошедшие не сложную регистрацию

    Диктатор через торрент Скачать бесплатно Диктатор Диктатор скачать торрент Диктатор смотреть онлайн Cкачать фильм Диктатор бесплатно Диктатор скачать торрент в хорошем качестве Диктатор смотреть онлайн бесплатно в хорошем качестве

    Вы не можете начинать темыВы не можете отвечать на сообщенияВы не можете редактировать свои сообщенияВы не можете удалять свои сообщенияВы не можете голосовать в опросахВы не можете прикреплять файлы к сообщениямВы можете скачивать файлы

    Скачать фильм Диктатор через торрент в хорошем качестве бесплатно HDRip-AVC

    ОбщееУникальный идентификатор : 228013766541961177088902875423299439377 (0xAB89DAA46F2E7E488431116792318B11)Полное имя : D:HDThe.Dictator.UNRATED.2012.HDRip.KireevDiktator_2012_HDRip_AVC_VO_Kiriev_ENG.mkvФормат : MatroskaРазмер файла : 1,46 ГбайтПродолжительность : 1 ч. 38 м.Общий поток : 2111 Кбит/секДата кодирования : UTC 2012-08-17 17:22:18Программа кодирования : mkvmerge v4.7.0 ('Just Like You Imagined') сборка от Apr 21 2011 01:13:14Библиотека кодирования : libebml v1.2.0 + libmatroska v1.1.0

    ВидеоИдентификатор : 1Формат : AVCФормат/Информация : Advanced Video CodecПрофиль формата : [email protected]Параметр CABAC формата : ДаПараметр ReFrames формата : 10 кадрыИдентификатор кодека : V_MPEG4/ISO/AVCПродолжительность : 1 ч. 38 м.Битрейт : 1728 Кбит/секШирина : 1184 пикс.Высота : 496 пикс.Соотношение сторон : 2,35:1Частота кадров : 23,976 кадр/секЦветовое пространство : YUVПодвыборка цветности : 4:2:0Битовая глубина : 8 битТип развёртки : ПрогрессивнаяБит/(Пиксели*Кадры) : 0.123Размер потока : 1,16 Гбайт (80%)Библиотека кодирования : x264 core 125 r2200 999b753Настройки программы : cabac=1 / ref=10 / deblock=1:-2:-1 / analyse=0x3:0x113 / me=umh / subme=10 / psy=1 / psy_rd=1.00:0.00 / mixed_ref=1 / me_range=32 / chroma_me=1 / trellis=2 / 8x8dct=1 / cqm=0 / deadzone=21,11 / fast_pskip=0 / chroma_qp_offset=-2 / threads=3 / lookahead_threads=1 / sliced_threads=0 / nr=0 / decimate=0 / interlaced=0 / bluray_compat=0 / constrained_intra=0 / bframes=12 / b_pyramid=2 / b_adapt=2 / b_bias=0 / direct=3 / weightb=1 / open_gop=0 / weightp=2 / keyint=240 / keyint_min=23 / scenecut=40 / intra_refresh=0 / rc_lookahead=40 / rc=2pass / mbtree=1 / bitrate=1728 / ratetol=1.0 / qcomp=0.60 / qpmin=10 / qpmax=51 / qpstep=4 / cplxblur=20.0 / qblur=0.5 / vbv_maxrate=50000 / vbv_bufsize=50000 / nal_hrd=none / ip_ratio=1.40 / aq=1:1.00Язык : English

    Аудио #1Идентификатор : 9Формат : AC-3Формат/Информация : Audio Coding 3Расширение режима : CM (complete main)Идентификатор кодека : A_AC3Продолжительность : 1 ч. 38 м.Вид битрейта : ПостоянныйБитрейт : 192 Кбит/секКанал(ы) : 2 канала(ов)Расположение каналов : Front: L RЧастота : 48,0 КГцБитовая глубина : 16 битМетод сжатия : С потерямиРазмер потока : 136 Мбайт (9%)Заголовок : А. Киреев по переводу Goblin'aЯзык : Russian

    Аудио #2Идентификатор : 10Формат : AC-3Формат/Информация : Audio Coding 3Расширение режима : CM (complete main)Идентификатор кодека : A_AC3Продолжительность : 1 ч. 38 м.Вид битрейта : ПостоянныйБитрейт : 192 Кбит/секКанал(ы) : 2 канала(ов)Расположение каналов : Front: L RЧастота : 48,0 КГцБитовая глубина : 16 битМетод сжатия : С потерямиРазмер потока : 136 Мбайт (9%)Заголовок : OriginalЯзык : English

    Текст #1Идентификатор : 2Формат : UTF-8Идентификатор кодека : S_TEXT/UTF8Идентификатор кодека/Информация : UTF-8 Plain TextЗаголовок : v1 NotЯзык : Russian

    Текст #2Идентификатор : 3Формат : UTF-8Идентификатор кодека : S_TEXT/UTF8Идентификатор кодека/Информация : UTF-8 Plain TextЗаголовок : v2 VoronineЯзык : Russian

    Текст #3Идентификатор : 4Формат : UTF-8Идентификатор кодека : S_TEXT/UTF8Идентификатор кодека/Информация : UTF-8 Plain TextЗаголовок : ForcedЯзык : Russian

    Текст #4Идентификатор : 5Формат : UTF-8Идентификатор кодека : S_TEXT/UTF8Идентификатор кодека/Информация : UTF-8 Plain TextЗаголовок : AMIABLEЯзык : Russian

    Текст #5Идентификатор : 6Формат : UTF-8Идентификатор кодека : S_TEXT/UTF8Идентификатор кодека/Информация : UTF-8 Plain TextЗаголовок : ForcedЯзык : English

    Текст #6Идентификатор : 7Формат : UTF-8Идентификатор кодека : S_TEXT/UTF8Идентификатор кодека/Информация : UTF-8 Plain TextЗаголовок : Eng subЯзык : English

    Текст #7Идентификатор : 8Формат : UTF-8Идентификатор кодека : S_TEXT/UTF8Идентификатор кодека/Информация : UTF-8 Plain TextЗаголовок : GoblinЯзык : Russian

    Меню00:00:00.000 : en:00:00:00.00000:09:41.039 : en:00:09:41.03900:14:36.876 : en:00:14:36.87600:22:35.771 : en:00:22:35.77100:27:06.208 : en:00:27:06.20800:32:42.377 : en:00:32:42.37700:38:42.278 : en:00:38:42.27800:45:23.554 : en:00:45:23.55400:49:48.277 : en:00:49:48.27701:01:58.464 : en:01:01:58.46401:09:39.759 : en:01:09:39.75901:16:51.732 : en:01:16:51.73201:21:51.907 : en:01:21:51.90701:28:48.656 : en:01:28:48.656

    piratbit.ru

    Скачать фильм Диктатор через торрент в хорошем качестве бесплатно 720

    ОбщееУникальный идентификатор : 198407392498736040730023188530658389688 (0x9543DFB3FC4977629BB638B0D0E9AEB8)Полное имя : D:\Diktator.2012.D.BDRip.720p.mkvФормат : MatroskaВерсия формата : Version 2Размер файла : 5,61 ГбайтПродолжительность : 1 ч. 23 м.Общий поток : 9637 Кбит/секДата кодирования : UTC 2012-08-14 01:49:36Программа кодирования : mkvmerge v5.5.0 ('Healer') built on Apr 6 2012 21:43:24Библиотека кодирования : libebml v1.2.3 + libmatroska v1.3.0

    ВидеоИдентификатор : 1Формат : AVCФормат/Информация : Advanced Video CodecПрофиль формата : [email protected]Параметр CABAC формата : ДаПараметр ReFrames формата : 8 кадровРежим смешивания : Header strippingИдентификатор кодека : V_MPEG4/ISO/AVCПродолжительность : 1 ч. 23 м.Битрейт : 8741 Кбит/секШирина : 1280 пикселейВысота : 536 пикселейСоотношение сторон : 2,40:1Частота кадров : 23,976 кадра/секЦветовое пространство : YUVСубдискретизация насыщенности : 4:2:0Битовая глубина : 8 битТип развёртки : ПрогрессивнаяБит/(Пиксели*Кадры) : 0.531Размер потока : 4,97 Гбайт (89%)Библиотека кодирования : x264 core 125 r2200 999b753Настройки программы : cabac=1 / ref=8 / deblock=1:-1:-1 / analyse=0x3:0x133 / me=umh / subme=7 / psy=1 / psy_rd=1.00:0.10 / mixed_ref=1 / me_range=16 / chroma_me=1 / trellis=2 / 8x8dct=1 / cqm=0 / deadzone=21,11 / fast_pskip=0 / chroma_qp_offset=-3 / threads=12 / lookahead_threads=2 / sliced_threads=0 / nr=0 / decimate=1 / interlaced=0 / bluray_compat=0 / constrained_intra=0 / bframes=4 / b_pyramid=2 / b_adapt=2 / b_bias=0 / direct=3 / weightb=1 / open_gop=0 / weightp=2 / keyint=250 / keyint_min=23 / scenecut=40 / intra_refresh=0 / rc_lookahead=50 / rc=2pass / mbtree=1 / bitrate=8741 / ratetol=1.0 / qcomp=0.60 / qpmin=0 / qpmax=69 / qpstep=4 / cplxblur=20.0 / qblur=0.5 / ip_ratio=1.40 / aq=1:1.00Default : ДаForced : Нет

    Аудио #1Идентификатор : 2Формат : AC-3Формат/Информация : Audio Coding 3Расширение режима : CM (complete main)Параметр Endianness формата : BigИдентификатор кодека : A_AC3Продолжительность : 1 ч. 23 м.Вид битрейта : ПостоянныйБитрейт : 448 Кбит/секКаналы : 6 каналовРасположение каналов : Front: L C R, Side: L R, LFEЧастота : 48,0 КГцБитовая глубина : 16 битМетод сжатия : С потерямиРазмер потока : 267 Мбайт (5%)Язык : RussianDefault : ДаForced : Нет

    Аудио #2Идентификатор : 3Формат : AC-3Формат/Информация : Audio Coding 3Расширение режима : CM (complete main)Параметр Endianness формата : BigРежим смешивания : Header strippingИдентификатор кодека : A_AC3Продолжительность : 1 ч. 23 м.Вид битрейта : ПостоянныйБитрейт : 448 Кбит/секКаналы : 6 каналовРасположение каналов : Front: L C R, Side: L R, LFEЧастота : 48,0 КГцБитовая глубина : 16 битМетод сжатия : С потерямиРазмер потока : 267 Мбайт (5%)Default : НетForced : Нет

    piratbit.ru

    dictator торрент скачать | Скачать торренты в BDRip и HDRip качестве

    The Dictator (2012) 720p BrRip x264 - 650MB - YIFY651.64 MBThe Dictator (2012) 1080p BrRip x264 - 1.5GB - YIFY1.51 GBCharlie Chaplin The Great Dictator (1940)720p BrRip 650MB YIFY651.51 MBДиктатор / The Dictator (2012) HDRip | Лицензия | Театральная версия1.45 GBДиктатор / The Dictator (Ларри Чарльз / Larry Charles) [2012, США, комедия, BDRip-AVC] [Theatrical Cut] Dub + Sub Rus, Eng1.46 GBДиктатор (Расширенная версия) / The Dictator (UNRATED) (2012) BDRip от HQCLUB2.18 GBДиктатор / The Dictator (Ларри Чарльз / Larry Charles) [2012, США, комедия, BDRip] [UNRATED] 2xVO (Киреев, Карповский) + Original Eng + subs (full pack)2.18 GBPBS Frontline North Korea s Deadly Dictator 720p x264 AAC HDTV M1.25 GBThe Dictator's Handbook - Why Bad Behavior Is Almost Always Good1.41 MBДиктатор / The Dictator (2012) [H.264] BDRip1.46 GBThe Great Dictator (1940) BDRip 1080p multisub HighCode3.21 GBДиктатор / The Dictator (Ларри Чарльз / Larry Charles) [2012 г., комедия, BDRip] [Unrated Cut] 2xAVO + Original (Eng)2.18 GBShane Peterson - Daily Dictation Members / Шейн Питерсон - Курс американского-английского языка [2013, MPEG4, PDF, ENG]3.1 GBДиктатор / The Dictator / 2012 / ДБ / HDRip / 1.37 ГБ1.37 GBДиктатор / The Dictator (Ларри Чарльз / Larry Charles) [2012, США, Комедия, BDRip 1080p] Dub (Rus, Ukr) + Original Eng + Subs (Rus, Ukr, Eng)8.94 GBVICE.S05E23.Dawn.of.a.Dictator.REPACK.720p.AMZN.WEBRip.DDP2.0.x2642.55 MBThe Dictator 2012 1080p BrRip x264 Dual-Audio [English-Hindi] Ni1.69 GBВеликий диктатор / The Great Dictator (Чарльз Чаплин / Charles Chaplin) [1940, США, драма, комедия, военный, BDRip 720p] [Criterion Collection] MVO + Sub (3x Rus, Eng) + Original Eng6.73 GBДиктатор (Расширенная версия) / The Dictator (UNRATED) / 2012 / АП (Киреев, Карповский), СТ / BDRip / 2.18 ГБ2.18 GBThe Dictator 2012 Extended Blu-ray 1080p x264 DTS-HighCode6.78 GBДиктатор / The Dictator (2012) HDRip от Scarabey | Театральная версия | Лицензия741.11 MBДиктатор / The Dictator (2012) BDRip 1080p от FREEISLAND | Театральная версия / Theatrical Cut7.95 GBВеликий диктатор / The Great Dictator (Чарльз Чаплин / Charles Chaplin) [1940, США, комедия, драма, военный, HDRip] MVO1.46 GBДиктатор / The Dictator (2012) HDRip от Scarabey | Театральная версия | Лицензия1.45 GBThe Dictator's Handbook - Bruce Bueno de Mesquita645.61 MBДиктатор / The Dictator (Ларри Чарльз / Larry Charles) [2012, США, Four by Two Films / Kanzaman S.A., Комедия, HDRip] Dub1.45 GBДиктатор / The Dictator (Ларри Чарльз / Larry Charles) [2012, США, комедия, BDRip 720p] [UNRATED] VO (Киреев по переводу Гоблина) + Original + Sub (Rus, Eng)5.19 GBCoach Shane - Daily English Dictation / Видеоуроки (обновлено 11.05.2013) [2011-2013, MP4, ENG]14.53 GBДиктатор / The Dictator (2012) BDRip 1080p от NOLIMITS-TEAM4.37 GBThe Great Dictator 1940 1080p - Ozlem1.87 GB(Indie Pop/ Electronic) Soko - My Dreams Dictate My Reality - 2015, MP3, 320 kbps109.2 MBДиктатор / The Dictator / 2012 / ДБ, СТ / BDRip (1080p) / 8.43 ГБ8.43 GBДиктатор / The Dictator (Ларри Чарльз / Larry Charles) [2012, США, комедия, BDRip-AVC] [UNRATED] VO (Киреев) + Original (Eng) + Sub (Rus, Eng)2.45 GBДиктатор / The Dictator (2012) BDRip 720p от DHT-Movies | Театральная версия2.86 GBДиктатор / The Dictator (2012) BDRip-AVC от Rulya74 | Театральная версия | Лицензия699.57 MBДиктатор / The Dictator (2012) BDRip-AVC | L1 | UNRATED2.45 GBВеликий диктатор / The Great Dictator (Чарльз Чаплин / Charles Chaplin) [1940, США, комедия, драма, военный, BDRip 1080p] MVO + Sub Rus, Eng + Original Eng10.01 GBBringing_Down_A_Dictator_Nonviolent_Resistance447.03 MBВеликий диктатор / The Great Dictator (Чарльз Чаплин / Charles Chaplin) [1940, США, комедия, драма, военный, HDRip] MVO745 MBДиктатор / The Dictator (2012) BDRip от HQ-ViDEO | Theatrical Cut1.68 GBДиктатор / The Dictator (Ларри Чарльз / Larry Charles) [2012, США, Комедия, BDRemux 1080p] [Театральная версия / Theatrical Cut] Dub R5 (Rus, Ukr) + Original (Eng) + Sub (Rus, Ukr, Eng)20.67 GBВеликий диктатор / The Great Dictator (Чарльз Чаплин / Charles Chaplin) [1940 г., сатирическая политическая комедия, BDRip] MVO + Original + Sub (Rus, Eng)2.18 GBНовые времена. Великий диктатор. Золотая лихорадка. Огни рампы. Чарли: жизнь и искусство Чарльза Чаплина / Modern Times. The Great Dictator. The Gold Rush. Limelight. Charlie: the Life and Art of Charles Chaplin [7 х DVD9 + 2 x DVD5]53.12 GBThe Dictator (2012) 720p BRRip Nl-ENG subs DutchReleaseTeam1.22 GBДиктатор / The Dictator (Ларри Чарльз / Larry Charles) [2012, США, Комедия, HDRip] [Театральная версия / Theatrical Cut] Dub741.1 MBДиктатор / The Dictator (Ларри Чарльз / Larry Charles) [2012, США, комедия, BDRip 1080p] [UNRATED] VO (Киреев) + Original Eng + Sub (Rus, Eng)7.72 GBВеликий диктатор / The Great Dictator (Чарльз Чаплин / Charles Chaplin) [1940, США, драма, комедия, военный, BDRemux 1080p] [Criterion Collection] MVO + Sub (3x Rus, Eng) + Original Eng24.08 GBДиктатор / The Dictator (Ларри Чарльз / Larry Charles) [2012, США, комедия, BDRip 720p] [Theatrical Cut] Dub + Ukr (Dub) + Original + Subs (Rus, Eng, Ukr)3.34 GBDictator (2016) Telugu DVDScr x264 - Exclusive683.43 MBFrontline.S35E19.North.Koreas.Deadly.Dictator.HDTV.x264-W4F276.85 MB tparser.org – торрент поисковик по популярным торрент трекерам. Находить и скачивать новинки кино в HDRip и BDRip качестве через tparser намного проще! Добро пожаловать на крупный торрент архив фильмов и игр tparser.org. Вам больше не придется искать торренты на основных торрент трекерах в поисках нужной раздачи – мы предлагаем найти и скачать фильмы в хорошем качестве прямо на нашем сайте. Наш сервис поиска торрентов в реальном времени собирает информацию с крупных торрент трекеров и сортирует полученные результаты в удобную таблицу. Скачивайте торренты без ограничений и без всяких регистраций на трекерах. Начните скачивать торрент dictator прямо сейчас!

    tparser.org


    Смотрите также