Скачать через торрент без чувств в хорошем качестве


Скачать фильм Без чувств (1998) через торрент

gig-torrent.net

19 марта 2016 08:04 Без чувств / Senseless (1998) HDRip-AVC | P .torrent   [Информация о файле (нажмите для просмотра)] Перевод: Профессиональный (многоголосый, закадровый)Кодек: H.264Качество: HDRip-AVC [BDRip 720p]Видео: 768x432 (16:9), 23,976 fps, ~1044 kbps avg, 0.131 bit/pixelЗвук: 48 / 24 kHz, AAC-HE, 2 ch, ~72.00 kbps avg 746,26 Mb 37 2
19 марта 2016 08:04 Без чувств / Senseless (1998) HDRip от Scarabey | P .torrent   [Информация о файле (нажмите для просмотра)] Перевод: Профессиональный (многоголосый, закадровый)Видео: 656x368 (1.78:1), 23.976 fps, XviD build 73 ~977 kbps avg, 0.17 bit/pixelАудио: 48 kHz, MPEG Layer 3, 2 ch, ~128.00 kbps avg 744,63 Mb 7 3
19 марта 2016 08:04 Без чувств / Senseless (1998) HDRip от Scarabey | СТС .torrent   [Информация о файле (нажмите для просмотра)] Перевод: Профессиональный (многоголосый, закадровый) - "СТС" Видео: 688x384 (1.79:1), 23.976 fps, XviD build 73 ~2015 kbps avg, 0.32 bit/pixelАудио: 48 kHz, AC3 Dolby Digital, 2/0 (L,R) ch, ~192 kbps 1,45 Gb 103 7
19 марта 2016 08:04 Без чувств / Senseless (1998) HDRip от WazZzup | СТС .torrent   [Информация о файле (нажмите для просмотра)] Перевод: Профессиональный (многоголосый, закадровый) - СТСКодек: XviDКачество: HDRipВидео: 656x368 (1.78:1), 23.976 fps, XviD build 50 ~1038 kbps avg, 0.18 bit/pixelЗвук: 48 kHz, MPEG Layer 3, 2 ch, ~128.00 kbps avgСубтитры: Отсутствуют 785,31 Mb 3 3
19 марта 2016 08:04 Без чувств / Senseless (1998) BDRip 1080p от 0ptimus | P2, P, A .torrent   [Информация о файле (нажмите для просмотра)] Перевод: Профессиональный (двухголосый закадровый), профессиональный (многоголосый закадровый), авторский (одноголосый закадровый)Кодек: h.264Качество: BDRip (1080p) (источник: Diablo / BD-Remux / 1080p)Видео: 14.1 Мбит/с, 1920x1080, 23.976 кадр/сЗвук: • №1: Русский (AC3, 6 ch, 384 Кбит/с) / Профессиональный двухголосый [R5] • №2: Русский (AC3, 2 ch, 192 Кбит/с) / Профессиональный многоголосый [СТС] • №3: Русский (DTS, 2 ch, 768 Кбит/с) / Авторский одноголосый [Павел Санаев] • №4: Русский (AC3, 2 ch, 192 Кбит/с) / Авторский одноголосый [Павел Санаев] • №5: Украинский (AC3, 2 ch, 192 Кбит/с) / Профессиональный многоголосый • №6: Английский (DTS, 2 ch, 1536 Кбит/с) (BD) • №7: Английский (AC3, 6 ch, 384 Кбит/с) (DVD)Субтитры: Русские, английскиеВидео: Идентификатор : 1 Формат : AVC Формат/Информация : Advanced Video Codec Профиль формата : [email protected] Параметр CABAC формата : Да Параметр ReFrames формата : 4 кадра Идентификатор кодека : V_MPEG4/ISO/AVC Продолжительность : 1 ч. 33 м. Битрейт : 14,1 Мбит/сек Ширина : 1920 пикселей Высота : 1080 пикселей Соотношение сторон : 16:9 Частота кадров : 23,976 кадра/сек Цветовое пространство : YUV Субдискретизация насыщенности : 4:2:0 Битовая глубина : 8 бит Тип развёртки : Прогрессивная Бит/(Пиксели*Кадры) : 0.283 Размер потока : 8,96 Гбайт (78%) Заголовок : Rip by 0ptimus Библиотека кодирования : x264 core 132 r2310 76a5c3a Настройки программы : cabac=1 / ref=4 / deblock=1:-3:-3 / analyse=0x3:0x113 / me=umh / subme=11 / psy=1 / psy_rd=1.00:0.20 / mixed_ref=1 / me_range=32 / chroma_me=1 / trellis=2 / 8x8dct=1 / cqm=0 / deadzone=21,11 / fast_pskip=0 / chroma_qp_offset=-3 / threads=4 / lookahead_threads=1 / sliced_threads=0 / nr=0 / decimate=0 / interlaced=0 / bluray_compat=0 / constrained_intra=0 / bframes=9 / b_pyramid=2 / b_adapt=2 / b_bias=0 / direct=3 / weightb=1 / open_gop=0 / weightp=2 / keyint=240 / keyint_min=23 / scenecut=40 / intra_refresh=0 / rc_lookahead=40 / rc=2pass / mbtree=0 / bitrate=14076 / ratetol=1.0 / qcomp=0.60 / qpmin=0 / qpmax=69 / qpstep=4 / cplxblur=20.0 / qblur=0.5 / vbv_maxrate=50000 / vbv_bufsize=62500 / nal_hrd=none / ip_ratio=1.40 / pb_ratio=1.30 / aq=1:1.00 Язык : EnglishАудио #1: Идентификатор : 2 Формат : AC-3 Формат/Информация : Audio Coding 3 Расширение режима : CM (complete main) Идентификатор кодека : A_AC3 Продолжительность : 1 ч. 33 м. Вид битрейта : Постоянный Битрейт : 384 Кбит/сек Каналы : 6 каналов Расположение каналов : Front: L C R, Side: L R, LFE Частота : 48,0 КГц Битовая глубина : 16 бит Метод сжатия : С потерями Размер потока : 256 Мбайт (2%) Заголовок : Двухголосый закадровый [R5] AC3 5.1 384 kbps Язык : RussianАудио #2: Идентификатор : 3 Формат : AC-3 Формат/Информация : Audio Coding 3 Расширение режима : CM (complete main) Идентификатор кодека : A_AC3 Продолжительность : 1 ч. 33 м. Вид битрейта : Постоянный Битрейт : 192 Кбит/сек Каналы : 2 канала Расположение каналов : Front: L R Частота : 48,0 КГц Битовая глубина : 16 бит Метод сжатия : С потерями Размер потока : 128 Мбайт (1%) Заголовок : Многоголосый закадровый [CTC] AC3 2.0 192 kbps Язык : RussianАудио #3: Идентификатор : 4 Формат : DTS Формат/Информация : Digital Theater Systems Идентификатор кодека : A_DTS Продолжительность : 1 ч. 33 м. Вид битрейта : Постоянный Битрейт : 755 Кбит/сек Каналы : 2 канала Расположение каналов : Front: L R Частота : 48,0 КГц Битовая глубина : 24 бит Метод сжатия : С потерями Размер потока : 504 Мбайт (4%) Заголовок : Авторский [Павел Санаев] DTS 2.0 768 kbps Язык : RussianАудио #4: Идентификатор : 5 Формат : AC-3 Формат/Информация : Audio Coding 3 Расширение режима : CM (complete main) Идентификатор кодека : A_AC3 Продолжительность : 1 ч. 33 м. Вид битрейта : Постоянный Битрейт : 192 Кбит/сек Каналы : 2 канала Расположение каналов : Front: L R Частота : 48,0 КГц Битовая глубина : 16 бит Метод сжатия : С потерями Размер потока : 128 Мбайт (1%) Заголовок : Авторский [Павел Санаев] AC3 2.0 192 kbps Язык : RussianАудио #5: Идентификатор : 6 Формат : AC-3 Формат/Информация : Audio Coding 3 Расширение режима : CM (complete main) Идентификатор кодека : A_AC3 Продолжительность : 1 ч. 33 м. Вид битрейта : Постоянный Битрейт : 192 Кбит/сек Каналы : 2 канала Расположение каналов : Front: L R Частота : 48,0 КГц Битовая глубина : 16 бит Метод сжатия : С потерями Размер потока : 128 Мбайт (1%) Заголовок : Многоголосый закадровый Язык : UkrainianАудио #6: Идентификатор : 7 Формат : DTS Формат/Информация : Digital Theater Systems Идентификатор кодека : A_DTS Продолжительность : 1 ч. 33 м. Вид битрейта : Постоянный Битрейт : 1510 Кбит/сек Каналы : 2 канала Расположение каналов : Front: L R Частота : 48,0 КГц Битовая глубина : 24 бит Метод сжатия : С потерями Размер потока : 1008 Мбайт (9%) Заголовок : [from BD] DTS 2.0 1536 kbps Язык : EnglishАудио #7: Идентификатор : 8 Формат : AC-3 Формат/Информация : Audio Coding 3 Расширение режима : CM (complete main) Идентификатор кодека : A_AC3 Продолжительность : 1 ч. 33 м. Вид битрейта : Постоянный Битрейт : 384 Кбит/сек Каналы : 6 каналов Расположение каналов : Front: L C R, Side: L R, LFE Частота : 48,0 КГц Битовая глубина : 16 бит Метод сжатия : С потерями Размер потока : 256 Мбайт (2%) Заголовок : [from DVD] AC3 5.1 384 kbps Язык : English 11,54 Gb 4 3
19 марта 2016 08:04 Без чувств / Senseless (1998) BDRip-AVC от 0ptimus | P2, P, A .torrent   [Информация о файле (нажмите для просмотра)] Перевод: Профессиональный (двухголосый закадровый), профессиональный (многоголосый закадровый), авторский (одноголосый закадровый)Кодек: h.264Качество: BDRip-AVC (источник: Diablo / BD-Remux / 1080p)Видео: 3138 Кбит/с, 1024x576, 23.976 кадр/сЗвук: • №1: Русский (AC3, 6 ch, 384 Кбит/с) / Профессиональный двухголосый [R5] • №2: Русский (AC3, 2 ch, 192 Кбит/с) / Профессиональный многоголосый [СТС] • №3: Русский (AC3, 2 ch, 192 Кбит/с) / Авторский одноголосый [Павел Санаев] • №4: Украинский (AC3, 2 ch, 192 Кбит/с) / Профессиональный многоголосый • №5: Английский (AC3, 2 ch, 192 Кбит/с)Субтитры: Русские, английскиеВидео: Идентификатор : 1 Формат : AVC Формат/Информация : Advanced Video Codec Профиль формата : [email protected] Параметр CABAC формата : Да Параметр ReFrames формата : 10 кадров Идентификатор кодека : V_MPEG4/ISO/AVC Продолжительность : 1 ч. 33 м. Битрейт : 3138 Кбит/сек Ширина : 1024 пикселя Высота : 576 пикселей Соотношение сторон : 16:9 Частота кадров : 23,976 кадра/сек Цветовое пространство : YUV Субдискретизация насыщенности : 4:2:0 Битовая глубина : 8 бит Тип развёртки : Прогрессивная Бит/(Пиксели*Кадры) : 0.222 Размер потока : 1,99 Гбайт (71%) Заголовок : Rip by 0ptimus Библиотека кодирования : x264 core 132 r2310 76a5c3a Настройки программы : cabac=1 / ref=10 / deblock=1:-3:-3 / analyse=0x3:0x113 / me=umh / subme=11 / psy=1 / psy_rd=1.00:0.20 / mixed_ref=1 / me_range=48 / chroma_me=1 / trellis=2 / 8x8dct=1 / cqm=0 / deadzone=21,11 / fast_pskip=0 / chroma_qp_offset=-3 / threads=4 / lookahead_threads=1 / sliced_threads=0 / nr=0 / decimate=0 / interlaced=0 / bluray_compat=0 / constrained_intra=0 / bframes=8 / b_pyramid=2 / b_adapt=2 / b_bias=0 / direct=3 / weightb=1 / open_gop=0 / weightp=2 / keyint=240 / keyint_min=23 / scenecut=40 / intra_refresh=0 / rc_lookahead=40 / rc=2pass / mbtree=0 / bitrate=3138 / ratetol=1.0 / qcomp=0.60 / qpmin=0 / qpmax=69 / qpstep=4 / cplxblur=20.0 / qblur=0.5 / vbv_maxrate=50000 / vbv_bufsize=50000 / nal_hrd=none / ip_ratio=1.40 / pb_ratio=1.30 / aq=1:1.00 Язык : EnglishАудио #1: Идентификатор : 2 Формат : AC-3 Формат/Информация : Audio Coding 3 Расширение режима : CM (complete main) Идентификатор кодека : A_AC3 Продолжительность : 1 ч. 33 м. Вид битрейта : Постоянный Битрейт : 384 Кбит/сек Каналы : 6 каналов Расположение каналов : Front: L C R, Side: L R, LFE Частота : 48,0 КГц Битовая глубина : 16 бит Метод сжатия : С потерями Размер потока : 256 Мбайт (9%) Заголовок : Двухголосый закадровый [R5] AC3 5.1 384 kbps Язык : RussianАудио #2: Идентификатор : 3 Формат : AC-3 Формат/Информация : Audio Coding 3 Расширение режима : CM (complete main) Идентификатор кодека : A_AC3 Продолжительность : 1 ч. 33 м. Вид битрейта : Постоянный Битрейт : 192 Кбит/сек Каналы : 2 канала Расположение каналов : Front: L R Частота : 48,0 КГц Битовая глубина : 16 бит Метод сжатия : С потерями Размер потока : 128 Мбайт (4%) Заголовок : Многоголосый закадровый [СТС] AC3 2.0 192 kbps Язык : RussianАудио #3: Идентификатор : 4 Формат : AC-3 Формат/Информация : Audio Coding 3 Расширение режима : CM (complete main) Идентификатор кодека : A_AC3 Продолжительность : 1 ч. 33 м. Вид битрейта : Постоянный Битрейт : 192 Кбит/сек Каналы : 2 канала Расположение каналов : Front: L R Частота : 48,0 КГц Битовая глубина : 16 бит Метод сжатия : С потерями Размер потока : 128 Мбайт (4%) Заголовок : Авторский [Павел Санаев] AC3 2.0 192 kbps Язык : RussianАудио #4: Идентификатор : 5 Формат : AC-3 Формат/Информация : Audio Coding 3 Расширение режима : CM (complete main) Идентификатор кодека : A_AC3 Продолжительность : 1 ч. 33 м. Вид битрейта : Постоянный Битрейт : 192 Кбит/сек Каналы : 2 канала Расположение каналов : Front: L R Частота : 48,0 КГц Битовая глубина : 16 бит Метод сжатия : С потерями Размер потока : 128 Мбайт (4%) Заголовок : Многоголосый закадровый AC3 2.0 192 kbps Язык : UkrainianАудио #5: Идентификатор : 6 Формат : AC-3 Формат/Информация : Audio Coding 3 Расширение режима : CM (complete main) Идентификатор кодека : A_AC3 Продолжительность : 1 ч. 33 м. Вид битрейта : Постоянный Битрейт : 192 Кбит/сек Каналы : 2 канала Расположение каналов : Front: L R Частота : 48,0 КГц Битовая глубина : 16 бит Метод сжатия : С потерями Размер потока : 128 Мбайт (4%) Заголовок : AC3 2.0 192 kbps Язык : English 2,8 Gb 6 3
19 марта 2016 08:04 Без чувств / Senseless (1998) BDRip 720p .torrent   [Информация о файле (нажмите для просмотра)] Перевод: Двухголосый закадровый, Многоголосый закадровый (2 вида), Одноголосый закадровыйКодек: x.264Качество: BDRip 720p (источник: Diablo / BD-Remux / 1080p)Видео: 1280x720, 8684 Kbps, 23.976 fpsЗвук: Аудио #1: AC3, 384 Kbps, 5.1 ch - Двухголосый закадровый (DVD-R5)Аудио #2: AC3, 192 Kbps, 2.0 ch - Многоголосый закадровый, (СТС)Аудио #3: DTS, 768 Kbps, 2.0 ch - Одноголосый закадровый, (П. Санаев)Аудио #4: AC3, 192 Kbps, 2.0 ch - Многоголосый закадровый, (Украинский)Аудио #5: AC3, 384 Kbps, 5.1 ch - Оригинальный, английский (DVD-R5)Аудио #6: DTS, 1509 Kbps, 2.0 ch - Оригинальный, английский (Bluray, dtshd core)Субтитры: Русские, Английские 7,9 Gb 10 2
19 марта 2016 08:04 Без чувств / Senseless (1998) BDRip-AVC .torrent   [Информация о файле (нажмите для просмотра)] Перевод: Профессиональный Двухголосый, закадровый (R50, Авторский Одноголосый, закадровый (П.Санаев) [мат]Качество: BDRip-AVC [Исх.BD-Remux.1080p.Kinozal.tv]Видео: H.264, 880x496 at 23.976 fps, MPEG-4 AVC, ~2703 kbps, 0.258 bit/pixelЗвук: 1: 48 kHz, AC3, 3/2 (L,C,R,l,r) + LFE ch, ~384 kbps (DVO, R5) 2: 48 kHz, AC3, 2/0 (L,R) ch, ~192 kbps (AVO, Санаев) 3: 48 kHz, AC3, 2/0 (L,R) ch, ~192 kbps (MVO СТС, отдельно) 4: 48 kHz, AC3, 2/0 (L,R) ch, ~192 kbps (Original, отдельно) 2,43 Gb 4 7
19 марта 2016 08:04 Без чувств / Senseless (1998) BDRip от HQCLUB .torrent   [Информация о файле (нажмите для просмотра)] Перевод: Профессиональный (многоголосый, закадровый) R5 +Профессиональный (многоголосый, закадровый) СТССубтитры: Русские, Английские (внешние srt*) (спасибо sociolog_melvas)Формат: AVIКачество: BDRip (источник: Diablo /BD-Remux / 1080p)Видео: 720x400 (1.80:1), 23,976 fps, XviD build 65 ~1830 kbps avg, 0.27 bit/pixelАудио #1: 48 kHz, AC3 Dolby Digital, 3/2 (L,C,R,l,r) + LFE ch, ~384.00 kbps avgАудио #2: 48 kHz, AC3 Dolby Digital, 2/0 (L,R), ~192.00 kbps avg(отдельно, http)Аудио #3: 48 kHz, AC3 Dolby Digital, 2/0 (L,R), ~192.00 kbps avg(отдельно, http)Аудио #4: 48 kHz, AC3 Dolby Digital, 2/0 (L,R), ~192.00 kbps avg(отдельно, http)Аудио #5: 48 kHz, AC3 Dolby Digital, 2/0 (L,R), ~192.00 kbps avg(отдельно, http) 1,45 Gb 8 8
19 марта 2016 08:03 Без чувств / Senseless (1996) DVD-9 .torrent   [Информация о файле (нажмите для просмотра)] Перевод: - Авторский (одноголосый) - Санаев - Профессиональный (многоголосый) - Оригинальная звуковая дорожка (Английский)Кодек: MPEG2Качество: DVD-9Видео: PAL, 16:9, (720x576), VBR, Auto Letterboxed, Формат: DVD VideoЗвук: Многоголосый 384 Kbps (Dolby AC3, 6 ch) English 384 Kbps (Dolby AC3, 6 ch) Санаев 384 Kbps (Dolby AC3, 6 ch)Субтитры: есть 6,38 Gb 3 5
19 марта 2016 08:03 Без чувств / Senseless (1998) DVDRip .torrent   [Информация о файле (нажмите для просмотра)] Перевод: Профессиональный (многоголосый, закадровый)Кодек: XviDКачество: DVDRipВидео: 640x352 (1.82:1), 23.976 fps, XviD MPEG-4 ~1028 kbps avg, 0.19 bit/pixelЗвук: 48 kHz, MPEG Layer 3, 2 ch, ~128.00 kbps avg 744,16 Mb 4 2

Скачать фильм Без чувств через торрент в хорошем качестве бесплатно 720p

ОбщееУникальный идентификатор : 206715789243598170874292232173419637436 (0x9B84034A04D61AB6B66C5207E8462ABC)Полное имя : F:Без чувств.1998.BDRip.720p.3xRUS.UKR.ENG.mkvФормат : MatroskaВерсия формата : Version 4 / Version 2Размер файла : 7,90 ГбайтПродолжительность : 1 ч. 33 м.Общий поток : 12,1 Мбит/секНазвание фильма : Без чувств / Senseless (1998) BDRip 720p Дата кодирования : UTC 2013-07-07 20:10:19Программа кодирования : mkvmerge v6.2.0 ('Promised Land') built on Apr 28 2013 12:22:01Библиотека кодирования : libebml v1.3.0 + libmatroska v1.4.0Attachment : Yes

ВидеоИдентификатор : 1Формат : AVCФормат/Информация : Advanced Video CodecПрофиль формата : [email protected]Параметр CABAC формата : ДаПараметр ReFrames формата : 9 кадровИдентификатор кодека : V_MPEG4/ISO/AVCПродолжительность : 1 ч. 33 м.Битрейт : 8684 Кбит/секШирина : 1280 пикселейВысота : 720 пикселейСоотношение сторон : 16:9Режим частоты кадров : ПостоянныйЧастота кадров : 23,976 кадра/секЦветовое пространство : YUVСубдискретизация насыщенности : 4:2:0Битовая глубина : 8 битТип развёртки : ПрогрессивнаяБит/(Пиксели*Кадры) : 0.393Размер потока : 5,50 Гбайт (70%)Заголовок : RG Torrents.ruБиблиотека кодирования : x264 core 133 r2334 a3ac64bНастройки программы : cabac=1 / ref=9 / deblock=1:-3:-3 / analyse=0x3:0x113 / me=umh / subme=10 / psy=1 / psy_rd=1.00:0.10 / mixed_ref=1 / me_range=32 / chroma_me=1 / trellis=2 / 8x8dct=1 / cqm=0 / deadzone=21,11 / fast_pskip=0 / chroma_qp_offset=-3 / threads=3 / lookahead_threads=1 / sliced_threads=0 / nr=0 / decimate=1 / interlaced=0 / bluray_compat=0 / constrained_intra=0 / bframes=6 / b_pyramid=2 / b_adapt=2 / b_bias=0 / direct=3 / weightb=1 / open_gop=0 / weightp=2 / keyint=230 / keyint_min=23 / scenecut=40 / intra_refresh=0 / rc_lookahead=60 / rc=2pass / mbtree=0 / bitrate=8684 / ratetol=1.0 / qcomp=0.60 / qpmin=0 / qpmax=69 / qpstep=4 / cplxblur=20.0 / qblur=0.5 / vbv_maxrate=50000 / vbv_bufsize=62500 / nal_hrd=none / ip_ratio=1.30 / pb_ratio=1.30 / aq=2:0.80Язык : EnglishDefault : ДаForced : Нет

Аудио #1Идентификатор : 2Формат : AC-3Формат/Информация : Audio Coding 3Расширение режима : CM (complete main)Параметр Endianness формата : BigИдентификатор кодека : A_AC3Продолжительность : 1 ч. 33 м.Вид битрейта : ПостоянныйБитрейт : 384 Кбит/секКаналы : 6 каналовРасположение каналов : Front: L C R, Side: L R, LFEЧастота : 48,0 КГцБитовая глубина : 16 битМетод сжатия : С потерямиРазмер потока : 256 Мбайт (3%)Заголовок : AC3 5.1 - DVO (R5)Язык : RussianDefault : ДаForced : Нет

Аудио #2Идентификатор : 3Формат : AC-3Формат/Информация : Audio Coding 3Расширение режима : CM (complete main)Параметр Endianness формата : BigИдентификатор кодека : A_AC3Продолжительность : 1 ч. 33 м.Вид битрейта : ПостоянныйБитрейт : 192 Кбит/секКаналы : 2 каналаРасположение каналов : Front: L RЧастота : 48,0 КГцБитовая глубина : 16 битМетод сжатия : С потерямиРазмер потока : 128 Мбайт (2%)Заголовок : AC3 2.0 - MVO (CTC)Язык : RussianDefault : НетForced : Нет

Аудио #3Идентификатор : 4Формат : DTSФормат/Информация : Digital Theater SystemsРежим : 16Параметр Endianness формата : BigИдентификатор кодека : A_DTSПродолжительность : 1 ч. 33 м.Вид битрейта : ПостоянныйБитрейт : 768 Кбит/секКаналы : 2 каналаРасположение каналов : Front: L RЧастота : 48,0 КГцБитовая глубина : 24 битМетод сжатия : С потерямиРазмер потока : 513 Мбайт (6%)Заголовок : DTS 2.0 - AVO (Sanaev)Язык : RussianDefault : НетForced : Нет

Аудио #4Идентификатор : 5Формат : AC-3Формат/Информация : Audio Coding 3Расширение режима : CM (complete main)Параметр Endianness формата : BigИдентификатор кодека : A_AC3Продолжительность : 1 ч. 33 м.Вид битрейта : ПостоянныйБитрейт : 192 Кбит/секКаналы : 2 каналаРасположение каналов : Front: L RЧастота : 48,0 КГцБитовая глубина : 16 битМетод сжатия : С потерямиРазмер потока : 128 Мбайт (2%)Заголовок : AC3 2.0 - MVOЯзык : UkrainianDefault : НетForced : Нет

Аудио #5Идентификатор : 6Формат : AC-3Формат/Информация : Audio Coding 3Расширение режима : CM (complete main)Параметр Endianness формата : BigИдентификатор кодека : A_AC3Продолжительность : 1 ч. 33 м.Вид битрейта : ПостоянныйБитрейт : 384 Кбит/секКаналы : 6 каналовРасположение каналов : Front: L C R, Side: L R, LFEЧастота : 48,0 КГцБитовая глубина : 16 битМетод сжатия : С потерямиРазмер потока : 256 Мбайт (3%)Заголовок : AC3 5.1 - ENGЯзык : EnglishDefault : НетForced : Нет

Аудио #6Идентификатор : 7Формат : DTSФормат/Информация : Digital Theater SystemsРежим : 16Параметр Endianness формата : BigИдентификатор кодека : A_DTSПродолжительность : 1 ч. 33 м.Вид битрейта : ПостоянныйБитрейт : 1509 Кбит/секКаналы : 2 каналаРасположение каналов : Front: L RЧастота : 48,0 КГцБитовая глубина : 24 битМетод сжатия : С потерямиРазмер потока : 1008 Мбайт (12%)Заголовок : DTS 2.0 - ENGЯзык : EnglishDefault : НетForced : Нет

Текст #1Идентификатор : 8Формат : UTF-8Идентификатор кодека : S_TEXT/UTF8Идентификатор кодека/Информация : UTF-8 Plain TextЯзык : RussianDefault : НетForced : Нет

Текст #2Идентификатор : 9Формат : UTF-8Идентификатор кодека : S_TEXT/UTF8Идентификатор кодека/Информация : UTF-8 Plain TextЯзык : EnglishDefault : НетForced : Нет

Меню00:00:00.000 : en:Chapter 100:07:17.103 : en:Chapter 200:15:28.677 : en:Chapter 300:23:51.555 : en:Chapter 400:31:14.205 : en:Chapter 500:39:52.640 : en:Chapter 600:48:58.060 : en:Chapter 700:56:55.078 : en:Chapter 801:03:44.570 : en:Chapter 901:12:19.667 : en:Chapter 1001:19:29.222 : en:Chapter 1101:27:13.895 : en:Chapter 12

piratbit.ru

Воспитание чувств 2009 - скачать бесплатно через торрент в хорошем качестве. Без регистрации

www.kinovit.net

Название: Воспитание чувств / An Education (2009) HDRip от Scarabey | P
Качество видео: HDRip
Перевод: Профессиональный (многоголосый, закадровый)
Видео: 688x288 (2.39:1), 23.976 fps, XviD build 73 ~899 kbps avg, 0.19 bit/pixel
Аудио: 48 kHz, MPEG Layer 3, 2 ch, ~128.00 kbps avg
Скачать

Загрузка начнется в течение 5 сек.

744.56 MB

Название: Воспитание чувств / An Education (2009) HDRip от Scarabey | P
Качество видео: HDRip
Перевод: Профессиональный (многоголосый, закадровый)
Видео: 720x304 (2.37:1), 23.976 fps, XviD build 73 ~1608 kbps avg, 0.31 bit/pixel
Аудио: 48 kHz, AC3 Dolby Digital, 3/2 (L,C,R,l,r) + LFE ch, ~448.00 kbps avg
Скачать

Загрузка начнется в течение 5 сек.

1.45 GB

Название: Воспитание чувств / An Education (2009) BDRip-AVC от MediaClub | P
Качество видео: BDRip-AVC
Перевод: Профессиональный многоголосый + украинский + оригинал
Видео: MPEG-4 AVC 2800 Кбит/с, 1024х436, 23.976 кадр/с
Аудио: Украинский (AC3, 2 ch, 192 Кбит/с) / Профессиональный многоголосый (Novy)Английский (AC3, 6 ch, 448 Кбит/с)
Скачать

Загрузка начнется в течение 5 сек.

2.61 GB

Название: Воспитание чувств / An Education (2009) BDRip | КПК от Generalfilm
Качество видео: HDRip | КПК
Видео: кодек: x264, формат: mp4, размер кадра: 480х200, битрейт: 350 кб/с
Аудио: язык: русский, перевод: Многоголосый закадровый, кодек: AAC LC 2.0, битрейт: 128 кб/с
Скачать

Загрузка начнется в течение 5 сек.

345.70 MB

Название: Воспитание чувств / An Education (2009) BDRip от HQCLUB
Качество видео: BDRip (источник: HDCLUB / Blu-Ray Remux / 1080р)
Перевод: Профессиональный (многоголосый, закадровый) R5
Формат видео: AVI
Видео: 720x304 (2.37:1), 23.976 fps, XviD build 72 ~1676 kbps avg, 0.32 bit/pixel
Аудио: 48 kHz, AC3 Dolby Digital, 3/2 (L,C,R,l,r) + LFE ch, ~384 kbps avg (RUS)48 kHz, AC3 Dolby Digital, 3/2 (L,C,R,l,r) + LFE ch, ~384 kbps avg (ENG) (отдельно)
Скачать

Загрузка начнется в течение 5 сек.

1.45 GB

Скачать фильм Воспитание чувств (2008) через торрент

gig-torrent.net

24 декабря 2015 11:58 Воспитание чувств / An Education (2009) HDRip от Scarabey | P .torrent   [Информация о файле (нажмите для просмотра)] Перевод: Профессиональный (многоголосый, закадровый)Видео: 688x288 (2.39:1), 23.976 fps, XviD build 73 ~899 kbps avg, 0.19 bit/pixelАудио: 48 kHz, MPEG Layer 3, 2 ch, ~128.00 kbps avg 744,56 Mb 39 5
24 декабря 2015 11:58 Воспитание чувств / An Education (2009) HDRip от Scarabey | P .torrent   [Информация о файле (нажмите для просмотра)] Перевод: Профессиональный (многоголосый, закадровый)Видео: 720x304 (2.37:1), 23.976 fps, XviD build 73 ~1608 kbps avg, 0.31 bit/pixelАудио: 48 kHz, AC3 Dolby Digital, 3/2 (L,C,R,l,r) + LFE ch, ~448.00 kbps avg 1,45 Gb 113 6
24 декабря 2015 11:58 Воспитание чувств / An Education (2009) BDRip-AVC от MediaClub | P .torrent   [Информация о файле (нажмите для просмотра)] Перевод: Профессиональный многоголосый + украинский + оригиналКодек: MPEG-4 AVCКачество: BDRip-AVCВидео: 2800 Кбит/с, 1024х436, 23.976 кадр/сЗвук: Аудио #1: Русский (AC3, 6 ch, 448 Кбит/с) / Профессиональный многоголосый (R5)Аудио #2: Украинский (AC3, 2 ch, 192 Кбит/с) / Профессиональный многоголосый (Novy)Аудио #3: Английский (AC3, 6 ch, 448 Кбит/с)Субтитры: Русские, украинские, английские 2,61 Gb 48 3
24 декабря 2015 11:58 Воспитание чувств / An Education (2009) BDRip | КПК от Generalfilm .torrent   [Информация о файле (нажмите для просмотра)] Качество: HDRip | КПКВидео: кодеккодек: x264,формат: mp4,размер кадра: 480х200, битрейт: 350 кб/сАудио: языкрусский, перевод: Многоголосый закадровый, 345,7 Mb 4 2
24 декабря 2015 11:58 Воспитание чувств / An Education (2009) BDRip от HQCLUB .torrent   [Информация о файле (нажмите для просмотра)] Перевод: Профессиональный (многоголосый, закадровый) R5Субтитры: русские (полные, форсированные), английские, украинскиеФормат: AVIКачество: BDRip (источник:Видео: 720x304 (2.37:1), 23.976 fps, XviD build 72 ~1676 kbps avg, 0.32 bit/pixelАудио #1: 48 kHz, AC3 Dolby Digital, 3/2 (L,C,R,l,r) + LFE ch, ~384 kbps avg (RUS)Аудио #2: 48 kHz, AC3 Dolby Digital, 2/0 (L,R) ch, ~192 kbps avg (UKR)(отдельно)Аудио #3: 48 kHz, AC3 Dolby Digital, 3/2 (L,C,R,l,r) + LFE ch, ~384 kbps avg (ENG)(отдельно) 1,45 Gb 74 5
24 декабря 2015 11:58 Воспитание чувств / An Education (2009) BDRip-AVC by Infineon .torrent   [Информация о файле (нажмите для просмотра)] Контейнер: MKVКачество: BDRip-AVCВидео: , 1024х436 (2,35:1) at 23.976 fps, ~2649 Kbps avgАудио#1: Russian: HE-AAC, 224 Kbps, 48 kHz, 6 channels [Многоголосый]Аудио#2: English: HE-AAC, 224 Kbps, 48 kHz, 6 channels [Оригинал]Аудио#3: English: HEv2-AAC, 24 Kbps, 48 kHz, 2 channels [Комментарии (Лоне Шерфиг, Кэри Маллиган, Питер Сарсгаард)]Субтитры#1: RussianСубтитры#2: UkrainianСубтитры#3: English 2,19 Gb 6 2
24 декабря 2015 11:58 Воспитание чувств / An Education (2009) HDRip 720p by DESAN .torrent   [Информация о файле (нажмите для просмотра)] Перевод: Многоголосый закадровыйКачество: HDRip [Рип с BDRip 720p]Формат: AVI (XviD)Аудио: 48 kHz, MPEG Layer 3, 2 ch, 256.00 kbps avgВидео: 1280x544, 24.390 fps, 2502 kbps avg 1,94 Gb 7 2
24 декабря 2015 11:58 Воспитание чувств / An Education (2009) BDRip 720p от HQ-ViDEO .torrent   4,37 Gb 35 6
24 декабря 2015 11:58 Воспитание чувств / An Education (2009) BDRip от HELLYWOOD .torrent   1,72 Gb 12 5
24 декабря 2015 11:58 Воспитание чувств / An Education (2009) BDRip от HQ-ViDEO | Лицензия .torrent   [Информация о файле (нажмите для просмотра)] Перевод: Русский профессиональный многоголосый перевод + Оригинальная английская дорожка (AC3, 448 Kbps, 5.1 ch / Отдельно)Субтитры: Русские.Качество: BDRipФормат: AVI; XviD, MPEG-4 codecВидео: 720 x 304; 23.976 fps; 1619 kbps; 0.31 bit/pixelЗвук: Russian AC3 Dolby Digital; 448 Kbps; 5.1 ch; 48 KHz 1,77 Gb 14 5
24 декабря 2015 11:58 Воспитание чувств / An Education (2009) HDRip .torrent   699,99 Mb 3 5

Смотрите также