Скачать братья из гримсби через торрент бесплатно в хорошем качестве


Фильм Братья из Гримсби (2016) скачать торрент в хорошем качестве hd

Название: Братья из Гримсби 

Оригинальное название: Grimsby 

Год выхода: 2016 

Жанр: Боевик, комедия 

Режиссер: Луи Летерье 

В ролях: Саша Барон Коэн, Марк Стронг, Пенелопа Крус, Ребел Уилсон, Айла Фишер, Габури Сидибе, Аннабелль Уоллис, Иэн МакШейн, Дэвид Хэрвуд, Рикки Томлинсон 

Встреча давно потерянных родных всегда считается яркой и неповторимой. Давая новые эмоции и желание насладится счастьем давно потерянных связей. Но порой все может быть совершенно наоборот, как и в данной истории, где главный герой образцовый спецагент, проваливает операцию, из-за встречи со своим братом. А он, в свою очередь футбольный фанат и беспредельщик. 

Сюжетом данной комедии Братья из Гримсби, с перемешкой перестрелок и погонь, станет встреча двух братьев, которых раньше разделила судьба. Но и при вновь восстановившейся семье наступает момент провального выполнения операции. Так как один из них является образцовым спецагентом, а второй футбольным фанатом, с желанием разрушить все на своем пути. 

Авторы данной истории создали впечатлительный сценарии и дали возможности увидеть две стороны медали, которые могут как дать шанс насладится стол долгожданной встречей, так и разрушить все созданные возможности. Это будет комедия, позволяющая весело и с улыбкой проследить большое количество курьезов. Два брата, которым предстоит перевернуть весь мир и спастись от тех, кто желает им смерти. 

Комедийный жанр данной киноленты оправдывает себя и дает повод просто забыть о серости привычных будней и побывать вместе с главными героями в необычайно захватывающих событиях и действиях. За это история и получает столь высокие 10 из 10, давая лишний повод увидеть всю курьёзность встречи совершенно разных людей.

Страна: Великобритания, Австралия 

Студия: Big Talk Productions, Columbia Pictures, Four by Two Films, LStar Capital, Sony Pictures Entertainment (SPE), Village Roadshow Pictures, Working Title Films 

Продолжительность: 01:23:06 

Перевод: Дублированный | iTunes

Формат: AVI 

Качество: HDRip 

Видео: XviD, 688x288, 23.976 fps, 1117 kbps 

Звук: MP3, 2 ch, 128 kbps 

Субтитры: Русские на надписи (вшитые) 

Поиск торрент раздач, пожалуйста подождите!

Информация о торрент файле

Скачать торрент Торрент: Зарегистрирован Статус: v Проверено Просмотров: 797 Категория: боевики Общий размер: 743.75 MB

Поделитесь ссылкой на наш сайт с друзьями в соц.сетях ↓

mega-torrent.co

Скачать торрент Братья из Гримсби / Grimsby (2016) WEB-DL 1080p

Информация о фильмеНазвание: Братья из ГримсбиОригинальное название: GrimsbyГод выхода: 2016Жанр: боевик, комедияРежиссер: Луи ЛетерьеВ ролях: Саша Барон Коэн, Марк Стронг, Пенелопа Крус, Ребел Уилсон, Айла Фишер, Габури Сидибе, Аннабелль Уоллис, Иэн МакШейн, Дэвид Хэрвуд, Рикки Томлинсон

О фильме: Сверхсекретная операция, которую выполняет образцовый спецагент, с треском провалена из-за некстати свалившегося на его голову неадекватного брата — оголтелого футбольного фаната и полного беспредельщика. Теперь герою предстоит спасти свою жизнь и вдобавок планету от нависшей над ней угрозы — практически невыполнимая задача в тандеме с вновь приобретенным родственником.

Выпущено: Великобритания, Австралия / Big Talk Productions, Columbia Pictures, Four by Two Films, LStar Capital, Sony Pictures Entertainment (SPE), Village Roadshow Pictures, Working Title FilmsПродолжительность: 01:23:26Озвучивание: Дублированное [Line]

Примечание: Релиз без рекламы.

ФайлФормат: MKVКачество: WEB-DL 1080pВидео: MPEG-4 AVC, 4352 kb/s, 1916x798Аудио: Russian: AC3, 192 kb/s (2 ch) / English: AC3, 384 kb/s (6 ch)Субтитры: English

MI

Format : Matroska Format version : Version 2 File size : 2.93 GiB Duration : 1h 23mn Overall bit rate : 5 028 Kbps Encoded date : UTC 2016-05-25 05:34:18 Writing application : mkvmerge v7.8.0 ('River Man') 32bit built on Apr 3 2015 12:11:22 Writing library : libebml v1.3.1 + libmatroska v1.4.2

Video ID : 1 Format : AVC Format/Info : Advanced Video Codec Format profile : [email protected] Format settings, CABAC : Yes Format settings, ReFrames : 5 frames Codec ID : V_MPEG4/ISO/AVC Duration : 1h 23mn Bit rate : 4 352 Kbps Width : 1 916 pixels Height : 798 pixels Display aspect ratio : 2.40:1 Frame rate mode : Constant Frame rate : 23.976 fps Color space : YUV Chroma subsampling : 4:2:0 Bit depth : 8 bits Scan type : Progressive Bits/(Pixel*Frame) : 0.119 Stream size : 2.54 GiB (87%) Language : English Default : Yes Forced : No Color range : Limited Color primaries : BT.709 Transfer characteristics : BT.709 Matrix coefficients : BT.709

Audio #1 ID : 2 Format : AC-3 Format/Info : Audio Coding 3 Mode extension : CM (complete main) Format settings, Endianness : Big Codec ID : A_AC3 Duration : 1h 23mn Bit rate mode : Constant Bit rate : 192 Kbps Channel(s) : 2 channels Channel positions : Front: L R Sampling rate : 48.0 KHz Bit depth : 16 bits Compression mode : Lossy Stream size : 115 MiB (4%) Language : Russian Default : Yes Forced : No

Audio #2 ID : 3 Format : AC-3 Format/Info : Audio Coding 3 Mode extension : CM (complete main) Format settings, Endianness : Big Codec ID : A_AC3 Duration : 1h 23mn Bit rate mode : Constant Bit rate : 384 Kbps Channel(s) : 6 channels Channel positions : Front: L C R, Side: L R, LFE Sampling rate : 48.0 KHz Bit depth : 16 bits Compression mode : Lossy Stream size : 229 MiB (8%) Language : English Default : No Forced : No

Text ID : 4 Format : UTF-8 Codec ID : S_TEXT/UTF8 Codec ID/Info : UTF-8 Plain Text Language : English Default : No Forced : No

Menu 00:00:00.000 : en:1 00:06:53.413 : en:2 00:11:00.076 : en:3 00:16:23.983 : en:4 00:21:36.712 : en:5 00:26:42.809 : en:6 00:31:45.945 : en:7 00:36:47.788 : en:8 00:41:56.138 : en:9 00:46:54.060 : en:10 00:52:18.676 : en:11 00:57:27.568 : en:12 01:01:26.932 : en:13 01:06:15.220 : en:14 01:11:51.180 : en:15 01:16:24.995 : en:16

mrutor.org

Братья из Гримсби через торрент

piratbit.ru

Раздают: 2 [ 0 KB/s ]
Размер: 1.46 GB | Добавлен: 1 год 3 мес. назад | Торрент скачан:883 раза
Реклама Дарим 3000 рублей за регистрацию, не упусти свой шанс получить шикарный бонус!!!

23-07-2016 13:35 Братья из Гримсби Скачать торрент  

Братья из Гримсби / Grimsby

«One secret agent. One complete idiot»

Год выпуска: 2016Страна: Великобритания, АвстралияЖанр: боевик, комедияПродолжительность: 01:23:11Перевод: Профессиональный (полное дублирование) [Лицензия Blu-ray CEE] Субтитры: Русские (на надписи и прочее) - вшитыеРежиссер: Луи Летерье / Louis LeterrierВ ролях: Саша Барон Коэн (Nobby), Марк Стронг (Sebastian Graves), Ребел Уилсон (Dawn Grobham), Пенелопа Крус (Rhonda George), Айла Фишер (Jodie Figgis), Габури Сидибе (Banu), Аннабелль Уоллис (Lina Smit), Иэн МакШейн (MI6 Spy Boss), Дэвид Хэрвуд (Black Gareth), Рикки Томлинсон (Paedo Pete), Джонни Вегас (Milky Pimms), Скотт Эдкинс (Pavel Lukashenko)Описание: Сверхсекретная операция, которую выполняет образцовый спецагент, с треском провалена из-за некстати свалившегося на его голову неадекватного брата - оголтелого футбольного фаната и полного беспредельщика. Теперь герою предстоит спасти свою жизнь и вдобавок планету от нависшей над ней угрозы - практически невыполнимая задача в тандеме с вновь приобретенным родственником.Рейтинг:

MPAA: R - Лицам до 17 лет обязательно присутствие взрослого

Качество: BDRip | исх. The Brothers Grimsby 2016 COMPLETE BLURAY-CBGB |Формат: AVIВидео кодек: XviDАудио кодек: AC3Видео: 720x304 (2.37:1), 23.976 fps, XviD build 73 ~2055 kbps avg, 0.39 bit/pixelАудио: 48 kHz, AC3 Dolby Digital, 3/2 (L,C,R,l,r) + LFE ch, ~448 kbps

Релиз: &

Скачать Братья из Гримсби через торрент http://s020.radikal.ru/i720/1606/6b/091ea6bcb280.png Скачать фильм Братья из Гримсби через торрент бесплантно в хорошем качестве Описание: Сверхсекретная операция, которую выполняет образцовый спецагент, с треском провалена из-за некстати свалившегося на его голову ... 2016-07-23 13:35 8.3 10 10

Loading...

Loading...

Рекламный пират

26-07-2016 04:10 Братья из Гримсби Скачать торрент  

Шурик как всегда не удивляет) все фильмы похожи)

Дорогой пользователь! Огромная просьба, поблагодарите релизера, оцените раздачу и оставьте свои комментарий, если Вы скачали Братья из Гримсби через торрент бесплатно! Внесите свою лепту в развитие PiratBit!

Комментировать посты могут только пользователи прошедшие не сложную регистрацию

Братья из Гримсби через торрент Скачать бесплатно Братья из Гримсби Братья из Гримсби скачать торрент Братья из Гримсби смотреть онлайн Cкачать фильм Братья из Гримсби бесплатно Братья из Гримсби скачать торрент в хорошем качестве Братья из Гримсби смотреть онлайн бесплатно в хорошем качестве

Вы не можете начинать темыВы не можете отвечать на сообщенияВы не можете редактировать свои сообщенияВы не можете удалять свои сообщенияВы не можете голосовать в опросахВы не можете прикреплять файлы к сообщениямВы можете скачивать файлы

Скачать фильм Братья из Гримсби через торрент в хорошем качестве бесплатно BDRip-AVC

GeneralUnique ID                                : 249265848903732064690940104731629825266 (0xBB86DB334F6387FCAAF328234BFDACF2)Complete name                            : D:\download\The.Brothers.Grimsby.2016.BDRip-AVC by schultz R.G.Resident.mkvFormat                                   : MatroskaFormat version                           : Version 4 / Version 2File size                                : 1.52 GiBDuration                                 : 1h 23mnOverall bit rate                         : 2 609 KbpsEncoded date                             : UTC 2016-06-02 11:50:25Writing application                      : mkvmerge v8.9.0 ('Father Daughter') 64bitWriting library                          : libebml v1.3.3 + libmatroska v1.4.4DURATION                                 : 01:23:12.000000000NUMBER_OF_FRAMES                         : 156000NUMBER_OF_BYTES                          : 239616000_STATISTICS_WRITING_APP                  : mkvmerge v8.9.0 ('Father Daughter') 64bit_STATISTICS_WRITING_DATE_UTC             : 2016-06-02 11:50:25_STATISTICS_TAGS                         : BPS DURATION NUMBER_OF_FRAMES NUMBER_OF_BYTES

VideoID                                       : 1Format                                   : AVCFormat/Info                              : Advanced Video CodecFormat profile                           : [email protected] settings, CABAC                   : YesFormat settings, ReFrames                : 12 framesCodec ID                                 : V_MPEG4/ISO/AVCDuration                                 : 1h 23mnBit rate                                 : 1 840 KbpsWidth                                    : 1 024 pixelsHeight                                   : 428 pixelsDisplay aspect ratio                     : 2.40:1Frame rate                               : 23.976 fpsColor space                              : YUVChroma subsampling                       : 4:2:0Bit depth                                : 8 bitsScan type                                : ProgressiveBits/(Pixel*Frame)                       : 0.175Stream size                              : 1.04 GiB (69%)Writing library                          : x264 core 146 r2538 121396cEncoding settings                        : cabac=1 / ref=12 / deblock=1:-3:-3 / analyse=0x3:0x113 / me=umh / subme=11 / psy=1 / psy_rd=1.00:0.00 / mixed_ref=1 / me_range=48 / chroma_me=1 / trellis=2 / 8x8dct=1 / cqm=0 / deadzone=21,11 / fast_pskip=0 / chroma_qp_offset=-2 / threads=12 / lookahead_threads=3 / sliced_threads=0 / nr=0 / decimate=0 / interlaced=0 / bluray_compat=0 / constrained_intra=0 / bframes=13 / b_pyramid=2 / b_adapt=2 / b_bias=0 / direct=3 / weightb=1 / open_gop=0 / weightp=2 / keyint=240 / keyint_min=23 / scenecut=40 / intra_refresh=0 / rc_lookahead=40 / rc=2pass / mbtree=1 / bitrate=1840 / ratetol=1.0 / qcomp=0.60 / qpmin=0 / qpmax=69 / qpstep=4 / cplxblur=20.0 / qblur=0.5 / vbv_maxrate=14000 / vbv_bufsize=14000 / nal_hrd=none / filler=0 / ip_ratio=1.40 / aq=1:1.00Language                                 : EnglishDefault                                  : YesForced                                   : NoDURATION                                 : 01:23:11.453000000NUMBER_OF_FRAMES                         : 119675NUMBER_OF_BYTES                          : 1147457120_STATISTICS_WRITING_APP                  : mkvmerge v8.9.0 ('Father Daughter') 64bit_STATISTICS_WRITING_DATE_UTC             : 2016-06-02 11:50:25_STATISTICS_TAGS                         : BPS DURATION NUMBER_OF_FRAMES NUMBER_OF_BYTES

Audio #1ID                                       : 2Format                                   : AC-3Format/Info                              : Audio Coding 3Mode extension                           : CM (complete main)Codec ID                                 : A_AC3Duration                                 : 1h 23mnBit rate mode                            : ConstantBit rate                                 : 384 KbpsChannel(s)                               : 6 channelsChannel positions                        : Front: L C R, Side: L R, LFESampling rate                            : 48.0 KHzBit depth                                : 16 bitsCompression mode                         : LossyStream size                              : 229 MiB (15%)Language                                 : RussianDefault                                  : YesForced                                   : No

Audio #2ID                                       : 3Format                                   : AC-3Format/Info                              : Audio Coding 3Mode extension                           : CM (complete main)Codec ID                                 : A_AC3Duration                                 : 1h 23mnBit rate mode                            : ConstantBit rate                                 : 384 KbpsChannel(s)                               : 6 channelsChannel positions                        : Front: L C R, Side: L R, LFESampling rate                            : 48.0 KHzBit depth                                : 16 bitsCompression mode                         : LossyStream size                              : 229 MiB (15%)Language                                 : EnglishDefault                                  : NoForced                                   : No

Text #1ID                                       : 4Format                                   : UTF-8Codec ID                                 : S_TEXT/UTF8Codec ID/Info                            : UTF-8 Plain TextTitle                                    : fullLanguage                                 : EnglishDefault                                  : NoForced                                   : No

Text #2ID                                       : 5Format                                   : UTF-8Codec ID                                 : S_TEXT/UTF8Codec ID/Info                            : UTF-8 Plain TextTitle                                    : SDHLanguage                                 : EnglishDefault                                  : NoForced                                   : No

Menu00:00:00.000                             : en:00:00:00.00000:06:54.331                             : en:00:06:54.33100:11:00.994                             : en:00:11:00.99400:16:25.735                             : en:00:16:25.73500:21:37.630                             : en:00:21:37.63000:26:43.727                             : en:00:26:43.72700:31:46.863                             : en:00:31:46.86300:36:48.706                             : en:00:36:48.70600:41:57.056                             : en:00:41:57.05600:46:54.979                             : en:00:46:54.97900:52:19.595                             : en:00:52:19.59500:57:28.487                             : en:00:57:28.48701:01:27.851                             : en:01:01:27.85101:06:16.139                             : en:01:06:16.13901:11:52.099                             : en:01:11:52.09901:16:25.873                             : en:01:16:25.873

piratbit.ru

Братья из Гримсби (2016) скачать торрент в хорошем качестве бесплатно

Описание фильма "Братья из Гримсби"

Картина «Братья Гримсби» является работой режиссера Луи Летерье, известного такими популярными фильмами, как Иллюзия обмана, Перевозчик и Денни Цепной пес. Дата мировой премьеры его новой картины назначена на 25 февраля 2016 года.

Главными героями в киноленте выступают родные братья, которые всю жизнь и не подозревали о существовании друг друга. Один из них является британским секретным агентом. Он профессионал в своем деле, и справляется с самыми сложными операциями. Когда он начинает искать информацию о своей семье, то внезапно всплывают данные о существовании родного брата. Последний по каким-то причинам, был потерян или же оставлен.

Наш главный герой, узнав такую изначально хорошую новость, пытается отыскать брата, и в результате добивается цели. Однако при встрече выяснилось еще одно обстоятельство. Дело в том, что его брат страдает психическим заболеванием. У него достаточно часто случаются эмоциональные расстройства, из-за которых, поведение парня просто неадекватное. Помимо этого, он является футбольным фанатом.

Итак, познакомившись, они проводят вместе время, однако секретный агент уже даже не знает, радоваться ему, или нет такой встрече, ведь с новым родственником он постоянно оказывается в неприятностях - он не обычный фанат, а настоящий агрессор и хулиган. Смогут ли они найти общий язык, и стать настоящими родными братьями, или же останутся чужими друг для друга? Чтобы узнать это, советуем посмотреть эту интересную историю о братьях из Гримсби, которых ожидает масса приключений.

Эта картина определенно понравится любителям веселых комедий, а также в ней можно увидеть таких популярных актеров, как Пенелопа Крус и Айла Фишер.

Скачать Братья из Гримсби через торрент

Сиды Качество Перевод Размер Видео Аудио
Скачать Загрузка... BDRemux Дублированный | Лицензия Blu-Ray CEE 19,23 Гб 1920x1080, 24.9 Mbit/s, 23.976 fps 48 kHz, DTS-HD MA, 5.1, 2312 kbps | Оригинал |
Скачать Загрузка... BDRemux Дублированный | Лицензия Blu-Ray CEE 17,36 Гб 1920x1080, 24.9 Mbit/s, 23.976 fps 48 kHz, DTS-HD MA, 5.1, 2312 kbps | Оригинал |
Скачать Загрузка... BDRip1080 Дублированный | Лицензия Blu-Ray CEE 8,36 Гб 1280x536, 9107 Кbit/s, 23.976 fps 48 kHz, DTS, 5.1, 1510 kbps | Оригинал |
Скачать Загрузка... BDRip1080 Дублированный | Лицензия Blu-Ray CEE 9,91 Гб 1920x802, 11.6 Mbit/s, 23.976 fps 48 kHz, DTS, 5.1, 1510 kbps | Оригинал |
Скачать Загрузка... WEB-DL Дублированный | Лицензия Blu-Ray CEE 1,88 Гб MPEG-4 AVC, 2123 Кбит/с, 1024x428 Русский, английский (AC3, 6 ch, 448 Кбит/с)
Скачать Загрузка... WEB-DL Профессиональный (полное дублирование) CEE 1,56 Гб 720x304 (2.37:1), 23.976 fps, XviD build 65 ~2047 kbps avg, 0.39 bit/pixel 48 kHz, AC3 Dolby Digital, 3/2 (L,C,R,l,r) + LFE ch, ~448 kbps avg (ENG)
Скачать Загрузка... CAMRip Профессиональный (полное дублирование) | 1,47 Гб 720x304 (2.35:1), 23.976 fps, XviD ~1 454 kbps avg, 0.277 bit/pixel 48.0 kHz, AC3 Dolby Digital, 2/0 (L,R) ch, ~384 kbps

У нас вы можете легко скачать Братья из Гримсби через торрент бесплатно в хорошем качестве, оставляйте комментарии и делитесь впечатлениями!

kino.kak.to

Братья из Гримсби через торрент

ОбщееУникальный идентификатор : 247176719447274694481607396298787659032 (0xB9F4812A719C8CC9A216CA9765C41D18)Полное имя : M:\2Rips\Grimsby\Grimsby.2016.BDRip-AVC.Dub.745Mb.stalkerok.new-team.mkvФормат : MatroskaВерсия формата : Version 4 / Version 2Размер файла : 745 МбайтПродолжительность : 1 ч. 23 м.Общий поток : 1253 Кбит/секНазвание фильма : Grimsby (2016) (Rip by stalkerok)Дата кодирования : UTC 2016-07-25 14:39:24Программа кодирования : mkvmerge v8.6.1 ('Flying') 64bitБиблиотека кодирования : libebml v1.3.3 + libmatroska v1.4.4

ВидеоИдентификатор : 1Формат : AVCФормат/Информация : Advanced Video CodecПрофиль формата : [email protected]Параметр CABAC формата : ДаПараметр ReFrames формата : 16 кадровИдентификатор кодека : V_MPEG4/ISO/AVCПродолжительность : 1 ч. 23 м.Битрейт : 1189 Кбит/секШирина : 790 пикселейВысота : 330 пикселейСоотношение сторон : 2,40:1Режим частоты кадров : ПостоянныйЧастота кадров : 23,976 (24000/1001) кадра/секЦветовое пространство : YUVСубдискретизация насыщенности : 4:2:0Битовая глубина : 8 битТип развёртки : ПрогрессивнаяБит/(Пиксели*Кадры) : 0.190Размер потока : 706 Мбайт (95%)Заголовок : Grimsby (2016) (Rip by stalkerok)Библиотека кодирования : x264 core 148 r2705+54 9f484c1 t_mod_Custom [[email protected] X86_64]Настройки программы : cabac=1 / ref=16 / deblock=1:-3:-2 / analyse=0x3:0x133 / me=umh / subme=11 / psy=1 / fade_compensate=0.00 / psy_rd=1.00:0.00 / mixed_ref=1 / me_range=32 / chroma_me=1 / trellis=2 / 8x8dct=1 / cqm=0 / deadzone=21,11 / fast_pskip=0 / chroma_qp_offset=-2 / threads=10 / lookahead_threads=2 / sliced_threads=0 / nr=0 / decimate=0 / interlaced=0 / bluray_compat=0 / constrained_intra=0 / fgo=0 / bframes=16 / b_pyramid=2 / b_adapt=2 / b_bias=0 / direct=3 / weightb=1 / open_gop=0 / weightp=2 / keyint=240 / keyint_min=23 / scenecut=40 / intra_refresh=0 / rc_lookahead=60 / rc=2pass / mbtree=0 / bitrate=1189 / ratetol=1.0 / qcomp=0.65 / qpmin=0:0:0 / qpmax=69:69:69 / qpstep=4 / cplxblur=20.0 / qblur=0.5 / vbv_maxrate=50000 / vbv_bufsize=62500 / nal_hrd=none / filler=0 / ip_ratio=1.40 / pb_ratio=1.30 / aq=3:0.90 / aq-sensitivity=10.00 / aq-factor=1.00:1.00:1.00 / aq2=0 / aq3=0Default : ДаForced : Нет

АудиоИдентификатор : 2Формат : AACФормат/Информация : Advanced Audio CodecПрофиль формата : HE-AAC / LCИдентификатор кодека : A_AACПродолжительность : 1 ч. 23 м.Битрейт : 64,0 Кбит/секКаналы : 2 каналаРасположение каналов : Front: L RЧастота : 48,0 КГц / 24,0 КГцЧастота кадров : 23,438 кадра/сек (1024 spf)Метод сжатия : С потерямиЗадержка видео : 31 мс.Размер потока : 38,1 Мбайт (5%)Язык : RussianDefault : ДаForced : Нет

ТекстИдентификатор : 3Формат : UTF-8Идентификатор кодека : S_TEXT/UTF8Идентификатор кодека/Информация : UTF-8 Plain TextПродолжительность : 1 ч. 14 м.Битрейт : 2 бит/секCount of elements : 28Размер потока : 1,43 Кбайт (0%)Язык : RussianDefault : ДаForced : Нет

Меню00:00:00.000 : en:Chapter 100:06:54.330 : en:Chapter 200:11:00.993 : en:Chapter 300:16:25.734 : en:Chapter 400:21:37.629 : en:Chapter 500:26:43.727 : en:Chapter 600:31:46.863 : en:Chapter 700:36:48.831 : en:Chapter 800:41:57.181 : en:Chapter 900:46:55.103 : en:Chapter 1000:52:22.639 : en:Chapter 1100:57:31.531 : en:Chapter 1201:01:30.895 : en:Chapter 1301:06:19.183 : en:Chapter 1401:11:55.144 : en:Chapter 1501:16:28.917 : en:Chapter 16

piratbit.ru


Смотрите также