Скачать без лица через торрент бесплатно в хорошем качестве


Без лица 1997 - скачать бесплатно через торрент в хорошем качестве. Без регистрации

www.kinovit.net

Название: Без лица / Face/Off (1997) BDRemux 1080p | D, P, A
Качество видео: BDRemux 1080p
Перевод: Дублированный, профессиональный многоголосый, авторский
Видео: MPEG-4 AVC 24003 Кбит/с, 1920x1080, 23.976 кадр/с
Аудио: Английский DTS-HD Master Audio 2009 kbps 5.1 / 48 kHz / 2009 kbps / 16-bit (DTS Core: 5.1 / 48 kHz / 768 kbps / 16-bit) - ОригиналРусский DTS-HD Master Audio 2016 kbps 5.1 / 48 kHz / 2016 kbps / 16-bit (DTS Core: 5.1 / 48 kHz / 768 kbps / 16-bit) - Авторский (Живов)Русский DTS Audio 755 kbps 5.1 / 48 kHz / 768 kbps / 24-bit - ДубляжРусский Dolby Digital Audio 448 kbps 5.1 / 48 kHz / 448 kbps - Профессиональный многоголосыйУкраинский Dolby Digital Audio 448 kbps 2.1 / 48 kHz / 448 kbps - Дубляж (Так Треба Продакшн)Русский DTS Audio 768 kbps 5.1 / 48 kHz / 755 kbps / 16-bit - Авторский (Гаврилов)Русский Dolby Digital Audio 448 kbps 5.1 / 48 kHz / 448 kbps - Дубляж
Скачать

Загрузка начнется в течение 5 сек.

29.98 GB

Название: Без лица / Face/Off (1997) HDRip-AVC | D
Качество видео: HDRip-AVC
Перевод: Профессиональный (полное дублирование)
Видео: x264 MPEG-4 AVC, 736x314 (2.35:1) at 23.976 fps, ~700 kbps
Аудио: AAC-LC, 2 ch, 48 kHz, 72 kbps
Скачать

Загрузка начнется в течение 5 сек.

769.39 MB

Название: Без лица / Face/Off (1997) BDRip | A
Качество видео: BDRip
Перевод: Авторский (одноголосый закадровый) Андрей Гаврилов
Видео: XviD 720x304 (2.37:1), 23.976 fps, XviD build 65, 1795 kbps avg, 0.34 bit/pixel
Аудио: 48 kHz, AC3 Dolby Digital, 3/2 (L,C,R,l,r) + LFE ch, 448.00 kbps avg
Скачать

Загрузка начнется в течение 5 сек.

2.18 GB

Название: Без лица / Face/Off (1997) BDRip от HQCLUB
Качество видео: BDRip (источник: HANSMER / Blu-ray Remux / 1080p)
Перевод: Профессиональный (многоголосый, закадровый) + Профессиональный (полное дублирование) + Оригинальная звуковая дорожка + Авторский одноголосый перевод Ю.Живова (отдельно)
Формат видео: AVI
Видео: 720x304 (2.37:1), 23,976 fps, XviD build 50 ~1887 kbps avg, 0.36 bit/pixel
Аудио: 48 kHz, AC3 Dolby Digital, 3/2 (L,C,R,l,r) + LFE ch, ~448.00 kbps avg48 kHz, AC3 Dolby Digital, 2/0 (L,R) ~192.00 kbps avg48 kHz, AC3 Dolby Digital, 3/2 (L,C,R,l,r) + LFE ch, ~448.00 kbps avg48 kHz, AC3 Dolby Digital, 3/2 (L,C,R,l,r) + LFE ch, ~448.00 kbps avg (отдельно)
Скачать

Загрузка начнется в течение 5 сек.

3.34 GB

Название: Без лица / Face Off (1997) BDRip 720p
Качество видео: BDRip (720p)
Перевод: Дублированный, профессиональный (многоголосый закадровый), авторский (одноголосый закадровый)
Видео: MPEG-4 AVC/H.264, 1280 x 546 (2,35:1), 7 000 kbps, 23.976 fps, 0.418 b/px
Аудио: АС3, 2 ch, 192 kbps, 48 000 Hz [дублированный (Blu-ray CEE)]АС3, 6 ch, 448 kbps, 48 000 Hz [многоголосый закадровый (Киномания)]DTS, 6 ch, 1509 kbps, 48 000 Hz [многоголосый закадровый (Карусель)]DTS, 6 ch, 1509 kbps, 48 000 Hz [одноголосый закадровый (А.Гаврилов)]АС3, 6 ch, 448 kbps, 48 000 Hz [одноголосый закадровый (Ю.Живов)]АС3, 6 ch, 448 kbps, 48 000 Hz [одноголосый закадровый (В.Завгородний)]АС3, 2 ch, 192 kbps, 48 000 Hz [одноголосый закадровый (Н.Антонов)]АС3, 2 ch, 192 kbps, 48 000 Hz [одноголосый закадровый (М.Латышев)]АС3, 6 ch, 448 kbps, 48 000 Hz [дублированный (Украинский)]DTS, 6 ch, 1509 kbps, 48 000 Hz [оригинальный]
Скачать

Загрузка начнется в течение 5 сек.

13.50 GB

Название: Без лица / Face Off (1997) DVD9 | D
Качество видео: DVD9
Перевод: полное дублирование
Видео: MPEG2 PAL 16:9 (720x576) VBR 5069 Kbps, 25.000 fps
Аудио: Dolby AC3, 2 ch, 48.0 KHz, 192 Kbps русскийDolby AC3, 6 ch, 48.0 KHz, 384 Kbps английскийDTS 6 ch, 48.0 KHz, 755 Kbps русский
Скачать

Загрузка начнется в течение 5 сек.

6.30 GB

Название: Без лица / Face/Off (1997) BDRip-AVC [480p] | iPhone | P,D
Качество видео: BDRip-AVC 480p iPhone
Перевод: Русский профессиональный многоголосый закадровый, Украинский дублированный перевод
Видео: H.264 [email protected] (2.35:1) at 23.976 fps, AVC at 1508 kbps
Аудио: 1: 48 kHz, AAC 2.0, 192 kbps - Русский профессиональный многоголосый закадровый (Karusel)
Скачать

Загрузка начнется в течение 5 сек.

2.05 GB

Название: Без лица / Face/Off (1997) BDRip 720p от leonardo 59 & Scarabey | Лицензия
Качество видео: BDRip 720p Исходник: Blu-ray
Перевод: Профессиональный (полное дублирование) Лицензия
Формат видео: MKV Видео кодек: MPEG-4 AVC Аудио кодек: AC3
Видео: AVC, 1280x546 (2.35:1) at 23.976 fps, AVC at 5273 kbps avg, 0.307 bit/pixel
Аудио: AC3 2 ch, 48 kHz, 192 kbps - Russian - DUBAC3 6 ch, 48 kHz, 448 kbps - Russian - MVO
Скачать

Загрузка начнется в течение 5 сек.

5.74 GB

Название: Без лица / Face/Off (1997) BDRip-AVC от potroks | D
Перевод: Профессиональный (полное дублирование)
Формат видео: MKV
Видео: H.264, 972x414 (2,35:1), 23,976 fps, 2426 Кbps, 0.251 bit/pixel
Аудио: 48 kHz, AC3 Dolby Digital, 2/0 (L,C) ch, 192.00 kbps | RUS48 kHz, AC3 Dolby Digital, 3/2 (L,C,R,l,r) + LFE ch, 384.00 kbps | ENG
Скачать

Загрузка начнется в течение 5 сек.

2.92 GB

Название: Без лица / Face/Off (1997) BDRip-AVC от FilmoRay & Sheikn
Качество видео: BDRip (AVC)
Перевод: Дублированный / Дублированный (Так Треба Продакшн) (Украинский) / Профессиональный, многоголосый / Авторский одноголосый (Андрей Гаврилов) / Авторский, одноголосый (Юрий Живов)
Видео: MPEG-4 AVC 1024x435, 2850 Кбит/с
Аудио: Русский, украинский английский (АС3, 6 ch, 640 Кбит/с)
Скачать

Загрузка начнется в течение 5 сек.

6.13 GB

Название: Без лица / Face/Off (1997) BD-Remux
Качество видео: BD-Remux
Перевод: Дубляж (Blu-ray CEE) + Профессиональный Многоголосый закадровый (Киномания) + Профессиональный Многоголосый закадровый (Карусель) + Авторский Одноголосый закадровый (А.Гаврилов)
Видео: VC-1 1920 x 1080, 22 500 kbps 23 976 fps
Аудио: Аудио №1: Russian: 48 kHz, AC3, 2/0 (L,R) ch, ~192.00 kbps avg |Дубляж, Blu-ray CEE|
Скачать

Загрузка начнется в течение 5 сек.

27.48 GB

Название: Без лица / Face/Off (1997) BDRip 1080p
Качество видео: BDRip 1080p
Перевод: Дублированный + Оригинал
Видео: x264 1920x816, 6712 Kbps, 23.976 fps
Аудио: AC-3, 6 ch, 640 kbps (Rus)AC-3, 6 ch, 640 kbps (Eng)
Скачать

Загрузка начнется в течение 5 сек.

7.76 GB

Название: Без лица / Face/Off (1997) HDRip от Scarabey
Качество видео: HDRip
Перевод: Профессиональный (полное дублирование)
Формат видео: AVI
Видео: 640x272 (2.35:1), 23.976 fps, XviD build 50 ~704 kbps avg, 0.17 bit/pixel
Аудио: 48 kHz, MPEG Layer 3, 2 ch, ~128.00 kbps avg
Скачать

Загрузка начнется в течение 5 сек.

836.66 MB

Название: Без лица / Face/Off (1997) HDRip от Scarabey
Качество видео: HDRip
Перевод: Профессиональный (полное дублирование)
Формат видео: AVI
Видео: 720x304 (2.37:1), 23.976 fps, XviD build 50 ~2051 kbps avg, 0.39 bit/pixel
Аудио: 48 kHz, AC3 Dolby Digital, 2/0 (L,R) ch, ~192.00 kbps avg
Скачать

Загрузка начнется в течение 5 сек.

2.18 GB

Название: Без лица / Face/Off (1997) HDRip
Качество видео: HDRip
Перевод: Профессиональный (полное дублирование)
Видео: AVI, XviD 720x304 (2.37:1), 23.976 fps, XviD build 50 ~1312 kbps avg, 0.25 bit/pixel
Аудио: 48 kHz, AC3 Dolby Digital, 2/0 (L,R) ch, ~192 kbps
Скачать

Загрузка начнется в течение 5 сек.

1.47 GB

Название: Без лица / Face/Off (1997) BDRip 1080p
Качество видео: BDRip 1080p
Перевод: дубляж, украинский дубляж, Авторский одноголосый закадровый- Живов, Авторский одноголосый закадровый- Гаврилов, оригинал+ рус,англ субтитры
Видео: h364 1920x820, ~6952kbps, 23,976fps, 0,184b/pf
Аудио: AC3, 6ch, 48kHz, 384kbps
Скачать

Загрузка начнется в течение 5 сек.

7.91 GB

Скачать фильм Без лица через торрент в хорошем качестве бесплатно 720p

piratbit.ru

Раздают: 1 [ 0 KB/s ]
Размер: 4.49 GB | Добавлен: 2 года 5 мес. назад | Торрент скачан:276 раз
Реклама Дарим 3000 рублей за регистрацию, не упусти свой шанс получить шикарный бонус!!!

22-05-2015 09:46 Без лица Скачать торрент  

Без лица / Face/Off

Год выпуска: 1997Страна: СШАЖанр: боевик, триллер, криминал, фантастикаПродолжительность: 02:19:02Перевод: ДубляжСубтитры: Русские

Режиссер: Джон ВуПродюссер: Тэжэньцэ Чан, Кристофер Годсик, Барри М. ОсборнСценарий: Майк Уэрб, Майкл Коллеари

Бюджет: $80 000 000Премьера в мире: 27 июня 1997

IMDB 7.30 (255 498)

В ролях: Джон Траволта, Николас Кейдж, Джоан Аллен, Алессандро Нивола, Джина Гершон, Доминик Суэйн, Ник Кассаветис, Харви Преснелл, Колм Фиор, Джон Кэрролл Линч,

Роли дублировали: Владимир Еремин, Станислав Концевич, Галина Чигинская, Анатолий Петров, Татьяна Иванова

Описание: Чтобы отомстить за жестокое убийство своего сына, агент ФБР Шон Арчер соглашается на сложную хирургическую операцию. Он берет себе новое лицо, лицо террориста Кастора Троя, который находится в коме.Однако происходит непредвиденное: Трой приходит в себя и исчезает в обличье Арчера. Жизнь Шона превращается в настоящий кошмар — ему приходится сражаться не только за свою жизнь, но и за жизнь своей жены и дочери.

Качество: BDRip 720p / 60 FpsФормат: MKVВидео кодек: H.264Аудио кодек: AC3Видео: x264, 1280 x 544 (2,35:1), 4148 kbps, 59,880 fps, ( 0.099 bpp)Аудио#1: AC-3, 48.0 KHz, 6 ch, 384 Kbps (Russian )

                 Автор рипа: slaventi-69

x264 [info]: frame I:3644 Avg QP:15.29 size: 86972x264 [info]: frame P:123045 Avg QP:18.16 size: 21019x264 [info]: frame B:373369 Avg QP:21.14 size: 4056x264 [info]: consecutive B-frames: 2.2% 3.6% 12.5% 17.2% 64.5%

ОбщееУникальный идентификатор : 170716471553521101040941274452945803938 (0x806ECBE492D51BC2B0263D0549BC1AA2)Полное имя : D:\Face.Off.(1997)BDRip.720p.(60 Fps).mkvФормат : MatroskaВерсия формата : Version 4 / Version 2Размер файла : 4,49 ГбайтПродолжительность : 2 ч. 19 м.Общий поток : 4624 Кбит/секНазвание фильма : Без лица / Face/Off (1997) BDRip 720p (60 Fps)Дата кодирования : UTC 2015-05-20 05:21:54Программа кодирования : mkvmerge v6.2.0 ('Promised Land') built on Apr 28 2013 12:22:01Библиотека кодирования : libebml v1.3.0 + libmatroska v1.4.0

ВидеоИдентификатор : 1Формат : AVCФормат/Информация : Advanced Video CodecПрофиль формата : [email protected]Параметр CABAC формата : ДаПараметр ReFrames формата : 4 кадраИдентификатор кодека : V_MPEG4/ISO/AVCПродолжительность : 2 ч. 19 м.Битрейт : 4148 Кбит/секШирина : 1280 пикселейВысота : 544 пикселяСоотношение сторон : 2,35:1Режим частоты кадров : ПостоянныйЧастота кадров : 59,880 кадров/секЧастота кадров в оригинале : 59,940 кадров/секЦветовое пространство : YUVСубдискретизация насыщенности : 4:2:0Битовая глубина : 8 битТип развёртки : ПрогрессивнаяБит/(Пиксели*Кадры) : 0.099Размер потока : 4,03 Гбайт (90%)Заголовок : Face/Off (1997) BDRip 720p (60 Fps).mkvБиблиотека кодирования : x264 core 130 r2273 b3065e6Настройки программы : cabac=1 / ref=4 / deblock=1:-1:-1 / analyse=0x3:0x113 / me=umh / subme=8 / psy=1 / psy_rd=1.00:0.00 / mixed_ref=1 / me_range=30 / chroma_me=1 / trellis=2 / 8x8dct=1 / cqm=0 / deadzone=21,11 / fast_pskip=1 / chroma_qp_offset=-2 / threads=3 / lookahead_threads=1 / sliced_threads=0 / nr=0 / decimate=1 / interlaced=0 / bluray_compat=0 / constrained_intra=0 / bframes=4 / b_pyramid=2 / b_adapt=2 / b_bias=0 / direct=1 / weightb=1 / open_gop=0 / weightp=2 / keyint=250 / keyint_min=25 / scenecut=40 / intra_refresh=0 / rc_lookahead=50 / rc=crf / mbtree=1 / crf=16.0 / qcomp=0.60 / qpmin=0 / qpmax=69 / qpstep=4 / ip_ratio=1.40 / aq=1:1.00Язык : EnglishDefault : ДаForced : Нет

АудиоИдентификатор : 2Формат : AC-3Формат/Информация : Audio Coding 3Расширение режима : CM (complete main)Параметр Endianness формата : BigИдентификатор кодека : A_AC3Продолжительность : 2 ч. 19 м.Вид битрейта : ПостоянныйБитрейт : 384 Кбит/секКаналы : 6 каналовРасположение каналов : Front: L C R, Side: L R, LFEЧастота : 48,0 КГцБитовая глубина : 16 битМетод сжатия : С потерямиРазмер потока : 382 Мбайт (8%)Заголовок : DubЯзык : RussianDefault : ДаForced : Нет

Текст #1Идентификатор : 3Формат : UTF-8Идентификатор кодека : S_TEXT/UTF8Идентификатор кодека/Информация : UTF-8 Plain TextЗаголовок : ForcedЯзык : RussianDefault : ДаForced : Нет

Текст #2Идентификатор : 4Формат : UTF-8Идентификатор кодека : S_TEXT/UTF8Идентификатор кодека/Информация : UTF-8 Plain TextЗаголовок : FullЯзык : RussianDefault : НетForced : Нет

Меню00:00:00.000 : :Black Bag Operation00:03:02.724 : :The Merry-Go-Round00:13:28.849 : :Six Years Later: Sinclaire Is Hot00:32:32.909 : :Castor and Pollux00:38:56.083 : :Southern California International Airport: A Game of Chicken00:51:04.311 : :Ready for the Big Ride01:08:13.464 : :The Archer Home, "I got him Eve."01:42:28.892 : :A Visit From Special Ops: Sinclaire Revealed01:56:12.715 : :The Walsh Institute02:14:18.842 : :Failed Interrogations02:18:56.119 : :Suicide Mission

Без лица скачать торрент

Скачать Без лица через торрент http://pic.pb.wtf/images/11/z8v9e.jpg Скачать фильм Без лица через торрент бесплантно в хорошем качестве Описание: Чтобы отомстить за жестокое убийство своего сына, агент ФБР Шон Арчер соглашается на сложную хирургическую операцию. Он берет ... 2015-05-22 09:46 10 10 20

Loading...

Loading...

Рекламный пират

22-05-2015 10:22 Без лица Скачать торрент  

slaventi-69,

Спасибо. :film:

22-05-2015 13:20 Без лица Скачать торрент  

для своего времени крутой фильм смотреться на одном дыхании игра актеров отличная

22-05-2015 13:56 Без лица Скачать торрент  

22-05-2015 17:20 Без лица Скачать торрент  

Для нашего времени, когда вокруг шлак и компьютерный графики постоянно, этот фильм просто наслада.Спасибо тебе.

25-05-2015 19:59 Без лица Скачать торрент  

таки да , фильм смотрю периодически с момента выхода , сюжет игра и драма , хорош фильм !

Дорогой пользователь! Огромная просьба, поблагодарите релизера, оцените раздачу и оставьте свои комментарий, если Вы скачали Без лица через торрент бесплатно! Внесите свою лепту в развитие PiratBit!

Комментировать посты могут только пользователи прошедшие не сложную регистрацию

Без лица через торрент Скачать бесплатно Без лица Без лица скачать торрент Без лица смотреть онлайн Cкачать фильм Без лица бесплатно Без лица скачать торрент в хорошем качестве Без лица смотреть онлайн бесплатно в хорошем качестве

Вы не можете начинать темыВы не можете отвечать на сообщенияВы не можете редактировать свои сообщенияВы не можете удалять свои сообщенияВы не можете голосовать в опросахВы не можете прикреплять файлы к сообщениямВы можете скачивать файлы

Скачать фильм Без лица через торрент в хорошем качестве бесплатно BDRip

piratbit.ru

Размер: 1.45 GB | Добавлен: 6 лет 9 мес. назад | Торрент скачан:265 раз
Реклама Дарим 3000 рублей за регистрацию, не упусти свой шанс получить шикарный бонус!!!

22-01-2011 07:45 Без лица Скачать торрент  

Без лица / Face/Off

Год выпуска: 1997Страна: СШАЖанр: фантастика, боевик, триллер, криминалПродолжительность: 138 мин.Перевод: Профессиональный (полное дублирование)Тип релиза: Лицензия

Режиссер: Джон ВуПродюссер: Теренс Чанг, Майк Уэрб, Майкл КоллеариСценарий: Майк Уэрб, Майкл Коллеари

Бюджет: $80 000 000Премьера в мире: 27 июня 1997

R

-Лицам до 17 лет обязательно присутствие взрослогоМировой рейтинг IMDB 7.30 (106 615) В ролях: Джон Траволта, Николас Кейдж, Джоан Аллен, Алессандро Нивола, Джина Гершон, Доминик Суэйн, Ник Кассаветис, Харви Преснелл, Колм Фиор, Джон Кэрролл ЛиОписание: Чтобы отомстить за жестокое убийство своего сына, агент ФБР Шон Арчер соглашается на сложную хирургическую операцию. Он берет себе новое лицо, лицо террориста Кастора Троя, который находится в коме.Однако происходит непредвиденное: Трой приходит в себя и исчезает в обличьи Арчера. Жизнь Шона превращается в настоящий кошмар — ему приходится сражаться не только за свою жизнь, но и за жизнь своей жены и дочери.Качество: BDRipФормат: MKVВидео кодек: H.26xАудио кодек: AC3Видео: 720x432 (2.35), 23.976 fps, 1 261 Kbps (0.169 bit/pixel)Аудио: AAC LC, 48.0 KHz, 6 ch Скачать Без лица через торрент http://i4.imageban.ru/out/2011/01/22/d659ab32b0e672e97e20d57823a3f0e7.jpg Скачать фильм Без лица через торрент бесплантно в хорошем качестве Описание: Чтобы отомстить за жестокое убийство своего сына, агент ФБР Шон Арчер соглашается на сложную хирургическую операцию. Он берет ... 2011-01-22 07:45 9.8 10 4

Loading...

Loading...

Рекламный пират

Дорогой пользователь! Огромная просьба, поблагодарите релизера, оцените раздачу и оставьте свои комментарий, если Вы скачали Без лица через торрент бесплатно! Внесите свою лепту в развитие PiratBit!

Комментировать посты могут только пользователи прошедшие не сложную регистрацию

Без лица через торрент Скачать бесплатно Без лица Без лица скачать торрент Без лица смотреть онлайн Cкачать фильм Без лица бесплатно Без лица скачать торрент в хорошем качестве Без лица смотреть онлайн бесплатно в хорошем качестве

Вы не можете начинать темыВы не можете отвечать на сообщенияВы не можете редактировать свои сообщенияВы не можете удалять свои сообщенияВы не можете голосовать в опросахВы не можете прикреплять файлы к сообщениямВы можете скачивать файлы

Скачать фильм Без лица через торрент в хорошем качестве бесплатно 720p

ОбщееУникальный идентификатор                 : 178293224523309857448813753128381016185 (0x862206A7E02DF18CBA76CDBF29A36879)Полное имя                               : D:\[1997] Без лица [BDRip] [720p].mkvФормат                                   : MatroskaВерсия формата                           : Version 4 / Version 2Размер файла                             : 13,5 ГбайтПродолжительность                        : 2 ч. 19 м.Общий поток                              : 13,9 Мбит/секНазвание фильма                          : Без лица / Face/Off (1997) BDRip [720p]Дата кодирования                         : UTC 2014-11-13 16:13:00Программа кодирования                    : mkvmerge v7.2.0 ('On Every Street') 32bit built on Sep 13 2014 15:42:11Библиотека кодирования                   : libebml v1.3.0 + libmatroska v1.4.1DURATION                                 : 02:10:35.900000000NUMBER_OF_FRAMES                         : 1065NUMBER_OF_BYTES                          : 38025_STATISTICS_WRITING_APP                  : mkvmerge v7.2.0 ('On Every Street') 32bit built on Sep 13 2014 15:42:11_STATISTICS_WRITING_DATE_UTC             : 2014-11-13 16:13:00_STATISTICS_TAGS                         : BPS DURATION NUMBER_OF_FRAMES NUMBER_OF_BYTES

ВидеоИдентификатор                            : 1Формат                                   : AVCФормат/Информация                        : Advanced Video CodecПрофиль формата                          : [email protected]Параметр CABAC формата                   : ДаПараметр ReFrames формата                : 11 кадровИдентификатор кодека                     : V_MPEG4/ISO/AVCПродолжительность                        : 2 ч. 19 м.Битрейт                                  : 7000 Кбит/секШирина                                   : 1280 пикселейВысота                                   : 546 пикселейСоотношение сторон                       : 2,35:1Режим частоты кадров                     : ПостоянныйЧастота кадров                           : 23,976 кадра/секЦветовое пространство                    : YUVСубдискретизация насыщенности            : 4:2:0Битовая глубина                          : 8 битТип развёртки                            : ПрогрессивнаяБит/(Пиксели*Кадры)                      : 0.418Размер потока                            : 6,53 Гбайт (48%)Заголовок                                : [1997] Без лица / Face/Off [BDRip] [720p]Библиотека кодирования                   : x264 core 133 r2334kMod a3ac64bНастройки программы                      : cabac=1 / ref=11 / deblock=1:-2:-2 / analyse=0x3:0x113 / me=umh / subme=11 / psy=1 / fade_compensate=0.00 / psy_rd=1.00:0.00 / mixed_ref=1 / me_range=48 / chroma_me=1 / trellis=2 / 8x8dct=1 / cqm=0 / deadzone=21,11 / fast_pskip=0 / chroma_qp_offset=-2 / threads=12 / lookahead_threads=2 / sliced_threads=0 / nr=0 / decimate=1 / interlaced=0 / bluray_compat=0 / constrained_intra=0 / bframes=8 / b_pyramid=2 / b_adapt=2 / b_bias=0 / direct=3 / weightb=1 / open_gop=0 / weightp=2 / keyint=250 / keyint_min=23 / scenecut=40 / intra_refresh=0 / rc_lookahead=40 / rc=2pass / mbtree=0 / bitrate=7000 / ratetol=1.0 / qcomp=0.75 / qpmin=0 / qpmax=69 / qpstep=4 / cplxblur=20.0 / qblur=0.5 / vbv_maxrate=62500 / vbv_bufsize=78125 / nal_hrd=none / ip_ratio=1.30 / pb_ratio=1.20 / aq=1:0.80Язык                                     : EnglishDefault                                  : ДаForced                                   : НетОсновные цвета                           : BT.709Характеристики трансфера                 : BT.709Коэффициенты матрицы                     : BT.709colour_range                             : Limited

Аудио #1Идентификатор                            : 2Формат                                   : AC-3Формат/Информация                        : Audio Coding 3Расширение режима                        : CM (complete main)Параметр Endianness формата              : BigИдентификатор кодека                     : A_AC3Продолжительность                        : 2 ч. 19 м.Вид битрейта                             : ПостоянныйБитрейт                                  : 192 Кбит/секКаналы                                   : 2 каналаРасположение каналов                     : Front: L RЧастота                                  : 48,0 КГцБитовая глубина                          : 16 битМетод сжатия                             : С потерямиРазмер потока                            : 191 Мбайт (1%)Заголовок                                : Дублированный (Blu-ray CEE)Язык                                     : RussianDefault                                  : ДаForced                                   : Нет

Аудио #2Идентификатор                            : 3Формат                                   : AC-3Формат/Информация                        : Audio Coding 3Расширение режима                        : CM (complete main)Параметр Endianness формата              : BigИдентификатор кодека                     : A_AC3Продолжительность                        : 2 ч. 19 м.Вид битрейта                             : ПостоянныйБитрейт                                  : 448 Кбит/секКаналы                                   : 6 каналовРасположение каналов                     : Front: L C R, Side: L R, LFEЧастота                                  : 48,0 КГцБитовая глубина                          : 16 битМетод сжатия                             : С потерямиРазмер потока                            : 446 Мбайт (3%)Заголовок                                : Многоголосый закадровый (Киномания)Язык                                     : RussianDefault                                  : НетForced                                   : Нет

Аудио #3Идентификатор                            : 4Формат                                   : DTSФормат/Информация                        : Digital Theater SystemsРежим                                    : 16Параметр Endianness формата              : BigИдентификатор кодека                     : A_DTSПродолжительность                        : 2 ч. 19 м.Вид битрейта                             : ПостоянныйБитрейт                                  : 1509 Кбит/секКаналы                                   : 6 каналовРасположение каналов                     : Front: L C R, Side: L R, LFEЧастота                                  : 48,0 КГцБитовая глубина                          : 16 битМетод сжатия                             : С потерямиРазмер потока                            : 1,47 Гбайт (11%)Заголовок                                : Многоголосый закадровый (Карусель)Язык                                     : RussianDefault                                  : НетForced                                   : Нет

Аудио #4Идентификатор                            : 5Формат                                   : DTSФормат/Информация                        : Digital Theater SystemsРежим                                    : 16Параметр Endianness формата              : BigИдентификатор кодека                     : A_DTSПродолжительность                        : 2 ч. 19 м.Вид битрейта                             : ПостоянныйБитрейт                                  : 1509 Кбит/секКаналы                                   : 6 каналовРасположение каналов                     : Front: L C R, Side: L R, LFEЧастота                                  : 48,0 КГцБитовая глубина                          : 16 битМетод сжатия                             : С потерямиРазмер потока                            : 1,47 Гбайт (11%)Заголовок                                : Одноголосый закадровый (А.Гаврилов)Язык                                     : RussianDefault                                  : НетForced                                   : Нет

Аудио #5Идентификатор                            : 6Формат                                   : AC-3Формат/Информация                        : Audio Coding 3Расширение режима                        : CM (complete main)Параметр Endianness формата              : BigИдентификатор кодека                     : A_AC3Продолжительность                        : 2 ч. 19 м.Вид битрейта                             : ПостоянныйБитрейт                                  : 448 Кбит/секКаналы                                   : 6 каналовРасположение каналов                     : Front: L C R, Side: L R, LFEЧастота                                  : 48,0 КГцБитовая глубина                          : 16 битМетод сжатия                             : С потерямиРазмер потока                            : 446 Мбайт (3%)Заголовок                                : Одноголосый закадровый (Ю.Живов)Язык                                     : RussianDefault                                  : НетForced                                   : Нет

Аудио #6Идентификатор                            : 7Формат                                   : AC-3Формат/Информация                        : Audio Coding 3Расширение режима                        : CM (complete main)Параметр Endianness формата              : BigИдентификатор кодека                     : A_AC3Продолжительность                        : 2 ч. 19 м.Вид битрейта                             : ПостоянныйБитрейт                                  : 448 Кбит/секКаналы                                   : 6 каналовРасположение каналов                     : Front: L C R, Side: L R, LFEЧастота                                  : 48,0 КГцБитовая глубина                          : 16 битМетод сжатия                             : С потерямиРазмер потока                            : 446 Мбайт (3%)Заголовок                                : Одноголосый закадровый (В.Завгородний)Язык                                     : RussianDefault                                  : НетForced                                   : Нет

Аудио #7Идентификатор                            : 8Формат                                   : AC-3Формат/Информация                        : Audio Coding 3Расширение режима                        : CM (complete main)Параметр Endianness формата              : BigИдентификатор кодека                     : A_AC3Продолжительность                        : 2 ч. 19 м.Вид битрейта                             : ПостоянныйБитрейт                                  : 192 Кбит/секКаналы                                   : 2 каналаРасположение каналов                     : Front: L RЧастота                                  : 48,0 КГцБитовая глубина                          : 16 битМетод сжатия                             : С потерямиРазмер потока                            : 191 Мбайт (1%)Заголовок                                : Одноголосый закадровый (Н.Антонов)Язык                                     : RussianDefault                                  : НетForced                                   : Нет

Аудио #8Идентификатор                            : 9Формат                                   : AC-3Формат/Информация                        : Audio Coding 3Расширение режима                        : CM (complete main)Параметр Endianness формата              : BigИдентификатор кодека                     : A_AC3Продолжительность                        : 2 ч. 19 м.Вид битрейта                             : ПостоянныйБитрейт                                  : 192 Кбит/секКаналы                                   : 2 каналаРасположение каналов                     : Front: L RЧастота                                  : 48,0 КГцБитовая глубина                          : 16 битМетод сжатия                             : С потерямиРазмер потока                            : 191 Мбайт (1%)Заголовок                                : Одноголосый закадровый (М.Латышев)Язык                                     : RussianDefault                                  : НетForced                                   : Нет

Аудио #9Идентификатор                            : 10Формат                                   : AC-3Формат/Информация                        : Audio Coding 3Расширение режима                        : CM (complete main)Параметр Endianness формата              : BigИдентификатор кодека                     : A_AC3Продолжительность                        : 2 ч. 19 м.Вид битрейта                             : ПостоянныйБитрейт                                  : 448 Кбит/секКаналы                                   : 6 каналовРасположение каналов                     : Front: L C R, Side: L R, LFEЧастота                                  : 48,0 КГцБитовая глубина                          : 16 битМетод сжатия                             : С потерямиРазмер потока                            : 446 Мбайт (3%)Заголовок                                : ДублированныйЯзык                                     : UkrainianDefault                                  : НетForced                                   : Нет

Аудио #10Идентификатор                            : 11Формат                                   : DTSФормат/Информация                        : Digital Theater SystemsРежим                                    : 16Параметр Endianness формата              : BigИдентификатор кодека                     : A_DTSПродолжительность                        : 2 ч. 19 м.Вид битрейта                             : ПостоянныйБитрейт                                  : 1509 Кбит/секКаналы                                   : 6 каналовРасположение каналов                     : Front: L C R, Side: L R, LFEЧастота                                  : 48,0 КГцБитовая глубина                          : 16 битМетод сжатия                             : С потерямиРазмер потока                            : 1,47 Гбайт (11%)Заголовок                                : ОригинальныйЯзык                                     : EnglishDefault                                  : НетForced                                   : Нет

Текст #1Идентификатор                            : 12Формат                                   : UTF-8Идентификатор кодека                     : S_TEXT/UTF8Идентификатор кодека/Информация          : UTF-8 Plain TextЗаголовок                                : РусскиеЯзык                                     : RussianDefault                                  : НетForced                                   : Нет

Текст #2Идентификатор                            : 13Формат                                   : UTF-8Идентификатор кодека                     : S_TEXT/UTF8Идентификатор кодека/Информация          : UTF-8 Plain TextЗаголовок                                : УкраинскиеЯзык                                     : UkrainianDefault                                  : НетForced                                   : Нет

Текст #3Идентификатор                            : 14Формат                                   : UTF-8Идентификатор кодека                     : S_TEXT/UTF8Идентификатор кодека/Информация          : UTF-8 Plain TextЗаголовок                                : EnglishЯзык                                     : EnglishDefault                                  : НетForced                                   : Нет

Меню00:00:00.000                             : en:Black Bag Operation00:03:02.723                             : en:The Merry-Go-Round00:13:28.848                             : en:Six Years Later: Sinclaire Is Hot00:32:32.909                             : en:Castor and Pollux00:38:56.083                             : en:Southern California International Airport: A Game of Chicken00:51:04.311                             : en:Ready for the Big Ride01:08:13.464                             : en:The Archer Home, "I got him Eve."01:42:28.892                             : en:A Visit From Special Ops: Sinclaire Revealed01:56:12.715                             : en:The Walsh Institute02:14:18.842                             : en:Failed Interrogations02:18:56.119                             : en:Suicide Mission

piratbit.ru

Скачать фильм Без лица через торрент в хорошем качестве бесплатно Blu-ray

piratbit.ru

Размер: 32.96 GB | Добавлен: 3 года 7 мес. назад | Торрент скачан:10 раз
Реклама Дарим 3000 рублей за регистрацию, не упусти свой шанс получить шикарный бонус!!!

12-03-2014 22:52 Без лица Скачать торрент  

Без лица / Face/Off

Год выпуска: 1997Страна: СШАЖанр: боевик, триллер, криминал,Продолжительность: 02:19:02Перевод: Дубляж+Профессиональный (многоголосый закадровый) [Киномания]+Профессиональный (многоголосый закадровый) [Карусель]+ Авторский (Гаврилов Андрей)+Оригинал

Субтитры: русские, украинские, английские

Режиссер: Джон Ву

В ролях: Джон Траволта, Николас Кейдж, Джоан Аллен, Алессандро Нивола, Джина Гершон, Доминик Суэйн, Ник Кассаветис, Харви Преснелл, Колм Фиор, Джон Кэрролл Линч,

Описание: Чтобы отомстить за жестокое убийство своего сына, агент ФБР Шон Арчер соглашается на сложную хирургическую операцию. Он берет себе новое лицо, лицо террориста Кастора Троя, который находится в коме.Однако происходит непредвиденное: Трой приходит в себя и исчезает в обличьи Арчера. Жизнь Шона превращается в настоящий кошмар — ему приходится сражаться не только за свою жизнь, но и за жизнь своей жены и дочери.

Качество: Blu-rayФормат: BDAVВидео кодек: H.264Аудио кодек: AC3Видео: MPEG-4 AVC, (1920x1080),24003 Кбит/с, 23976 кадра/секАудио#1: AC-3, 2 ch, 192 kbps (Rus) 48.0 KHz ДубляжАудио#2: AC-3, 6 ch, 448 kbps (Rus) 48.0 KHz Профессиональный (многоголосый закадровый) [Киномания]Аудио#3: DTS, 6 ch, 1509 Кбит/с (Rus) 48.0 KHz Профессиональный (многоголосый закадровый) [Карусель]Аудио#4: DTS, 6 ch, 1509 Кбит/с (Rus) 48.0 KHz Авторский (Гаврилов Андрей)Аудио#5: DTS, 6 ch, 1509 Кбит/с (Eng) 48.0 KHz Оригинал

Тип потока: ВидеоДлительность: 02:18:56Кодек: AVCКодек/описание: Advanced Video CodecКодек/профиль: [email protected]Кодек/ID: 27Кодек/CABAC: YesКодек/ReFrames: 4 framesРазмеры изображения: 1920 x 1080 (16:9)Частота кадров: 23.976 fpsБитрейт/тип: CBRСтандарт: NTSCЦветовое пространство: YUVТип развёртки: ProgressiveГлубина: 8 bits: Тип потока: Звук #1Язык: RussianДлительность: 02:19:07.360Кодек: AC-3Кодек/описание: Audio Coding 3Кодек/ID: 129Частота дискретизации: 48.0 KHzКаналов: 2 channelsБитрейт: 192 KbpsБитрейт/тип: ConstantРазмер потока: 191 MiB (1%)Глубина: 16 bitsМетод сжатия: Lossy: Тип потока: Звук #2Язык: RussianДлительность: 02:19:07.360Кодек: AC-3Кодек/описание: Audio Coding 3Кодек/ID: 129Частота дискретизации: 48.0 KHzКаналов: 6 channelsБитрейт: 448 KbpsБитрейт/тип: ConstantРазмер потока: 446 MiB (1%)Глубина: 16 bitsМетод сжатия: Lossy: Тип потока: Звук #3Язык: RussianДлительность: 02:19:07.360Кодек: DTSКодек/описание: Digital Theater SystemsКодек/профиль: MA / CoreРежим смешивания: Stream extensionКодек/ID: 134Частота дискретизации: 48.0 KHzКаналов: 6 channelsБитрейт: Unknown / 1 509 KbpsБитрейт/тип: VariableГлубина: 16 bitsМетод сжатия: Lossless / Lossy: Тип потока: Звук #4Язык: RussianДлительность: 02:19:07.360Кодек: DTSКодек/описание: Digital Theater SystemsКодек/профиль: MA / CoreРежим смешивания: Stream extensionКодек/ID: 134Частота дискретизации: 48.0 KHzКаналов: 6 channelsБитрейт: Unknown / 1 509 KbpsБитрейт/тип: VariableГлубина: 16 bitsМетод сжатия: Lossless / Lossy: Тип потока: Звук #5Язык: EnglishДлительность: 02:19:07.360Кодек: DTSКодек/описание: Digital Theater SystemsКодек/профиль: MA / CoreРежим смешивания: Stream extensionКодек/ID: 134Частота дискретизации: 48.0 KHzКаналов: 6 channelsБитрейт: Unknown / 1 509 KbpsБитрейт/тип: VariableГлубина: 16 bitsМетод сжатия: Lossless / Lossy: Тип потока: Субтитры #1Язык: RussianФормат: PGS: Тип потока: Субтитры #2Язык: UkrainianФормат: PGS: Тип потока: Субтитры #3Язык: EnglishФормат: PGS: Тип потока: Субтитры #4Язык: EnglishФормат: PGS

Скачать Без лица через торрент http://pic.pb.wtf/images/6/4rgi2.jpg Скачать фильм Без лица через торрент бесплантно в хорошем качестве Описание: Чтобы отомстить за жестокое убийство своего сына, агент ФБР Шон Арчер соглашается на сложную хирургическую операцию. Он берет ... 2014-03-12 22:52 9.9 10 11

Loading...

Loading...

Рекламный пират

Дорогой пользователь! Огромная просьба, поблагодарите релизера, оцените раздачу и оставьте свои комментарий, если Вы скачали Без лица через торрент бесплатно! Внесите свою лепту в развитие PiratBit!

Комментировать посты могут только пользователи прошедшие не сложную регистрацию

Без лица через торрент Скачать бесплатно Без лица Без лица скачать торрент Без лица смотреть онлайн Cкачать фильм Без лица бесплатно Без лица скачать торрент в хорошем качестве Без лица смотреть онлайн бесплатно в хорошем качестве

Вы не можете начинать темыВы не можете отвечать на сообщенияВы не можете редактировать свои сообщенияВы не можете удалять свои сообщенияВы не можете голосовать в опросахВы не можете прикреплять файлы к сообщениямВы можете скачивать файлы

Человек без лица 1993 - скачать бесплатно через торрент в хорошем качестве. Без регистрации

www.kinovit.net

Название: Человек без лица / The Man Without a Face (1993) HDRip от Шкипер | P
Качество видео: HDRip
Перевод: Профессиональный (многоголосый, закадровый)-(R5)
Видео: XviD 592x336 (1.76:1), 24.000 fps, XviD build 73 ~772 kbps avg, 0.162 bit/pixel
Аудио: 48 kHz, MPEG Layer 3, 2 ch, ~128.00 kbps avg
Скачать

Загрузка начнется в течение 5 сек.

746.82 MB

Название: Человек без лица / The Man Without a Face (1993) BDRip 720p от HQ-ViDEO | P
Качество видео: BDRip 720p (Source: BD-Remux)
Перевод: Русский профессиональный, многоголосый (R5) + Оригинальная, английская дорожка (Отдельно) + Авторский, одноголосый (А. Гаврилов) (Отдельно)
Видео: MKV, H.264 5059 kbps; 0.224 bit/pixel; 1280 x 720; 16:9; 24 fps
Аудио: AC3 Dolby Digital; 384.00 kbps, 6 Ch - MVOAC3 Dolby Digital; 224.00 kbps, 2 Ch - ENG (отдельно / скачать с Яндекс Диск)AC3 Dolby Digital; 192.00 kbps, 2 Ch - AVO Gavrilov (отдельно / скачать с Яндекс Диск)
Скачать

Загрузка начнется в течение 5 сек.

4.37 GB

Название: Человек без лица / The Man Without a Face (1993) BDRip от HQ-ViDEO | P
Качество видео: BDRip (Source: BDRemux)
Перевод: Русский профессиональный, многоголосый (R5) + Оригинальная, английская дорожка + Авторский, одноголосый (А. Гаврилов) (Отдельно)
Видео: XviD 1951 kbps; 0.29 bit/pixel; 704 x 400; 1.76:1; 24 fps
Аудио: AC3 Dolby Digital; 384.00 kbps, 6 Ch - MVOAC3 Dolby Digital; 384.00 kbps, 6 Ch - ENGAC3 Dolby Digital; 192.00 kbps, 2 Ch - AVO Gavrilov (отдельно / скачать с Яндекс Диск)
Скачать

Загрузка начнется в течение 5 сек.

2.18 GB

Название: Человек без лица / The Man Without a Face (1993) BDRip 1080p | Р, A
Качество видео: BDRip 1080p
Перевод: Профессиональный многоголосый, авторский
Видео: MPEG-4 AVC 1916x1080 24 fps, 10756 kbps
Аудио: Russian: AC3, 384 Kbps (6 ch) Профессиональный многоголосый (R5)
Скачать

Загрузка начнется в течение 5 сек.

9.54 GB

Название: Человек без лица / The Man without a Face (1993) BDRip-AVC | P, A
Качество видео: BDRip-AVC (BDRemux)
Формат видео: MKV
Видео: H.264 2666 Кбит/сек, 1136x640 (16:9), 24,000 кадра/сек
Аудио: AC3, 6 каналов, 384 Кбит/сек, CBR, 48,0 КГц (Русский, MVO)AC3, 6 каналов, 384 Кбит/сек, CBR, 48,0 КГц (Английский, оригинал)AC3, 2 канала, 192 Кбит/сек, CBR, 48,0 КГц (Русский, AVO)
Скачать

Загрузка начнется в течение 5 сек.

2.91 GB

Название: Человек без лица / The Man without a Face (1993) BDRip-AVC | P
Качество видео: BDRip-AVC (BDRemux)
Перевод: Профессиональный (Многоголосый закадровый) (R5)
Формат видео: MKV
Видео: H.264 H.264, 775 Кбит/сек, 720х400 (16:9), 24,000 кадра/сек
Аудио: AAC-LC, 2 канала, ~132 Кбит/сек, VBR, 48,0 КГц
Скачать

Загрузка начнется в течение 5 сек.

746.24 MB

Название: Человек без лица / The Man without a Face (1993) BDRip-AVC | P, A
Качество видео: BDRip-AVC (BDRemux)
Формат видео: MKV
Видео: H.264 1948 Кбит/сек, 1024x576 (16:9), 24,000 кадра/сек
Аудио: AC3, 6 каналов, 384 Кбит/сек, CBR, 48,0 КГц (Русский, MVO)AC3, 6 каналов, 384 Кбит/сек, CBR, 48,0 КГц (Английский, оригинал)AC3, 2 канала, 192 Кбит/сек, CBR, 48,0 КГц (Русский, AVO) | отдельно
Скачать

Загрузка начнется в течение 5 сек.

2.33 GB

Название: Человек без лица / The Man without a Face (1993) BDRemux | P, A
Качество видео: BDRemux
Формат видео: MKV
Видео: H.264 20,2 Мбит/сек, 1920x1080 (16:9), 24,000 кадра/сек
Аудио: AC3, 6 каналов, 384 Кбит/сек, CBR, 48,0 КГц (Английский, оригинал)AC3, 6 каналов, 384 Кбит/сек, CBR, 48,0 КГц (Русский, MVO)AC3, 2 канала, 224 Кбит/сек, CBR, 48,0 КГц (Английский, комментарии)AC3, 2 канала, 192 Кбит/сек, CBR, 48,0 КГц (Русский, AVO)
Скачать

Загрузка начнется в течение 5 сек.

17.90 GB

Название: Человек без лица / The Man Without a Face (1993) BDRip
Качество видео: BDRip - рип с Blu-ray disc 1080p
Перевод: Профессиональный (Многоголосый закадровый)
Видео: XviD 704x400 (1.76:1), 24 fps, XviD MPEG-4 ~1426 kbps avg, 0.21 bit/pixel
Аудио: 48 kHz, AC3 Dolby Digital, 3/2 (L,C,R,l,r) + LFE ch, ~384 kbps
Скачать

Загрузка начнется в течение 5 сек.

1.46 GB

Скачать лица в толпе через торрент в хорошем качестве скачать.

snr.vibro-flamingo.ru - причем, чем дольше вы будете заниматься, тем лучше станет мышечная память, и тем более эффективными будут упражнения. 6nk.7nebo-sport.ru - скриншоты фильма (для увеличения нажмите) трейлер фильма:     all rights reserved 2017 http://hokit.ru/ 2014 00:16 прямая ссылка просмотреть все рецензии комментатор подпишись на нашу группу вконтакте! nd5.natalia-isakova.ru - жанр : детектив , зарубежный фильм , криминал , триллер us de tag hd 1080 , tag hd 720 продолжительность : 01:46:04 обычно, если есть преступление, есть мотив. p6t.beerlib.ru - эффективность воздействия и достижение желаемых результатов упражнений для лица обусловлены дополнительным использованием во время занятий специализированных кремов, разработанных под методику в научно-исследовательской лаборатории (россия). 5mw.tofata.pp.ua - мы все прекрасно знаем, как меняется наше тело благодаря определенным нагрузкам: оно становится упругим, подтянутым, исчезает дряблость кожи, оттачиваются четкие и красивые формы и т.д. lia.agro-trading.org - гимнастика для лица авторская методика омоложения лица и шеи youngfaces- год выпуска: 2009 страна: россия жанр: фитнес для лица продолжительность: указано отдельно язык: русский описание: как говорят на востоке, красивое лицо – это подарок судьбы тому, кто им обладает, но и не меньший подарок тому, кто на него смотрит. hmi.xn----ctbabhijfcg6brdcfcrytf.xn--p1ai - но кто-то более сильный и могущественный, кто-то, чье имя пугает всех преступников мира, хочет, чтобы они поработали на него… это не было обычным преступлением, и они — не просто подозрительные лица… великолепная режиссура и актерская игра, прекрасный сценарий и две премии «оскар» подтверждают мнение критиков, что «подозрительные лица» — один из лучших триллеров всех времен и народов. xlg.koordinator33.ru - искать эту раздачу на других открытых трекерах уважаемый пользователь нашего сайта! gki.a17sklad.ru - однако мало кто задумывается над тем, что тоже самое может происходить и с нашим лицом, причем значительно быстрее, чем мы предполагаем. nf2.a-beton.biz - сохранить этот дар, значит, сохранить не только красоту лица, но и легкость, уверенность и волшебное ощущение от осознания красоты.

www.0700874.xn--80aalwqglfe.xn--p1acf | www.9617183.xn--80aalwqglfe.xn--p1acf | www.7310726.xn--80aalwqglfe.xn--p1acf | www.4829611.xn--80aalwqglfe.xn--p1acf | www.2076808.xn--80aalwqglfe.xn--p1acf |

Скачать фильм без лица / face/off (1997) bdrip через торрент

Методика youngfaces имеет все необходимые сертификаты, свидетельства, авторские права и прокатное удостоверение. 2013 03:21 прямая ссылка просмотреть все рецензии милин подпишись на нашу группу вконтакте! Но это не было обычным преступлением… пятеро преступников столкнулись в одном необычном месте и решили прокрутить одно дельце. Жанр : боевик , зарубежный фильм , криминал , триллер , фантастика us tag hd 1080 , tag hd 720 продолжительность : 02:18 когда сын одного из агентов фбр шона арчера погибает от руки террористов, шон соглашается на сложнейшую хирургическую операцию, в результате которой он обретает новое лицо. Жизнь шона превращается в настоящий кошмар - ему приходится сражаться не только за свою жизнь, но и за жизнь своей жены и дочери.

Лица в толпе (2011) скачать торрент бесплатно

(дата: 2012. gamesandfilms игры для пк торрент игры от первого лица страница 4.) как cкачать через торрент? какое качество видео лучше?)

Видео состоит из трех разделов: - рассказ о методике youngfaces, ее составляющих и уникальности. Жанр : детектив , криминал , русский сериал ru tag завершён продолжительность : 5 х 00:45:11 марии красновой немного за тридцать. Ready for the big ride, bubba когда сын одного из агентов фбр шона арчера погибает от руки террористов, шон соглашается на сложнейшую хирургическую операцию, в результате которой он обретает новое лицо. Уникальность методики youngfaces заключается, прежде всего, в простоте изучения программы и дальнейшего использования - доступный видеокурс позволяет свести к минимуму возможность неправильного выполнения упражнений. На сегодняшний день у подавляющего большинства людей не возникает сомнений о необходимости и эффективности физических упражнений с мышцами тела. To help support the investigation, you can pull the corresponding error log from your web server and submit it our support team. Она совсем не запоминает лица людей, и как только они исчезают из ее поля зрения, они стираются из ее памяти навсегда. 2013 23:34 прямая ссылка просмотреть все рецензии taras_7777 подпишись на нашу группу вконтакте!

qvv.saynobody.ru


Смотрите также