Скачать бесплатно виктор франкенштейн через торрент в хорошем качестве


Скачать фильм Виктор Франкенштейн через торрент в хорошем качестве бесплатно 720p) DUB iTunes

Формат : MatroskaВерсия формата : Version 2Размер файла : 3,77 ГбайтПродолжительность : 1 ч. 50 м.Общий поток : 4890 Кбит/секДата кодирования : UTC 2016-02-18 19:31:30Программа кодирования : mkvmerge v8.3.0 ('Over the Horizon') 64bitБиблиотека кодирования : libebml v1.3.1 + libmatroska v1.4.2

Видео #1Идентификатор : 2Формат : AVCФормат/Информация : Advanced Video CodecПрофиль формата : [email protected]Параметр CABAC формата : НетПараметр ReFrames формата : 2 кадраИдентификатор кодека : V_MPEG4/ISO/AVCПродолжительность : 1 ч. 50 м.Ширина : 1280 пикселейВысота : 528 пикселейСоотношение сторон : 2,40:1Режим частоты кадров : ПостоянныйЧастота кадров : 23,976 кадра/секЦветовое пространство : YUVСубдискретизация насыщенности : 4:2:0Битовая глубина : 8 битТип развёртки : ПрогрессивнаяЯзык : EnglishDefault : ДаForced : НетЦветовой диапазон : LimitedОсновные цвета : BT.709Характеристики трансфера : BT.709Коэффициенты матрицы : BT.709

Видео #2Идентификатор : 3Формат : V_QUICKTIMEИдентификатор кодека : V_QUICKTIMEШирина : 640 пикселейВысота : 264 пикселяСоотношение сторон : 2,40:1Режим частоты кадров : ПостоянныйDefault : НетForced : Нет

Аудио #1Идентификатор : 1Формат : AACФормат/Информация : Advanced Audio CodecПрофиль формата : LCИдентификатор кодека : A_AACПродолжительность : 1 ч. 50 м.Каналы : 2 каналаРасположение каналов : Front: L RЧастота : 48,0 КГцЧастота кадров : 46,875 кадров/сек (1024 spf)Метод сжатия : С потерямиЯзык : RussianDefault : НетForced : Нет

Аудио #2Идентификатор : 4Формат : AC-3Формат/Информация : Audio Coding 3Расширение режима : CM (complete main)Параметр Endianness формата : BigИдентификатор кодека : A_AC3Продолжительность : 1 ч. 50 м.Вид битрейта : ПостоянныйБитрейт : 384 Кбит/секКаналы : 6 каналовРасположение каналов : Front: L C R, Side: L R, LFEЧастота : 48,0 КГцЧастота кадров : 31,250 кадров/сек (1536 spf)Метод сжатия : С потерямиРазмер потока : 303 Мбайт (8%)Язык : RussianDefault : ДаForced : Нет

Аудио #3Идентификатор : 5Формат : AACФормат/Информация : Advanced Audio CodecПрофиль формата : LCИдентификатор кодека : A_AACПродолжительность : 1 ч. 50 м.Каналы : 2 каналаРасположение каналов : Front: L RЧастота : 48,0 КГцЧастота кадров : 46,875 кадров/сек (1024 spf)Метод сжатия : С потерямиЯзык : EnglishDefault : НетForced : Нет

Аудио #4Идентификатор : 6Формат : AACФормат/Информация : Advanced Audio CodecПрофиль формата : LCИдентификатор кодека : A_AACПродолжительность : 1 ч. 50 м.Каналы : 2 каналаРасположение каналов : Front: L RЧастота : 48,0 КГцЧастота кадров : 46,875 кадров/сек (1024 spf)Метод сжатия : С потерямиЯзык : UkrainianDefault : НетForced : Нет

Меню00:00:00.000 : en:100:04:06.000 : en:200:08:05.000 : en:300:11:13.000 : en:400:15:18.000 : en:500:18:56.000 : en:600:22:24.000 : en:700:26:04.000 : en:800:28:56.000 : en:900:31:59.000 : en:1000:35:58.000 : en:1100:41:07.000 : en:1200:46:13.000 : en:1300:51:44.000 : en:1400:56:38.000 : en:1500:59:50.000 : en:1601:02:32.000 : en:1701:06:52.000 : en:1801:11:19.000 : en:1901:15:08.000 : en:2001:18:04.000 : en:2101:21:00.000 : en:2201:25:14.000 : en:2301:28:11.000 : en:2401:33:28.000 : en:2501:37:44.000 : en:2601:41:25.000 : en:2701:43:27.000 : en:28

piratbit.ru

Скачать фильм Виктор Франкенштейн через торрент в хорошем качестве бесплатно BDRip от Twi7ter

piratbit.ru

Размер: 1.46 GB | Добавлен: 1 год 7 мес. назад | Торрент скачан:746 раз
Реклама Дарим 3000 рублей за регистрацию, не упусти свой шанс получить шикарный бонус!!!

09-03-2016 05:02 Виктор Франкенштейн Скачать торрент  

Виктор Франкенштейн / Victor Frankenstein

«Монстр создал монстра»

Год выпуска: 2015Страна: СШАЖанр: ужасы, фантастика, драмаПродолжительность: 01:49:49Перевод: Профессиональный (полное дублирование) [Лицензия]Субтитры: НетРежиссер: Пол МакГиган / Paul McGuiganВ ролях: Дэниэл Рэдклифф (Igor), Джессика Браун-Финдли (Lorelei), Бронсон Уэбб (Rafferty), Джеймс МакЭвой (Victor Frankenstein), Дэниэл Мейс (Barnaby), Спенсер Уидлинг (Nathaniel / Prometheus 2), Робин Пирс (Baron Bomine), Эндрю Скотт (Inspector Turpin), Каллум Тернер (Alistair), Ди Ботчер (Older Nun), Ив Понсонби (Orderly), Уилл Кин (Surgeon)Описание: Новый взгляд на фантастическую историю Виктора Франкенштейна, на этот раз - с точки зрения его помощника Игоря.Рейтинг:

MPAA: PG-13 - Детям до 13 лет просмотр не желателен

Качество: BDRip | исх. VICTOR_FRANKENSTEIN_REMUX_HDCLUB |Формат: AVIВидео кодек: XviDАудио кодек: AC3Видео: 720x304 (2.37:1), 23.976 fps, XviD build 73 ~1447 kbps avg, 0.28 bit/pixelАудио: 48 kHz, AC3 Dolby Digital, 3/2 (L,C,R,l,r) + LFE ch, ~448 kbps

Релиз:

Скачать Виктор Франкенштейн через торрент http://s020.radikal.ru/i700/1602/96/452795414146.png Скачать фильм Виктор Франкенштейн через торрент бесплантно в хорошем качестве Описание: Новый взгляд на фантастическую историю Виктора Франкенштейна, на этот раз - с точки зрения его помощника Игоря.Рейтинг: MPAA: ... 2016-03-09 05:02 9.5 10 10

Loading...

Loading...

% Раздел Тема Автор DL S | L
Фильмы 2015 [DVDrip, WEB-DLRip, HDrip] [ 1.46 GB ] Виктор Франкенштейн / Victor Frankenstein (2015 WEB-DLRip] Dub Twi7ter Скачать
Фильмы [HD 720p, 1080p] (Хороший звук DUB, MVO) [ 4.37 GB ] Виктор Франкенштейн / Victor Frankenstein [2015 BDRip 720p] DUB potroks Скачать
Фильмы (Blu-ray, BD-Remux, HDDVD) [ 45.74 GB ] Виктор Франкенштейн / Victor Frankenstein [2015 Blu-Ray EUR] DUB Russian Mafia Скачать
Фильмы 2015 [DVDrip, WEB-DLRip, HDrip] [ 744 MB ] Виктор Франкенштейн / Victor Frankenstein [2015 HDRip by _Один_777] Dub () Один 777 Скачать
Фильмы (Blu-ray, BD-Remux, HDDVD) [ 28.59 GB ] Виктор Франкенштейн / Victor Frankenstein [2015 BDRemux 1080p] DUB Russian Mafia Скачать
Фильмы 2015 [DVDrip, WEB-DLRip, HDrip] [ 2.18 GB ] Виктор Франкенштейн / Victor Frankenstein [2015 BDRip-AVC] DUB potroks Скачать
Фильмы 2015 [DVDrip, WEB-DLRip, HDrip] [ 1.46 GB ] Виктор Франкенштейн / Victor Frankenstein [2015 BDRip-AVC] DUB potroks Скачать

Рекламный пират

Дорогой пользователь! Огромная просьба, поблагодарите релизера, оцените раздачу и оставьте свои комментарий, если Вы скачали Виктор Франкенштейн через торрент бесплатно! Внесите свою лепту в развитие PiratBit!

Комментировать посты могут только пользователи прошедшие не сложную регистрацию

Виктор Франкенштейн через торрент Скачать бесплатно Виктор Франкенштейн Виктор Франкенштейн скачать торрент Виктор Франкенштейн смотреть онлайн Cкачать фильм Виктор Франкенштейн бесплатно Виктор Франкенштейн скачать торрент в хорошем качестве Виктор Франкенштейн смотреть онлайн бесплатно в хорошем качестве

Вы не можете начинать темыВы не можете отвечать на сообщенияВы не можете редактировать свои сообщенияВы не можете удалять свои сообщенияВы не можете голосовать в опросахВы не можете прикреплять файлы к сообщениямВы можете скачивать файлы

Скачать фильм Виктор Франкенштейн через торрент в хорошем качестве бесплатно BDRip-AVC от potroks

Общее Уникальный идентификатор : 235378618875618203058481101900623427750 (0xB11445E5B1BB81E4AB963602C6F4B8A6) Полное имя : \Viktor.Frankenshteyn.2015.RUS.BDRip.x264.-HELLYWOOD.mkv Формат : Matroska Версия формата : Version 4 / Version 2 Размер файла : 1,46 Гбайт Продолжительность : 1 ч. 49 м. Общий поток : 1904 Кбит/сек Название фильма : Victor Frankenstein (2015) - HELLYWOOD Дата кодирования : UTC 2016-03-09 07:50:49 Программа кодирования : mkvmerge v5.9.0 ('On The Loose') built on Dec 15 2012 16:39:58 Библиотека кодирования : libebml v1.3.0 + libmatroska v1.4.0

Видео Идентификатор : 1 Формат : AVC Формат/Информация : Advanced Video Codec Профиль формата : [email protected] Параметр CABAC формата : Да Параметр ReFrames формата : 12 кадров Идентификатор кодека : V_MPEG4/ISO/AVC Продолжительность : 1 ч. 49 м. Битрейт : 1456 Кбит/сек Ширина : 1008 пикселей Высота : 420 пикселей Соотношение сторон : 2,40:1 Режим частоты кадров : Постоянный Частота кадров : 23,976 кадра/сек Цветовое пространство : YUV Субдискретизация насыщенности : 4:2:0 Битовая глубина : 8 бит Тип развёртки : Прогрессивная Бит/(Пиксели*Кадры) : 0.143 Размер потока : 1,09 Гбайт (74%) Заголовок : potroks Библиотека кодирования : x264 core 148 r2665M a01e339 Настройки программы : cabac=1 / ref=12 / deblock=1:-2:-2 / analyse=0x3:0x133 / me=umh / subme=11 / psy=1 / psy_rd=1.00:0.10 / mixed_ref=1 / me_range=48 / chroma_me=1 / trellis=2 / 8x8dct=1 / cqm=0 / deadzone=21,11 / fast_pskip=0 / chroma_qp_offset=-3 / threads=9 / lookahead_threads=2 / sliced_threads=0 / nr=0 / decimate=1 / interlaced=0 / bluray_compat=0 / constrained_intra=0 / bframes=13 / b_pyramid=2 / b_adapt=2 / b_bias=0 / direct=3 / weightb=1 / open_gop=0 / weightp=2 / keyint=240 / keyint_min=23 / scenecut=40 / intra_refresh=0 / rc=2pass / mbtree=0 / bitrate=1456 / ratetol=1.0 / qcomp=0.70 / qpmin=0 / qpmax=69 / qpstep=4 / cplxblur=20.0 / qblur=0.5 / ip_ratio=1.40 / pb_ratio=1.30 / aq=1:0.80 Язык : English Default : Да Forced : Нет

Аудио Идентификатор : 2 Формат : AC-3 Формат/Информация : Audio Coding 3 Расширение режима : CM (complete main) Параметр Endianness формата : Big Идентификатор кодека : A_AC3 Продолжительность : 1 ч. 49 м. Вид битрейта : Постоянный Битрейт : 448 Кбит/сек Каналы : 6 каналов Расположение каналов : Front: L C R, Side: L R, LFE Частота : 48,0 КГц Метод сжатия : С потерями Размер потока : 352 Мбайт (24%) Заголовок : Dub | DD 5.1 @ 448 kbps - Blu-Ray CEE Язык : Russian Default : Да Forced : Нет

Текст #1 Идентификатор : 3 Формат : UTF-8 Идентификатор кодека : S_TEXT/UTF8 Идентификатор кодека/Информация : UTF-8 Plain Text Заголовок : Forced [potroks] Язык : Russian Default : Да Forced : Нет

Текст #2 Идентификатор : 4 Формат : UTF-8 Идентификатор кодека : S_TEXT/UTF8 Идентификатор кодека/Информация : UTF-8 Plain Text Заголовок : Forced [iTunes] Язык : Russian Default : Нет Forced : Нет

Текст #3 Идентификатор : 5 Формат : UTF-8 Идентификатор кодека : S_TEXT/UTF8 Идентификатор кодека/Информация : UTF-8 Plain Text Заголовок : iTunes Язык : Russian Default : Нет Forced : Нет

Меню 00:00:00.000 : en:(01)00:00:00:000 00:04:07.372 : en:(02)00:04:07:372 00:08:06.903 : en:(03)00:08:06:903 00:11:14.673 : en:(04)00:11:14:673 00:15:20.376 : en:(05)00:15:20:376 00:18:58.554 : en:(06)00:18:58:554 00:22:27.261 : en:(07)00:22:27:261 00:26:06.855 : en:(08)00:26:06:855 00:28:59.237 : en:(09)00:28:59:237 00:32:02.377 : en:(10)00:32:02:377 00:36:01.449 : en:(11)00:36:01:449 00:41:11.427 : en:(12)00:41:11:427 00:46:17.690 : en:(13)00:46:17:690 00:51:48.480 : en:(14)00:51:48:480 00:56:42.690 : en:(15)00:56:42:690 00:59:55.507 : en:(16)00:59:55:507 01:02:37.586 : en:(17)01:02:37:586 01:06:57.179 : en:(18)01:06:57:179 01:11:25.197 : en:(19)01:11:25:197 01:15:14.051 : en:(20)01:15:14:051 01:18:10.350 : en:(21)01:18:10:350 01:21:06.278 : en:(22)01:21:06:278 01:25:20.488 : en:(23)01:25:20:488 01:28:17.542 : en:(24)01:28:17:542 01:33:35.274 : en:(25)01:33:35:274 01:37:51.782 : en:(26)01:37:51:782 01:41:32.920 : en:(27)01:41:32:920 01:43:34.373 : en:(28)01:43:34:373 01:49:49.623 : en:(29)01:49:49:623

piratbit.ru

/ Victor Frankenstein ( / Paul McGuigan) [2015, , , , , BDRip 720p] iTunes

: 253988761415618696433123889442974318312 (0xBF1474C3F0CC461A98E6FFC1250BBEE8) : D:FilmVictor Frankenstein.2015.BDRip.720p.mkv : Matroska : Version 2 : 5,76 : 1 . 49 . : 7505 / : UTC 2016-02-25 21:19:09 : mkvmerge v4.0.0 ('The Stars were mine') Jun 6 2010 16:18:42 : libebml v1.0.0 + libmatroska v1.0.0 : 1 : AVC / : Advanced Video Codec : [email protected] CABAC : ReFrames : 5 : V_MPEG4/ISO/AVC : 1 . 49 . : 5613 / : 1280 : 536 : 2,40:1 : : 23,976 / : YUV : 4:2:0 : 8 : /(*) : 0.341 : 4,19 (73%) : x264 core 148 r2665 a01e339 : cabac=1 / ref=5 / deblock=1:0:0 / analyse=0x3:0x133 / me=umh / subme=7 / psy=1 / psy_rd=1.00:0.00 / mixed_ref=1 / me_range=16 / chroma_me=1 / trellis=1 / 8x8dct=1 / cqm=0 / deadzone=21,11 / fast_pskip=0 / chroma_qp_offset=-2 / threads=12 / lookahead_threads=2 / sliced_threads=0 / nr=0 / decimate=1 / interlaced=0 / bluray_compat=0 / constrained_intra=0 / bframes=3 / b_pyramid=2 / b_adapt=1 / b_bias=0 / direct=1 / weightb=1 / open_gop=0 / weightp=2 / keyint=250 / keyint_min=23 / scenecut=40 / intra_refresh=0 / rc_lookahead=40 / rc=2pass / mbtree=1 / bitrate=5613 / ratetol=1.0 / qcomp=0.60 / qpmin=0 / qpmax=69 / qpstep=4 / cplxblur=20.0 / qblur=0.5 / ip_ratio=1.40 / aq=1:1.00 : English Default : Forced :

#1

: 2 : AC-3 / : Audio Coding 3 : CM (complete main) Endianness : Big : A_AC3 : 1 . 49 . : : 384 / : 6 : Front: L C R, Side: L R, LFE : 48,0 : 31,250 / (1536 spf) : : 302 (5%) : DUB ITunes : Russian Default : Forced :

#2

: 3 : DTS / : Digital Theater Systems : ES Matrix / Core : 16 Endianness : Big : A_DTS : 1 . 49 . : : 1509 / : 7 / 6 : Front: L C R, Side: L R, Back: C, LFE / Front: L C R, Side: L R, LFE : 48,0 : 93,750 / (512 spf) : 24 : : 11 . : 1,16 (20%) : English Default : Forced :

#1

: 4 : UTF-8 : S_TEXT/UTF8 / : UTF-8 Plain Text : Full : Russian Default : Forced :

#2

: 5 : UTF-8 : S_TEXT/UTF8 / : UTF-8 Plain Text : Full : English Default : Forced : 00:00:00.000 : en:00:00:00.000 00:04:07.372 : en:00:04:07.372 00:08:06.903 : en:00:08:06.903 00:11:14.674 : en:00:11:14.674 00:15:20.378 : en:00:15:20.378 00:18:58.554 : en:00:18:58.554 00:22:27.263 : en:00:22:27.263 00:26:06.857 : en:00:26:06.857 00:28:59.237 : en:00:28:59.237 00:32:02.379 : en:00:32:02.379 00:36:01.451 : en:00:36:01.451 00:41:11.427 : en:00:41:11.427 00:46:17.692 : en:00:46:17.692 00:51:48.480 : en:00:51:48.480 00:56:42.691 : en:00:56:42.691 00:59:55.509 : en:00:59:55.509 01:02:37.587 : en:01:02:37.587 01:06:57.180 : en:01:06:57.180 01:11:25.198 : en:01:11:25.198 01:15:14.051 : en:01:15:14.051 01:18:10.352 : en:01:18:10.352 01:21:06.278 : en:01:21:06.278 01:25:20.490 : en:01:25:20.490 01:28:17.542 : en:01:28:17.542 01:33:35.276 : en:01:33:35.276 01:37:51.783 : en:01:37:51.783 01:41:32.920 : en:01:41:32.920 01:43:34.375 : en:01:43:34.375

unionpeer.com


Смотрите также