Скачать бесплатно патруль времени через торрент бесплатно в хорошем качестве


Скачать фильм Патруль времени (2013) через торрент

25 февраля 2016 12:51 Патруль времени / Predestination (2013) BDRip 720p от HELLYWOOD | D, P, A .torrent   [Информация о файле (нажмите для просмотра)] Перевод: Дубляж [лицензия BD RUS], Профессиональный многоголосый [BaibaKo], Авторский (одноголосый) [А.Гаврилов, Д.Есарев]Субтитры: русские, английскиеКачество: BDRip 720pФормат: MKVВидео: AVC, 1280x534 (2.40:1), 5229 kbps, 23,976 fps, 0,319 bppАудио №1: AC3 / 5.1 / 48 kHz / 640 kbps / 16 bit| DUB - Blu-Ray RUSАудио №2: AC3 / 5.1 / 48 kHz / 640 kbps / 16 bit| MVO - BaibaKoАудио №3: AC3 / 5.1 / 48 kHz / 640 kbps / 16 bit| AVO - А.ГавриловАудио №4: AC3 / 5.1 / 48 kHz / 640 kbps / 16 bit| AVO - Д.Есарев / ценз.Аудио №5: AC3 / 5.1 / 48 kHz / 640 kbps / 16 bit| ENG 5,76 Gb 92 17 25 февраля 2016 12:51 Патруль времени / Predestination (2014) Blu-Ray | Rus Transfer | Лицензия .torrent   [Информация о файле (нажмите для просмотра)] Перевод: Профессиональный (полное дублирование)Кодек: MPEG-4 AVCКачество: Blu-Ray (1080p)Видео: 1920x1080 ~ 21998 kbps / 24 fps /Аудио#1: RussianАудио#2: RussianСубтитры: Нет 18,22 Gb 22 4 25 февраля 2016 12:51 Патруль времени / Predestination (2014) BDRip 720p от Leonardo | iPad .torrent   [Информация о файле (нажмите для просмотра)] Перевод: Авторский (одноголосый, закадровый) Д. ЕсаревКодек: H.264/AVCФормат: MP4 (контейнер m4v)Видео: AVC, 1280x534 (2.40:1) at 23.976 fps, AVC at 3288 kbps avg, 0.201 bit/pixelВидео: AVC, 1280x534 (2.35:1), 23.976 fps, 3 379 Kbps (0.206 bit/pixel)Аудио: AAC LC, 48.0 KHz, 2 ch, 91.9 Kbps, VBR (Russian)Субтитры: EnglishВидео: Идентификатор : 1 Формат : AVC Формат/Информация : Advanced Video Codec Профиль формата : [email protected] Параметр CABAC формата : Да Параметр ReFrames формата : 9 кадров Идентификатор кодека : avc1 Идентификатор кодека/Информация : Advanced Video Coding Продолжительность : 1 ч. 37 м. Битрейт : 3379 Кбит/сек Максимальный битрейт : 13,4 Мбит/сек Ширина : 1280 пикселей Высота : 534 пикселя Соотношение сторон : 2,40:1 Режим частоты кадров : Постоянный Частота кадров : 23,976 кадра/сек Цветовое пространство : YUV Субдискретизация насыщенности : 4:2:0 Битовая глубина : 8 бит Тип развёртки : Прогрессивная Бит/(Пиксели*Кадры) : 0.206 Размер потока : 2,31 Гбайт (97%) Библиотека кодирования : x264 core 125 r2208 d9d2288 Настройки программы : cabac=1 / ref=9 / deblock=1:-3:-3 / analyse=0x3:0x133 / me=umh / subme=11 / psy=1 / psy_rd=1.00:0.00 / mixed_ref=1 / me_range=32 / chroma_me=1 / trellis=2 / 8x8dct=1 / cqm=0 / deadzone=21,11 / fast_pskip=0 / chroma_qp_offset=-2 / threads=12 / lookahead_threads=2 / sliced_threads=0 / nr=0 / decimate=1 / interlaced=0 / bluray_compat=0 / constrained_intra=0 / bframes=8 / b_pyramid=2 / b_adapt=2 / b_bias=0 / direct=1 / weightb=1 / open_gop=0 / weightp=2 / keyint=250 / keyint_min=23 / scenecut=40 / intra_refresh=0 / rc=crf / mbtree=0 / crf=17.5 / qcomp=0.60 / qpmin=0 / qpmax=69 / qpstep=4 / ip_ratio=1.10 / pb_ratio=1.10 / aq=1:1.00 Язык : English Дата кодирования : UTC 2015-08-19 10:33:00 Дата пометки : UTC 2015-08-19 10:34:21 Аудио: Идентификатор : 2 Формат : AAC Формат/Информация : Advanced Audio Codec Профиль формата : LC Идентификатор кодека : 40 Продолжительность : 1 ч. 37 м. Вид битрейта : Переменный Битрейт : 91,9 Кбит/сек Максимальный битрейт : 143 Кбит/сек Каналы : 2 канала Расположение каналов : Front: L R Частота : 48,0 КГц Метод сжатия : С потерями Размер потока : 64,3 Мбайт (3%) Язык : Russian Дата кодирования : UTC 2015-08-19 10:27:59 Дата пометки : UTC 2015-08-19 10:34:21 2,38 Gb 24 2 25 февраля 2016 12:51 Патруль времени / Predestination (2014) BDRip от HQCLUB | Лицензия .torrent   [Информация о файле (нажмите для просмотра)] Перевод: Профессиональный (полное дублирование) BD RUSСубтитры: русские, английскиеФормат: AVIКачество: BDRip (источник:Видео: 720x304 (2.37:1), 23.976 fps, XviD build 65 ~1733 kbps avg, 0.33 bit/pixelАудио #1: 48 kHz, AC3 Dolby Digital, 3/2 (L,C,R,l,r) + LFE ch, ~384 kbps avg (DUB)Аудио #2: 48 kHz, AC3 Dolby Digital, 3/2 (L,C,R,l,r) + LFE ch, ~384 kbps avg (UKR.MVO.OMIKRON)(отдельно)Аудио #3: 48 kHz, AC3 Dolby Digital, 3/2 (L,C,R,l,r) + LFE ch, ~384 kbps avg (MVO.BAIBAKO)(отдельно)Аудио #4: 48 kHz, AC3 Dolby Digital, 3/2 (L,C,R,l,r) + LFE ch, ~384 kbps avg (AVO.GAVRILOV)(отдельно)Аудио #5: 48 kHz, AC3 Dolby Digital, 3/2 (L,C,R,l,r) + LFE ch, ~384 kbps avg (VO.ESAREV.UNCENSORED)(отдельно)Аудио #6: 48 kHz, AC3 Dolby Digital, 3/2 (L,C,R,l,r) + LFE ch, ~384 kbps avg (VO.ESAREV.CENSOR)(отдельно)Аудио #7: 48 kHz, AC3 Dolby Digital, 3/2 (L,C,R,l,r) + LFE ch, ~384 kbps avg (ENG)(отдельно) 1,45 Gb 450 10 25 февраля 2016 12:51 Патруль времени / Predestination (2014) BDRip | Гаврилов .torrent   [Информация о файле (нажмите для просмотра)] Перевод: Авторский (одноголосый, закадровый)А.Ю.ГавриловСубтитры: ОтсутствуютКачество: BDRipВидео: MPEG4, XviD, 720x304 (2.35:1), 23.976 fps, 1 682 Kbps (0.320 bit/pixel)Аудио: AC3, 48.0 KHz, 6 ch, 448 Kbps, CBR 1,46 Gb 6 5 25 февраля 2016 12:51 Патруль времени / Predestination (2014) BDRip от HQ-ViDEO | Лицензия .torrent   [Информация о файле (нажмите для просмотра)] Перевод: Дублированный|BD RUS|Субтитры: Русские, Английские.Формат: AVIКачество: BDRip (источник: BLUEBIRD /BD-Remux / 1080p)Кодек: XviD, build 65 codecВидео: 720 x 304; 23.976 fps; 1678 kbps; 0.320 bit/pixelАудио: AC3 Dolby Digital; 448 Kbps; 6 channels; 48 KHz|все дорожки| 1,46 Gb 94 5 25 февраля 2016 12:51 Патруль времени / Predestination (2014) BDRip 720p | KinoGadget | iPad .torrent   [Информация о файле (нажмите для просмотра)] Перевод: ДублированныйКачество: BDRip 720pФормат: mp4 999 Mb 10 1 25 февраля 2016 12:51 Патруль времени / Predestination (2014) BDRip 720p от Leonardo and Scarabey | Лицензия .torrent   [Информация о файле (нажмите для просмотра)] Перевод: Профессиональный (полное дублирование) ЛицензияФормат: MKVВидео кодек: MPEG-4 AVC Аудио кодек: AC3Видео: 1280x534 (2.40:1) at 23.976 fps, 3288 kbps avg, 0.201 bit/pixelАудио: 48 kHz; AC3 Dolby Digital; 3/2 (L,C,R,l,r) + LFE ch; 640 kbps avgСубтитры: Русские, английские 2,75 Gb 223 13 25 февраля 2016 12:51 Патруль времени / Predestination (2013) BDRip 1080p от MediaClub | D, L, A .torrent   [Информация о файле (нажмите для просмотра)] Перевод: Дублированный, любительский многоголосый, авторскийКодек: x264Качество: BDRip 1080pВидео: MPEG-4 AVC, 8500 Кбит/сек, 1920x800, 23.976 кадр/сЗвук: Аудио #1: Русский (AC3, 6 ch, 640 Кбит/с) / ДублированныйАудио #2: Русский (AC3, 6 ch, 640 Кбит/с) / Любительский многоголосый (BaiBaKo)Аудио #3: Русский (AC3, 6 ch, 640 Кбит/с) / Авторский одноголосый (Дмитрий Есарев - без цензуры)Аудио #4: Русский (AC3, 6 ch, 640 Кбит/с) / Авторский одноголосый (Дмитрий Есарев - цензурный)Аудио #5: Английский (AC3, 6 ch, 640 Кбит/с)Субтитры: Русские, английские 8,04 Gb 35 10 25 февраля 2016 12:51 Патруль времени 2D, 3D / Predestination 2D, 3D (2014) BDRemux 1080p от ExKinoRay | 3D-Video | D, L | Лицензия .torrent   [Информация о файле (нажмите для просмотра)] Качество: Blu-Ray Remux (1080p)Видео: MPEG-4 AVC, 15157 Кбит/с, 1920x1080, 23.976 Кадр/сАудио: Русский (AC3, 6 ch, 640 Кбит/с), (DTS, 6 ch, 1509 Кбит/с), (DTS-HD MA, 6 ch, 2106 Кбит/с), английский (DTS-HD MA, 6 ch, 1498 Кбит/с),Перевод: Дублированный, профессиональный многоголосыйСубтитры: Русские 21,4 Gb 10 6 25 февраля 2016 12:51 Патруль времени / Predestination (2014) BDRip 720p от Hot-Film | D, A .torrent   [Информация о файле (нажмите для просмотра)] Перевод: Дублированный (профессиональный) [Лицензия]; Авторский (одноголосый) [Дмитрий Есарев (цензура / без цензуры)]Качество: BDRip 720pВидео: MPEG-4 AVC, 2031 Кбит/с, 1280х534Аудио: Русский, английский (AC3, 6 ch, 640 Кбит/с)Субтитры: Русские, английские 3,14 Gb 4 6 25 февраля 2016 12:51 Патруль времени / Predestination (2014) BDRip 1080p | Лицензия .torrent   [Информация о файле (нажмите для просмотра)] Качество: BDRip (1080p)Видео: MPEG-4 AVC, 10.1 Мбит/с, 1920x800Аудио: Русский, английский (AC3, 6 ch, 640 Кбит/с - ЛИЦЕНЗИЯ), русский (AC3, 6 ch, 448 Кбит/с - Авторский (одноголосый закадровый) [Д.Есарев])Перевод: Дублированный [ЛИЦЕНЗИЯ], авторскийВидео: Идентификатор : 1 Формат : AVC Формат/Информация : Advanced Video Codec Профиль формата : [email protected] Параметр CABAC формата : Да Параметр ReFrames формата : 5 кадров Идентификатор кодека : V_MPEG4/ISO/AVC Продолжительность : 1 ч. 37 м. Битрейт : 10,1 Мбит/сек Ширина : 1920 пикселей Высота : 800 пикселей Соотношение сторон : 2,40:1 Режим частоты кадров : Постоянный Частота кадров : 23,976 кадра/сек Цветовое пространство : YUV Субдискретизация насыщенности : 4:2:0 Битовая глубина : 8 бит Тип развёртки : Прогрессивная Бит/(Пиксели*Кадры) : 0.274 Размер потока : 6,72 Гбайт (83%) Библиотека кодирования : x264 core 142 r2431 ac76440 Настройки программы : cabac=1 / ref=5 / deblock=1:-3:-3 / analyse=0x3:0x113 / me=umh / subme=10 / psy=1 / psy_rd=1.00:0.05 / mixed_ref=1 / me_range=32 / chroma_me=1 / trellis=2 / 8x8dct=1 / cqm=0 / deadzone=21,11 / fast_pskip=0 / chroma_qp_offset=-2 / threads=18 / lookahead_threads=1 / sliced_threads=0 / nr=0 / decimate=1 / interlaced=0 / bluray_compat=0 / constrained_intra=0 / bframes=4 / b_pyramid=2 / b_adapt=2 / b_bias=0 / direct=3 / weightb=1 / open_gop=0 / weightp=2 / keyint=250 / keyint_min=23 / scenecut=40 / intra_refresh=0 / rc=2pass / mbtree=0 / bitrate=10082 / ratetol=1.0 / qcomp=0.70 / qpmin=0 / qpmax=69 / qpstep=4 / cplxblur=20.0 / qblur=0.5 / ip_ratio=1.40 / pb_ratio=1.30 / aq=2:1.00 Язык : English Default : Да Forced : Нет DURATION : 01:37:48.900000000 NUMBER_OF_FRAMES : 140713 NUMBER_OF_BYTES : 7389964443 _STATISTICS_WRITING_APP : mkvmerge v7.3.0 ('Nouages') 64bit built on Oct 22 2014 18:53:34 _STATISTICS_WRITING_DATE_UTC : 2015-02-13 12:32:41 _STATISTICS_TAGS : BPS DURATION NUMBER_OF_FRAMES NUMBER_OF_BYTESАудио #1: Идентификатор : 2 Формат : AC-3 Формат/Информация : Audio Coding 3 Расширение режима : CM (complete main) Параметр Endianness формата : Big Идентификатор кодека : A_AC3 Продолжительность : 1 ч. 37 м. Вид битрейта : Постоянный Битрейт : 640 Кбит/сек Каналы : 6 каналов Расположение каналов : Front: L C R, Side: L R, LFE Частота : 48,0 КГц Битовая глубина : 16 бит Метод сжатия : С потерями Размер потока : 448 Мбайт (5%) Язык : Russian Default : Да Forced : НетАудио #2: Идентификатор : 3 Формат : AC-3 Формат/Информация : Audio Coding 3 Расширение режима : CM (complete main) Параметр Endianness формата : Big Идентификатор кодека : A_AC3 Продолжительность : 1 ч. 37 м. Вид битрейта : Постоянный Битрейт : 448 Кбит/сек Каналы : 6 каналов Расположение каналов : Front: L C R, Side: L R, LFE Частота : 48,0 КГц Битовая глубина : 16 бит Метод сжатия : С потерями Размер потока : 313 Мбайт (4%) Язык : Russian Default : Нет Forced : НетАудио #3: Идентификатор : 4 Формат : AC-3 Формат/Информация : Audio Coding 3 Расширение режима : CM (complete main) Параметр Endianness формата : Big Идентификатор кодека : A_AC3 Продолжительность : 1 ч. 37 м. Вид битрейта : Постоянный Битрейт : 640 Кбит/сек Каналы : 6 каналов Расположение каналов : Front: L C R, Side: L R, LFE Частота : 48,0 КГц Битовая глубина : 16 бит Метод сжатия : С потерями Размер потока : 448 Мбайт (5%) Заголовок : Esarev Язык : English Default : Нет Forced : Нет 8,07 Gb 79 3 25 февраля 2016 12:50 Патруль времени / Predestination (2014) BDRip 720p | Лицензия .torrent   [Информация о файле (нажмите для просмотра)] Качество: BDRip (720p)Видео: MPEG-4 AVC, 4863 Кбит/с, 1280x534Аудио: Русский, английский (AC3, 6 ch, 640 Кбит/с - ЛИЦЕНЗИЯ), русский (AC3, 6 ch, 448 Кбит/с - Авторский (одноголосый закадровый) [Д.Есарев])Перевод: Дублированный [ЛИЦЕНЗИЯ], авторскийВидео: Идентификатор : 1 Формат : AVC Формат/Информация : Advanced Video Codec Профиль формата : [email protected] Параметр CABAC формата : Да Параметр ReFrames формата : 10 кадров Идентификатор кодека : V_MPEG4/ISO/AVC Продолжительность : 1 ч. 37 м. Битрейт : 4863 Кбит/сек Ширина : 1280 пикселей Высота : 534 пикселя Соотношение сторон : 2,40:1 Режим частоты кадров : Постоянный Частота кадров : 23,976 кадра/сек Цветовое пространство : YUV Субдискретизация насыщенности : 4:2:0 Битовая глубина : 8 бит Тип развёртки : Прогрессивная Бит/(Пиксели*Кадры) : 0.297 Размер потока : 3,23 Гбайт (72%) Библиотека кодирования : x264 core 142 r2431 ac76440 Настройки программы : cabac=1 / ref=10 / deblock=1:-3:-3 / analyse=0x3:0x113 / me=umh / subme=10 / psy=1 / psy_rd=1.00:0.05 / mixed_ref=1 / me_range=32 / chroma_me=1 / trellis=2 / 8x8dct=1 / cqm=0 / deadzone=21,11 / fast_pskip=0 / chroma_qp_offset=-2 / threads=18 / lookahead_threads=1 / sliced_threads=0 / nr=0 / decimate=1 / interlaced=0 / bluray_compat=0 / constrained_intra=0 / bframes=4 / b_pyramid=2 / b_adapt=2 / b_bias=0 / direct=3 / weightb=1 / open_gop=0 / weightp=2 / keyint=250 / keyint_min=23 / scenecut=40 / intra_refresh=0 / rc=2pass / mbtree=0 / bitrate=4863 / ratetol=1.0 / qcomp=0.70 / qpmin=0 / qpmax=69 / qpstep=4 / cplxblur=20.0 / qblur=0.5 / ip_ratio=1.40 / pb_ratio=1.30 / aq=2:1.00 Язык : English Default : Да Forced : Нет _STATISTICS_WRITING_APP : mkvmerge v7.3.0 ('Nouages') 64bit built on Oct 22 2014 18:53:34 _STATISTICS_WRITING_DATE_UTC : 2015-02-13 12:30:42 _STATISTICS_TAGS : BPS DURATION NUMBER_OF_FRAMES NUMBER_OF_BYTES DURATION : 01:37:48.900000000 NUMBER_OF_FRAMES : 140713 NUMBER_OF_BYTES : 3565111844Аудио #1: Идентификатор : 2 Формат : AC-3 Формат/Информация : Audio Coding 3 Расширение режима : CM (complete main) Параметр Endianness формата : Big Идентификатор кодека : A_AC3 Продолжительность : 1 ч. 37 м. Вид битрейта : Постоянный Битрейт : 640 Кбит/сек Каналы : 6 каналов Расположение каналов : Front: L C R, Side: L R, LFE Частота : 48,0 КГц Битовая глубина : 16 бит Метод сжатия : С потерями Размер потока : 448 Мбайт (10%) Язык : Russian Default : Да Forced : НетАудио #2: Идентификатор : 3 Формат : AC-3 Формат/Информация : Audio Coding 3 Расширение режима : CM (complete main) Параметр Endianness формата : Big Идентификатор кодека : A_AC3 Продолжительность : 1 ч. 37 м. Вид битрейта : Постоянный Битрейт : 448 Кбит/сек Каналы : 6 каналов Расположение каналов : Front: L C R, Side: L R, LFE Частота : 48,0 КГц Битовая глубина : 16 бит Метод сжатия : С потерями Размер потока : 313 Мбайт (7%) Язык : Russian Default : Нет Forced : НетАудио #3: Идентификатор : 4 Формат : AC-3 Формат/Информация : Audio Coding 3 Расширение режима : CM (complete main) Параметр Endianness формата : Big Идентификатор кодека : A_AC3 Продолжительность : 1 ч. 37 м. Вид битрейта : Постоянный Битрейт : 640 Кбит/сек Каналы : 6 каналов Расположение каналов : Front: L C R, Side: L R, LFE Частота : 48,0 КГц Битовая глубина : 16 бит Метод сжатия : С потерями Размер потока : 448 Мбайт (10%) Заголовок : Esarev Язык : English Default : Нет Forced : Нет 4,5 Gb 56 8 25 февраля 2016 12:50 Патруль времени / Predestination (2014) BDRemux 1080p от ExKinoRay | Лицензия .torrent   [Информация о файле (нажмите для просмотра)] Качество: Blu-Ray Remux (1080p)Видео: MPEG-4 AVC, 24891 Кбит/с, 1920x1080, 23.976 кадр/сАудио: Русский (AC3, 6 ch, 640 Кбит/с), (DTS, 6 ch, 1509 Кбит/c), английский (DTS-HD MA, 6 ch, 2112 Кбит/c)Перевод: ДублированныйСубтитры: АнглийскиеВидео: Идентификатор : 1 Формат : AVC Формат/Информация : Advanced Video Codec Профиль формата : [email protected] Параметр CABAC формата : Да Параметр ReFrames формата : 2 кадра Параметр GOP формата : M=1, N=10 Идентификатор кодека : V_MPEG4/ISO/AVC Продолжительность : 1 ч. 37 м. Вид битрейта : Переменный Ширина : 1920 пикселей Высота : 1080 пикселей Соотношение сторон : 16:9 Режим частоты кадров : Постоянный Частота кадров : 23,976 кадра/сек Цветовое пространство : YUV Субдискретизация насыщенности : 4:2:0 Битовая глубина : 8 бит Тип развёртки : Прогрессивная Default : Да Forced : НетАудио #1: Идентификатор : 2 Формат : AC-3 Формат/Информация : Audio Coding 3 Расширение режима : CM (complete main) Параметр Endianness формата : Big Идентификатор кодека : A_AC3 Продолжительность : 1 ч. 37 м. Вид битрейта : Постоянный Битрейт : 640 Кбит/сек Каналы : 6 каналов Расположение каналов : Front: L C R, Side: L R, LFE Частота : 48,0 КГц Битовая глубина : 16 бит Метод сжатия : С потерями Размер потока : 448 Мбайт (2%) Заголовок : Дублированный (Лицензия) Язык : Russian Default : Да Forced : НетАудио #2: Идентификатор : 3 Формат : DTS Формат/Информация : Digital Theater Systems Режим : 16 Параметр Endianness формата : Big Идентификатор кодека : A_DTS Продолжительность : 1 ч. 37 м. Вид битрейта : Постоянный Битрейт : 1509 Кбит/сек Каналы : 6 каналов Расположение каналов : Front: L C R, Side: L R, LFE Частота : 48,0 КГц Битовая глубина : 24 бит Метод сжатия : С потерями Размер потока : 1,03 Гбайт (5%) Заголовок : Дублированный (Лицензия) Язык : Russian Default : Нет Forced : НетАудио #3: Идентификатор : 4 Формат : DTS Формат/Информация : Digital Theater Systems Профиль формата : MA / Core Режим : 16 Параметр Endianness формата : Big Идентификатор кодека : A_DTS Продолжительность : 1 ч. 37 м. Вид битрейта : Переменный Битрейт : Неизвестно / 1509 Кбит/сек Каналы : 6 каналов Расположение каналов : Front: L C R, Side: L R, LFE Частота : 48,0 КГц Битовая глубина : 16 бит Метод сжатия : Без потерь / Lossy Язык : English Default : Нет Forced : Нет 19,92 Gb 4 4 25 февраля 2016 12:50 Патруль времени / Predestination (2014) BDRip 1080p | Чистый звук .torrent   [Информация о файле (нажмите для просмотра)] Перевод: ДублированныйКодек: MPEG-4 AVCКачество: BDRip 1080pВидео: MPEG-4 AVC, 10100 Кбит/с, 1920x800Звук: Русский (AC3, 2 ch, 192 Кбит/с), Английский (DTS, 6 ch, 1510 Кбит/с)Субтитры: Отсутствуют 8,05 Gb 71 2 25 февраля 2016 12:50 Патруль времени / Predestination (2014) Blu-Ray от BLUEBIRD | L, A .torrent   [Информация о файле (нажмите для просмотра)] Перевод: многоголосый, одноголосыйКодек: MPEG-4 AVC VideoКачество: Blu-RayВидео: 24891 kbps 1080p / 23,976 fps / 16:9 / High Profile 4.1Звук: DTS-HD Master Audio English 2112 kbps 5.1 / 48 kHz / 2112 kbps / 16-bit (DTS Core: 5.1 / 48 kHz / 1509 kbps / 16-bit) DTS-HD Master Audio Russian 2107 kbps 5.1 / 48 kHz / 2107 kbps / 16-bit (DTS Core: 5.1 / 48 kHz / 1509 kbps / 16-bit) (многоголосый "Baibako") DTS-HD Master Audio Russian 2123 kbps 5.1 / 48 kHz / 2123 kbps / 16-bit (DTS Core: 5.1 / 48 kHz / 1509 kbps / 16-bit) (одноголосый Д. Есарев [цензура]) Dolby Digital Audio Polish 640 kbps 5.1 / 48 kHz / 640 kbps DTS-HD Master Audio Russian 2124 kbps 5.1 / 48 kHz / 2124 kbps / 16-bit (DTS Core: 5.1 / 48 kHz / 1509 kbps / 16-bit) (одноголосый Д. Есарев [без цензуры])Субтитры: English Bulgarian Croatian Czech Danish Finnish Greek Hungarian Icelandic Norwegian Polish Portuguese Romanian Serbian Slovak Slovenian Swedish Dutch 37,39 Gb 3 4 25 февраля 2016 12:50 Патруль времени / Predestination (2014) BDRip 1080p | L, A .torrent   [Информация о файле (нажмите для просмотра)] Кодек: x264Качество: BDRip 1080pВидео: MPEG-4 AVC, 13 Mбит/с, 1920x800, 23,976 fpsЗвук: Аудио: Rus, DTS, 1510 kb/s (6 ch), 48 kHz - Baibako Аудио 2: Rus, DTS, 1510 kb/s (6 ch), 48 kHz - Д. Есарев (без цензуры) Аудио 3: Rus, DTS, 1510 kb/s (6 ch), 48 kHz - Д. Есарев (цензура) Аудио 4: Eng, DTS, 1510 kb/s (6 ch), 48 kHzСубтитры: eng 13,28 Gb 9 3 25 февраля 2016 12:50 Патруль времени / Predestination (2013) BDRip 1080p от MediaClub | BaiBaKo, A .torrent   [Информация о файле (нажмите для просмотра)] Перевод: Авторский, Любительский многоголосыйКодек: x264Качество: BDRip 1080pВидео: MPEG-4 AVC, 8500 Кбит/сек, 1920x800, 23.976 кадр/сЗвук: Аудио #1: Русский (AC3, 6 ch, 640 Кбит/с) / Любительский многоголосый (BaiBaKo)Аудио #2: Русский (AC3, 6 ch, 640 Кбит/с) / Авторский одноголосый (Дмитрий Есарев - без цензуры)Аудио #3: Русский (AC3, 6 ch, 640 Кбит/с) / Авторский одноголосый (Дмитрий Есарев - цензурный)Аудио #4: Английский (AC3, 6 ch, 640 Кбит/с)Субтитры: Английские 7,6 Gb 4 4 25 февраля 2016 12:50 Патруль времени / Predestination (2014) BDRip 720p от KinoRay | Baibako .torrent   [Информация о файле (нажмите для просмотра)] Перевод: Любительский многоголосый (Baibako)Кодек: MPEG-4 AVCКачество: BDRip (720p)Видео: 6227 Кбит/с, 1280x534Звук: Русский (AC3, 6 ch, 384 Кбит/c), английский (DTS, 6 ch, 1510 Кбит/c)Субтитры: АнглийскиеВидео: Идентификатор : 1 Формат : AVC Формат/Информация : Advanced Video Codec Профиль формата : [email protected] Параметр CABAC формата : Да Параметр ReFrames формата : 12 кадров Идентификатор кодека : V_MPEG4/ISO/AVC Продолжительность : 1 ч. 37 м. Битрейт : 6227 Кбит/сек Ширина : 1280 пикселей Высота : 534 пикселя Соотношение сторон : 2,40:1 Режим частоты кадров : Постоянный Частота кадров : 23,976 кадра/сек Цветовое пространство : YUV Субдискретизация насыщенности : 4:2:0 Битовая глубина : 8 бит Тип развёртки : Прогрессивная Бит/(Пиксели*Кадры) : 0.380 Размер потока : 4,25 Гбайт (75%) Библиотека кодирования : x264 core 142 r2491kMod 24e4fed Настройки программы : cabac=1 / ref=12 / deblock=1:-3:-3 / analyse=0x3:0x133 / me=umh / subme=11 / psy=1 / fade_compensate=0.00 / psy_rd=1.08:0.00 / mixed_ref=1 / me_range=48 / chroma_me=1 / trellis=2 / 8x8dct=1 / cqm=0 / deadzone=21,11 / fast_pskip=0 / chroma_qp_offset=-2 / threads=24 / lookahead_threads=4 / sliced_threads=0 / nr=0 / decimate=1 / interlaced=0 / bluray_compat=0 / constrained_intra=0 / fgo=0 / bframes=10 / b_pyramid=2 / b_adapt=2 / b_bias=0 / direct=3 / weightb=1 / open_gop=0 / weightp=2 / keyint=250 / keyint_min=23 / scenecut=40 / intra_refresh=0 / rc_lookahead=40 / rc=crf / mbtree=0 / crf=15.7500 / qcomp=0.65 / qpmin=0 / qpmax=69 / qpstep=4 / vbv_maxrate=50000 / vbv_bufsize=62500 / crf_max=0.0 / nal_hrd=none / filler=0 / ip_ratio=1.20 / pb_ratio=1.10 / aq=1:0.65 Язык : English Default : Да Forced : Нет _STATISTICS_WRITING_APP : mkvmerge v7.0.0 ('Where We Going') 32bit built on Jun 9 2014 15:08:34 _STATISTICS_WRITING_DATE_UTC : 2014-12-06 07:16:13 _STATISTICS_TAGS : BPS DURATION NUMBER_OF_FRAMES NUMBER_OF_BYTES DURATION : 01:37:48.863000000 NUMBER_OF_FRAMES : 140712 NUMBER_OF_BYTES : 4687512705Аудио #1: Идентификатор : 2 Формат : AC-3 Формат/Информация : Audio Coding 3 Расширение режима : CM (complete main) Параметр Endianness формата : Big Идентификатор кодека : A_AC3 Продолжительность : 1 ч. 37 м. Вид битрейта : Постоянный Битрейт : 384 Кбит/сек Каналы : 6 каналов Расположение каналов : Front: L C R, Side: L R, LFE Частота : 48,0 КГц Битовая глубина : 16 бит Метод сжатия : С потерями Размер потока : 269 Мбайт (5%) Язык : Russian Default : Да Forced : НетАудио #2: Идентификатор : 3 Формат : DTS Формат/Информация : Digital Theater Systems Идентификатор кодека : A_DTS Продолжительность : 1 ч. 37 м. Вид битрейта : Постоянный Битрейт : 1510 Кбит/сек Каналы : 6 каналов Расположение каналов : Front: L C R, Side: L R, LFE Частота : 48,0 КГц Битовая глубина : 24 бит Метод сжатия : С потерями Размер потока : 1,03 Гбайт (18%) Язык : English Default : Нет Forced : Нет 5,66 Gb 14 4 25 февраля 2016 12:50 Патруль времени / Predestination (2013) BDRip 1080p | BaibaKo .torrent   [Информация о файле (нажмите для просмотра)] Видео: Идентификатор : 1 Формат : AVC Формат/Информация : Advanced Video Codec Профиль формата : [email protected] Параметр CABAC формата : Да Параметр ReFrames формата : 5 кадров Идентификатор кодека : V_MPEG4/ISO/AVC Продолжительность : 1 ч. 37 м. Битрейт : 8500 Кбит/сек Ширина : 1920 пикселей Высота : 800 пикселей Соотношение сторон : 2,40:1 Режим частоты кадров : Постоянный Частота кадров : 23,976 кадра/сек Цветовое пространство : YUV Субдискретизация насыщенности : 4:2:0 Битовая глубина : 8 бит Тип развёртки : Прогрессивная Бит/(Пиксели*Кадры) : 0.231 Размер потока : 5,72 Гбайт (87%) Библиотека кодирования : x264 core 142 r2431 ac76440 Настройки программы : cabac=1 / ref=5 / deblock=1:-3:-3 / analyse=0x3:0x133 / me=esa / subme=11 / psy=1 / psy_rd=1.00:0.10 / mixed_ref=1 / me_range=48 / chroma_me=1 / trellis=2 / 8x8dct=1 / cqm=0 / deadzone=21,11 / fast_pskip=0 / chroma_qp_offset=-3 / threads=6 / lookahead_threads=1 / sliced_threads=0 / nr=0 / decimate=0 / interlaced=0 / bluray_compat=0 / constrained_intra=0 / bframes=10 / b_pyramid=2 / b_adapt=2 / b_bias=0 / direct=3 / weightb=1 / open_gop=0 / weightp=2 / keyint=240 / keyint_min=23 / scenecut=40 / intra_refresh=0 / rc=2pass / mbtree=0 / bitrate=8500 / ratetol=1.0 / qcomp=0.60 / qpmin=10 / qpmax=51 / qpstep=4 / cplxblur=20.0 / qblur=0.5 / ip_ratio=1.40 / pb_ratio=1.30 / aq=1:1.00 Язык : English Default : Да Forced : НетАудио #1: Идентификатор : 2 Формат : AC-3 Формат/Информация : Audio Coding 3 Расширение режима : CM (complete main) Параметр Endianness формата : Big Идентификатор кодека : A_AC3 Продолжительность : 1 ч. 37 м. Вид битрейта : Постоянный Битрейт : 384 Кбит/сек Каналы : 6 каналов Расположение каналов : Front: L C R, Side: L R, LFE Частота : 48,0 КГц Битовая глубина : 16 бит Метод сжатия : С потерями Размер потока : 269 Мбайт (4%) Язык : Russian Default : Да Forced : НетАудио #2: Идентификатор : 3 Формат : AC-3 Формат/Информация : Audio Coding 3 Расширение режима : CM (complete main) Параметр Endianness формата : Big Идентификатор кодека : A_AC3 Продолжительность : 1 ч. 37 м. Вид битрейта : Постоянный Битрейт : 640 Кбит/сек Каналы : 6 каналов Расположение каналов : Front: L C R, Side: L R, LFE Частота : 48,0 КГц Битовая глубина : 16 бит Метод сжатия : С потерями Размер потока : 448 Мбайт (7%) Язык : English Default : Нет Forced : Нет 6,55 Gb 24 3 25 февраля 2016 12:50 Патруль времени / Predestination (2013) BDRip 720p от KinoRay | L2 .torrent   [Информация о файле (нажмите для просмотра)] Формат: MKV (H.264)Качество: BDRip 720pВидео: 5540 kb/s, 1280x534Аудио: Russian: AC3, 448 kb/s (6 ch) / English: AC3, 640 kb/s (6 ch)Субтитры: English 4,62 Gb 10 4 25 февраля 2016 12:50 Патруль времени / Predestination (2013) BDRip 1080p от MediaClub | A .torrent   [Информация о файле (нажмите для просмотра)] Перевод: АвторскийКодек: x264Качество: BDRip 1080pВидео: MPEG-4 AVC, 8500 Кбит/сек, 1920x800, 23.976 кадр/сЗвук: Аудио #1: Русский (AC3, 6 ch, 640 Кбит/с) / Авторский одноголосый (Дмитрий Есарев - без цензуры)Аудио #2: Русский (AC3, 6 ch, 640 Кбит/с) / Авторский одноголосый (Дмитрий Есарев - цензурный)Аудио #3: Английский (AC3, 6 ch, 640 Кбит/с)Субтитры: Английские 7,16 Gb 10 3 25 февраля 2016 12:50 Патруль времени / Predestination (2013) HDRip от Scarabey | A .torrent   [Информация о файле (нажмите для просмотра)] Перевод: Авторский (одноголосый, закадровый) - Дмитрий Есарев Контейнер: AVIВидео: 720x304 (2.37:1), 23.976 fps, XviD build 73 ~1748 kbps avg, 0.33 bit/pixelАудио: 48 kHz, AC3 Dolby Digital, 3/2 (L,C,R,l,r) + LFE ch, ~448 kbps 1,46 Gb 38 9 25 февраля 2016 12:50 Патруль времени / Predestination (2013) HDRip от Scarabey | A .torrent   [Информация о файле (нажмите для просмотра)] Перевод: Авторский (одноголосый, закадровый) - Дмитрий Есарев Контейнер: AVIВидео: 688x288 (2.39:1), 23.976 fps, XviD build 73 ~927 kbps avg, 0.20 bit/pixelАудио: 48 kHz, MPEG Layer 3, 2 ch, ~128.00 kbps avg 745 Mb 14 1 25 февраля 2016 12:50 Патруль времени / Predestination (2013) BDRip-AVC | A .torrent   [Информация о файле (нажмите для просмотра)] Перевод: Авторский одноголосый (Д. Есарев - без цензуры) / Авторский одноголосый (Д. Есарев - цензура)Субтитры: АнглийскиеКодек: H.264Формат: MKVКачество: BDRip-AVC (Blu-Ray Remux (1080р))Видео: MPEG-4 AVC, 2911 Кбит/с, 1024х424Звук: Русский, английский (АС3, 6 ch, 448 Кбит/с) 2,91 Gb 5 1 25 февраля 2016 12:50 Патруль времени / Predestination (2014) BDRip 720p от Leonardo and Scarabey | A .torrent   [Информация о файле (нажмите для просмотра)] Перевод: Авторский (одноголосый, закадровый) Д. ЕсаревФормат: MKVВидео кодек: MPEG-4 AVC Аудио кодек: AC3Видео: AVC, 1280x534 (2.40:1) at 23.976 fps, AVC at 3288 kbps avg, 0.201 bit/pixelАудио: Russian; AC3; 640 Kbps; CBR; 6 ch; 16 bit - С цензуройАудио: Russian; AC3; 640 Kbps; CBR; 6 ch; 16 bit - Без цензурыСубтитры: английские 3,18 Gb 45 2

gig-torrent.net

Скачать фильм Патруль времени через торрент в хорошем качестве бесплатно BDRip-AVC

Раздают: 1 [ 0 KB/s ]
Размер: 1.46 GB | Добавлен: 2 года 8 мес. назад | Торрент скачан:1438 раз
Реклама Дарим 3000 рублей за регистрацию, не упусти свой шанс получить шикарный бонус!!!

13-02-2015 18:34 Патруль времени Скачать торрент  

Патруль времени / Predestination

Год выпуска: 2013Страна: Австралия / Screen Australia, Screen QueenslandЖанр: Фантастика, триллерПродолжительность: 01:37:48Перевод: Дубляж [BD RUS]Субтитры: Русские ([email protected]), английские

Режиссер: Майкл Спириг / Michael Spierig, Питер Спириг / Peter Spierig

В ролях: Итэн Хоук, Сара Снук, Ноа Тейлор, Элиз Джэнсен, Фрея Стэффорд, Кристофер Кирби, Кейт Вульф, Алексис Фернандес, Люсинда Армстронг Холл, Алисия Павлис

Описание: Специальный агент постоянно находится между прошлым и будущим, чтобы обеспечить себе карьеру законника длиною в вечность. В своем последнем задании ему предстоит завербовать в прошлом самого себя и, наконец, задержать преступника, который вновь и вновь ускользает от него в другое время, находясь всегда на шаг впереди него.

Качество: BDRip-AVCФормат: MKVВидео кодек: H.264Аудио кодек: AC3Видео: 1008x420 (2,40:1), 23,976 fps, 1689 kbps, 0.166 bit/pixelАудио: 48 kHz, AC3 Dolby Digital, 3/2 (L,C,R,l,r) + LFE ch, 448.00 kbps

Релиз группы: Автор рипа: potroks

Общее Уникальный идентификатор : 245098407249096852802208937599873488480 (0xB8643C76926F5F98B4BCE8E8F8769660) Полное имя : N:\Триллер\Patrul'.Vremeni.2014.RUS.BDRip.x264.-HELLYWOOD.mkv Формат : Matroska Версия формата : Version 4 / Version 2 Размер файла : 1,46 Гбайт Продолжительность : 1 ч. 37 м. Общий поток : 2139 Кбит/сек Название фильма : Predestination (2014) - HELLYWOOD Дата кодирования : UTC 2015-02-13 17:39:29 Программа кодирования : mkvmerge v5.9.0 ('On The Loose') built on Dec 15 2012 16:39:58 Библиотека кодирования : libebml v1.3.0 + libmatroska v1.4.0

Видео Идентификатор : 1 Формат : AVC Формат/Информация : Advanced Video Codec Профиль формата : [email protected] Параметр CABAC формата : Да Параметр ReFrames формата : 12 кадров Идентификатор кодека : V_MPEG4/ISO/AVC Продолжительность : 1 ч. 37 м. Битрейт : 1689 Кбит/сек Ширина : 1008 пикселей Высота : 420 пикселей Соотношение сторон : 2,40:1 Режим частоты кадров : Постоянный Частота кадров : 23,976 кадра/сек Цветовое пространство : YUV Субдискретизация насыщенности : 4:2:0 Битовая глубина : 8 бит Тип развёртки : Прогрессивная Бит/(Пиксели*Кадры) : 0.166 Размер потока : 1,13 Гбайт (77%) Заголовок : potroks Библиотека кодирования : x264 core 130 r2273 b3065e6 Настройки программы : cabac=1 / ref=12 / deblock=1:-2:-2 / analyse=0x3:0x133 / me=umh / subme=11 / psy=1 / psy_rd=1.02:0.05 / mixed_ref=1 / me_range=48 / chroma_me=1 / trellis=2 / 8x8dct=1 / cqm=0 / deadzone=21,11 / fast_pskip=0 / chroma_qp_offset=-3 / threads=9 / lookahead_threads=6 / sliced_threads=0 / nr=0 / decimate=0 / interlaced=0 / bluray_compat=0 / constrained_intra=0 / bframes=13 / b_pyramid=2 / b_adapt=2 / b_bias=0 / direct=3 / weightb=1 / open_gop=0 / weightp=2 / keyint=250 / keyint_min=23 / scenecut=40 / intra_refresh=0 / rc_lookahead=60 / rc=2pass / mbtree=0 / bitrate=1689 / ratetol=1.0 / qcomp=0.72 / qpmin=0 / qpmax=69 / qpstep=4 / cplxblur=20.0 / qblur=0.5 / vbv_maxrate=50000 / vbv_bufsize=62500 / nal_hrd=none / ip_ratio=1.35 / pb_ratio=1.25 / aq=1:0.80 Язык : English Default : Да Forced : Нет

Аудио Идентификатор : 2 Формат : AC-3 Формат/Информация : Audio Coding 3 Расширение режима : CM (complete main) Параметр Endianness формата : Big Идентификатор кодека : A_AC3 Продолжительность : 1 ч. 37 м. Вид битрейта : Постоянный Битрейт : 448 Кбит/сек Каналы : 6 каналов Расположение каналов : Front: L C R, Side: L R, LFE Частота : 48,0 КГц Битовая глубина : 16 бит Метод сжатия : С потерями Размер потока : 313 Мбайт (21%) Заголовок : Dub | DD 5.1 @ 448 kbps - Blu-Ray RUS Язык : Russian Default : Да Forced : Нет

Текст Идентификатор : 3 Формат : UTF-8 Идентификатор кодека : S_TEXT/UTF8 Идентификатор кодека/Информация : UTF-8 Plain Text Язык : English Default : Нет Forced : Нет

Меню 00:00:00.000 : en:00:00:00.000 00:06:04.656 : en:00:06:04.656 00:08:31.678 : en:00:08:31.678 00:15:55.538 : en:00:15:55.538 00:22:33.602 : en:00:22:33.602 00:28:53.273 : en:00:28:53.273 00:34:25.689 : en:00:34:25.689 00:41:07.632 : en:00:41:07.632 00:47:33.059 : en:00:47:33.059 00:52:05.372 : en:00:52:05.372 00:58:46.356 : en:00:58:46.356 01:05:18.832 : en:01:05:18.832 01:12:06.656 : en:01:12:06.656 01:17:43.117 : en:01:17:43.117 01:22:50.382 : en:01:22:50.382 01:29:37.956 : en:01:29:37.956

Скачать Патруль времени через торрент http://pic.pb.wtf/images/11/63zkq.jpg Скачать фильм Патруль времени через торрент бесплантно в хорошем качестве Описание: Специальный агент постоянно находится между прошлым и будущим, чтобы обеспечить себе карьеру законника длиною в вечность. В своем ... 2015-02-13 18:54 8.9 10 34

Loading...

Loading...

% Раздел Тема Автор DL S | L
Фильмы 2013 [DVDrip, WEB-DLRip, HDrip] [ 2.19 GB ] Патруль времени / Predestination [2014 BDRip-AVC] DUB potroks Скачать
Фильмы 2014 [DVDrip, WEB-DLRip, HDrip] [ 1.46 GB ] Патруль времени / Predestination [2014 HDRip] DUB Ворон Скачать
Фильмы [HD 720p, 1080p] (Хороший звук DUB, MVO) [ 14.49 GB ] Патруль времени / Predestination [2014 BDRip 1080p Dub ] Seedtank Скачать
T Фильмы [HD 720p, 1080p] (Хороший звук DUB, MVO) [ 5.38 GB ] Патруль времени / Predestination [2014 BDRip 720p] DUB Ворон Скачать
Фильмы (Blu-ray, BD-Remux, HDDVD) [ 19.92 GB ] Патруль времени / Predestination [2014 BDRemux] DUB Ворон Скачать

Последний раз редактировалось: potroks (2015-04-27 13:11), всего редактировалось 1 раз

Рекламный пират

13-02-2015 18:56 Патруль времени Скачать торрент  

перекачайтеи файл. забыл сабы русские добавить, которые действительно от этого фильма

13-02-2015 18:58 Патруль времени Скачать торрент  

potroks, Дай сабы отдельно плиз.

13-02-2015 19:46 Патруль времени Скачать торрент  

Ворон писал(а):

potroks, Дай сабы отдельно плиз.

сабы

13-02-2015 19:47 Патруль времени Скачать торрент  

13-02-2015 21:25 Патруль времени Скачать торрент  

Отличный фильм, спасибо

14-02-2015 10:40 Патруль времени Скачать торрент  

Нехило так запутали сюжет)) Фильм интересный, но как по мне, немного перекрутили) Но смотреть в любом случае стоит!

14-02-2015 17:42 Патруль времени Скачать торрент  

бредовый фильм

14-02-2015 17:54 Патруль времени Скачать торрент  

Ох и муть..если кому не трудно обяснить в чем там суть, кто есть кто..я ни фига не понял)=

Pекламный агент PB

17-02-2015 20:48 Патруль времени Скачать торрент  

Цитата:

Ох и муть..если кому не трудно обяснить в чем там суть, кто есть кто..я ни фига не понял)=

Не муть, а что называется концептуально и неожиданно (хотя с определенного момента уже догадываешься, но все же)...дальше спойлер

Главный герой является в то же самое время и положительным и отрицательным. Вокруг него вертится абсолютно все, но он не догадывается об итоге своей работы. Не даром его босс называет его лучшим агентом за всю историю - ведь его задача по сути защитить мир от самого себя, при том, что только он сам сможет это сделать, но чтобы прийти к выводам в конце фильма ему нужно было снова проделать весь путь и встать лицом к лицу с проблемой в лице самого себя, человека, под воздествием "власти", которую дарует портативная машина времени, превратившегося в самообожествленное существо, которое искренне верит в то, что может и потому вправе вершить судьбы людей как ему захочется или как он посчитает правильным. Именно эта встреча с собой в конце подводит итог: "злой" гений будущего уже подготовился к встрече самого с собой "добрым", работником агентства, который должен завершить, не понятную ему еще самому до конца, мисию. Он выкладывает все карты, доказывает, что руководствуется исключительно благими намерениями и спасает людей больше чем убивает, трясется над своими заслугами как ветеран боевых действий, а вырезки из газет раскладывает словно ордена и медали-и вот он уже почти убедил самого себя, что это единственный путь и что только так возможно все, что произошло- и в итоге его самого существование зависит от целостности картины- вся его жизнь служила цели - достигнуть степени совершенства, чтобы быть в состоянии остановить самого себя. Но если цель достигнута, то цикл более не имеет смысл и вся та череда событий, показанная в фильме оказывается не нужной. Судьба оказывается доступной для корректировки. Но фильм именно и называется Predestination - предназначение, если переводить буквально. Само название говорит о том, что в жизни есть предопределение и главный герой лишь следует ему, исполняя все необходимое, чтобы все было так, как оно есть, хотя контора, позволяющая менять вещи во времени, казалось бы, должна избавить мир от предопределения и в этом парадокс. И этот парадокс решается в конце выстрелом. Главный герой приходит к выводу, что он не желает иметь ничего общего с собой будущим, однако он все равно остается в подвешанном состоянии: устранив себя "плохого", он остался сам, чтобы либо свернуть с пути самого себя и изменить ход истории, либо прислушаться к себе же "злому". И очередной парадок предлагаемый в конце это фраза: "Если хочешь разорвать круг- должен не убить меня", а перед этим он спрашивает, доложил ли он в контору, что его устройство перемещений во времени не списалось. Желание убить пересиливает, из чего следует, что последующее развитие событий все равно приведет его к замыканию цикла. Петля снова не будет разорвана. Немного сложно, но разобраться можно. Это фантастика... временные парадоксы. И главное в фильме - это своеобразный постулат: даже меняя все вокруг, сам всегда останешься тем же. Сознание мыслит не в категории времени, а в категории логики. С точки зрения логики любое насилие оправдано, если оно предотвращает бОльшее насилие- и это то, чем стал заниматься герой-подрывник, ощутив себя супергероем. Логика железна и те газетные вырезки возымеют эффект...он все равно станет им (подрывником), потому что сам момент их встречи ( самого с собой) был нужен, чтобы убедить себя-агента и передать эстафету(агент станет подрывником).P.S. добавлю, что фильм понравился не столько оригинальностью исполнения, сколько намеком на оригинальный религиозный сюжет...Очевидна аллюзия на триединое божество. Вещь в себе Канта. Рожденный младенец живущий и действующий в разные эпохи одновременно, находясь в разных возрастных состояниях. Возникает рекурсия: ребенок, вырастая становится женой себя самого, но уже мужчины из будущего, и рождается от союза себя с собой, а в это время он же сам из будущего похищает себя у себя, чтобы вернуть в прошлое, где он начнет свой путь снова и так циклом. Но стоит убрать любую деталь - как само существование всех вариаций этого человека оказывается под вопросом: он одновременно и есть и его нет, стоит ему только, например, не похитеть себя и не перенести в прошлое, откуда все началось. На этом этапе возникает вопрос: значит был момент, когда вся история только началась, назовем его моментом настоящего и из этого момента становится не понятно, как мог возникнуть ребенок, если его будущее еще не было предопределено его собственной деятельностью. Запутанно. Но логика ясна: если бог есть и он перводвигатель и самодостаточен, то он должен был откуда-то появиться. Но это, ясен пень, логика пространственно-временного измерения, привычная нам. Логика физики. Всякие там чудеса и нарушения законов физики - пока еще лишь мифологическая чушь с точки зрения науки. Поэтому философский вывод прост: существование бога было бы парадоксом нашего мира, иными словами он невозможен физически и поэтому проще допустить, что его нет, не отвергая конечно необходимости сказок для крепкого сна и людского спокойствия. P.P.S. Интересно, осилит ли кто такую простыню текста

20-03-2015 15:24 Патруль времени Скачать торрент  

Классный фильм. Смотрится с интересом, и запоминается.

Дорогой пользователь! Огромная просьба, поблагодарите релизера, оцените раздачу и оставьте свои комментарий, если Вы скачали Патруль времени через торрент бесплатно! Внесите свою лепту в развитие PiratBit!

Комментировать посты могут только пользователи прошедшие не сложную регистрацию

Патруль времени через торрент Скачать бесплатно Патруль времени Патруль времени скачать торрент Патруль времени смотреть онлайн Cкачать фильм Патруль времени бесплатно Патруль времени скачать торрент в хорошем качестве Патруль времени смотреть онлайн бесплатно в хорошем качестве

Вы не можете начинать темыВы не можете отвечать на сообщенияВы не можете редактировать свои сообщенияВы не можете удалять свои сообщенияВы не можете голосовать в опросахВы не можете прикреплять файлы к сообщениямВы можете скачивать файлы

piratbit.ru

Скачать фильм Патруль времени через торрент в хорошем качестве бесплатно 1080p

GeneralUnique ID : 236130518521632599465658986266903839486 (0xB1A5156975E419B9AB95D33EC3AE02FE)Complete name : P4trul.Vremeni.2014.D.BDRip.1080p.mkvFormat : MatroskaFormat version : Version 4 / Version 2File size : 8.05 GiBDuration : 1h 37mnOverall bit rate : 11.8 MbpsEncoded date : UTC 2014-12-25 22:15:10Writing application : mkvmerge v6.9.1 ('Blue Panther') 64bit built on Apr 18 2014 18:23:38Writing library : libebml v1.3.0 + libmatroska v1.4.1

VideoID : 1Format : AVCFormat/Info : Advanced Video CodecFormat profile : [email protected] settings, CABAC : YesFormat settings, ReFrames : 5 framesCodec ID : V_MPEG4/ISO/AVCDuration : 1h 37mnBit rate : 10.1 MbpsWidth : 1 920 pixelsHeight : 800 pixelsDisplay aspect ratio : 2.40:1Frame rate mode : ConstantFrame rate : 23.976 fpsColor space : YUVChroma subsampling : 4:2:0Bit depth : 8 bitsScan type : ProgressiveBits/(Pixel*Frame) : 0.274Stream size : 6.72 GiB (84%)Writing library : x264 core 142 r2431 ac76440Encoding settings : cabac=1 / ref=5 / deblock=1:-3:-3 / analyse=0x3:0x113 / me=umh / subme=10 / psy=1 / psy_rd=1.00:0.05 / mixed_ref=1 / me_range=32 / chroma_me=1 / trellis=2 / 8x8dct=1 / cqm=0 / deadzone=21,11 / fast_pskip=0 / chroma_qp_offset=-2 / threads=18 / lookahead_threads=1 / sliced_threads=0 / nr=0 / decimate=1 / interlaced=0 / bluray_compat=0 / constrained_intra=0 / bframes=4 / b_pyramid=2 / b_adapt=2 / b_bias=0 / direct=3 / weightb=1 / open_gop=0 / weightp=2 / keyint=250 / keyint_min=23 / scenecut=40 / intra_refresh=0 / rc=2pass / mbtree=0 / bitrate=10082 / ratetol=1.0 / qcomp=0.70 / qpmin=0 / qpmax=69 / qpstep=4 / cplxblur=20.0 / qblur=0.5 / ip_ratio=1.40 / pb_ratio=1.30 / aq=2:1.00Language : EnglishDefault : YesForced : No

Audio #1ID : 2Format : AC-3Format/Info : Audio Coding 3Mode extension : CM (complete main)Format settings, Endianness : BigCodec ID : A_AC3Duration : 1h 37mnBit rate mode : ConstantBit rate : 192 KbpsChannel(s) : 2 channelsChannel positions : Front: L RSampling rate : 48.0 KHzBit depth : 16 bitsCompression mode : LossyStream size : 134 MiB (2%)Language : RussianDefault : YesForced : No

Audio #2ID : 3Format : DTSFormat/Info : Digital Theater SystemsMode : 16Format settings, Endianness : BigCodec ID : A_DTSDuration : 1h 37mnBit rate mode : ConstantBit rate : 1 509 KbpsChannel(s) : 6 channelsChannel positions : Front: L C R, Side: L R, LFESampling rate : 48.0 KHzBit depth : 24 bitsCompression mode : LossyStream size : 1.03 GiB (13%)Language : EnglishDefault : NoForced : No

piratbit.ru

Скачать фильм Патруль времени через торрент в хорошем качестве бесплатно BDRip

GeneralComplete name : D:\Users\_KaisiK_\uTorrent\КИНО\Patrul'.vremeni.1994.Triple.BDRip.aviFormat : AVIFormat/Info : Audio Video InterleaveFormat profile : OpenDMLFile size : 2.06 GiBDuration : 1h 37mnOverall bit rate : 3 009 KbpsMovie name : Патруль времени / Timecop (1994) BDRipGenre : Фантастика, боевик, триллер, драма, мелодрамаRecorded date : 16.10.2014Writing application : VirtualDubMod 1.5.10.3 | www.virtualdub-fr.org || (build 2550/release)Writing library : VirtualDubMod build 2550/releaseCopyright : rip by ivandubskoj

VideoID : 0Format : MPEG-4 VisualFormat profile : Advanced [email protected] settings, BVOP : 1Format settings, QPel : NoFormat settings, GMC : No warppointsFormat settings, Matrix : Default (MPEG)Codec ID : XVIDCodec ID/Hint : XviDDuration : 1h 37mnBit rate : 2 094 KbpsWidth : 720 pixelsHeight : 304 pixelsDisplay aspect ratio : 2.35:1Frame rate : 23.976 fpsColor space : YUVChroma subsampling : 4:2:0Bit depth : 8 bitsScan type : ProgressiveCompression mode : LossyBits/(Pixel*Frame) : 0.399Stream size : 1.43 GiB (70%)Writing library : XviD 73

Audio #1ID : 1Format : AC-3Format/Info : Audio Coding 3Mode extension : CM (complete main)Codec ID : 2000Duration : 1h 37mnBit rate mode : ConstantBit rate : 448 KbpsChannel(s) : 6 channelsChannel positions : Front: L C R, Side: L R, LFESampling rate : 48.0 KHzBit depth : 16 bitsCompression mode : LossyStream size : 314 MiB (15%)Alignment : Split accross interleavesInterleave, duration : 64 ms (1.53 video frames)Interleave, preload duration : 500 msTitle : Russian, MVO [Superbit]

Audio #2ID : 2Format : AC-3Format/Info : Audio Coding 3Mode extension : CM (complete main)Codec ID : 2000Duration : 1h 37mnBit rate mode : ConstantBit rate : 224 KbpsChannel(s) : 2 channelsChannel positions : Front: L RSampling rate : 48.0 KHzBit depth : 16 bitsCompression mode : LossyStream size : 157 MiB (7%)Alignment : Split accross interleavesInterleave, duration : 64 ms (1.53 video frames)Interleave, preload duration : 500 msTitle : Russian, MVO [СТС]

Audio #3ID : 3Format : AC-3Format/Info : Audio Coding 3Mode extension : CM (complete main)Codec ID : 2000Duration : 1h 37mnBit rate mode : ConstantBit rate : 224 KbpsChannel(s) : 2 channelsChannel positions : Front: L RSampling rate : 48.0 KHzBit depth : 16 bitsCompression mode : LossyStream size : 157 MiB (7%)Alignment : Split accross interleavesInterleave, duration : 64 ms (1.53 video frames)Interleave, preload duration : 500 msTitle : Russian, MVO [ТК Россия]

[/code]

piratbit.ru


Смотрите также