Скачать бесплатно через торрент кухня в париже бесплатно в хорошем качестве


Скачать Кухня в Париже через торрент

Категория: Фильмы 3755 0 Торрент добавлен: 25-04-2015 Рейтинг:

2014 / комедия / 106 мин.Выпущено: РоссияРежиссер: Дмитрий Дьяченко (II)В ролях: Дмитрий Назаров, Дмитрий Нагиев, Елена Подкаминская, Марина Могилевская, Марк Богатырёв, Виктор Хориняк, Ольга Кузьмина, Екатерина Кузнецова, Валерия Федорович, Жанныл Асанбекова, Елена Чернявская, Алексей Колган, Сергей Лавыгин, Сергей Епишев, Михаил Тарабукин, Никита Тарасов, Юлия Такшина, Виктория Лукина, Виталий Щанников, Сергей Беляев, Роман Индык, Евгения Храповицкая, Ольга Новосад, Серафима Низовская, Александр Карпиловский, Мария Горбань, Ирина Бразговка

Известный ресторан под названием «Клод Моне» пользуется огромной популярностью среди как местных обитателей, так и зарубежных гостей. Вика с Максимом, которые работают здесь, хотят сыграть свою свадьбу именно в этом месте, но планы слегка меняются, когда в первоклассном ресторане «Клод Моне» готовиться встреча президентов двух стран, России и Франции. Повара этого ресторана в компании с Шефом сталкиваются с многочисленными трудностями, и это не только угодить блюдами президентам, но и некоторые другие. Например, у Максима сейчас главная задача не позволить симпатичному парню Николя вскружить голову своей будущей невесте, а Шефу необходимо найти подход к своим родственникам.

Трейлер к фильму Кухня в Париже

Кухня в Париже скачать торрент

Качество: Blu-Ray Remux (1080p)Видео: MPEG-4 AVC, 24000 Кбит/с, 1920x1080, 24 кадр/сАудио: AC3, 6 ch, 640 Кбит/с, DTS-HD MA 6 ch, 2048 Кбит/с

19,89 Gb

Качество: BDRip 1080pВидео: MPEG-4 AVC, 8000 Кбит/с, 1920x800, 24.000 кадр/сАудио #1: Русский (DTS, 6 ch, 1509 Кбит/с) Аудио #2: Русский (AC3, 6 ch, 640 Кбит/с)

7,56 Gb

Качество: HDRipФормат: AVIВидео: 720x304 (2.37:1), 24 fps, XviD build 73 ~1485 kbps avg, 0.28 bit/pixelАудио: 48 kHz, AC3 Dolby Digital, 3/2 (L,C,R,l,r) + LFE ch, ~448.00 kbps avg

Вы находитесь на странице, где можете совершенно бесплатно скачать фильм Кухня в Париже в хорошем качестве через торрент, в любом формате, который больше всего вам на данный момент подходит. Скачивание осуществляется через торрент, что означает максимально высокую скорость загрузки. Желаем Вам приятного просмотра!. Не забудь поделиться своими впечатлениями после того как посмотришь фильм Кухня в Париже.

Информация Посетители, находящиеся в группе Гости, не могут оставлять комментарии к данной публикации.

psp-gu.ru

Скачать торрент Кухня в Париже (2014) HDRip-AVC

krutor.org

Информация о фильмеОригинальное название: Кухня в ПарижeГод выпуска: 2014Жанр: КомедияРежиссер: Дмитрий Дьяченко (II)В ролях: Дмитрий Назаров, Дмитрий Нагиев, Елена Подкаминская, Марина Могилевская, Марк Богатырёв, Виктор Хориняк, Ольга Кузьмина, Екатерина Кузнецова, Валерия Федорович, Жанныл Асанбекова, Елена Чернявская, Алексей Колган, Сергей Лавыгин, Сергей Епишев, Михаил Тарабукин, Никита Тарасов, Юлия Такшина, Виктория Лукина, Виталий Щанников, Сергей Беляев, Роман Индык, Евгения Храповицкая, Ольга Новосад, Серафима Низовская, Александр Карпиловский, Мария Горбань, Ирина Бразговка

Описание: Модный столичный ресторан «Клод Моне» процветает. Именно здесь, в родном заведении Вика и Максим хотят отпраздновать долгожданную свадьбу. Но планы меняются, когда в ресторане назначают переговоры Президентов России и Франции! Команда ресторана терпит фиаско и вынуждена отправиться в «изгнание» — в Париж. Там Шеф с Максом сталкиваются с опасными конкурентами: Шеф — с ближайшим родственником, а Максим — с красавцем Николя, который кружит Вике голову не хуже искристого шампанского! И это еще не все вызовы, которые бросает им «Город любви», ведь надо постараться спасти репутацию, накормить Президентов и преодолеть миллион препятствий à la française…Выпущено: РоссияПродолжительность: 01:46:42

ФайлКодек: x264Качество: HDRip-AVC | (Исх. BDRip 1080p) | (Исх. BDRip 1080p) Видео: 784x328 (2.40:1), 24.000 fps, x264, ~903 kbps avg, 0.146 bit/pixАудио: 48 / 24 kHz, AAC-HE, (L,R) 2 ch, ~72.00 kbps avg

MediaInfo:▼

General Unique ID : 174787971820155190614654902165614995568 (0x837EF05ABFA94F66912014E1CFB5A870) Complete name : C:Kuhnia.v.Parizhe. (2014) HDRip-AVC | (Исх. BDRip 1080p) от [WazZzup]. by. Kokobaro Format : Matroska Format version : Version 2 File size : 745 MiB Duration : 1h 46mn Overall bit rate : 977 Kbps Encoded date : UTC 2014-06-13 10:28:51 Writing application : mkvmerge v5.8.0 ('No Sleep / Pillow') built on Sep 2 2012 15:37:04 Writing library : libebml v1.2.3 + libmatroska v1.3.0

Video ID : 1 Format : AVC Format/Info : Advanced Video Codec Format profile : [email protected] Format settings, CABAC : Yes Format settings, ReFrames : 10 frames Codec ID : V_MPEG4/ISO/AVC Duration : 1h 46mn Nominal bit rate : 903 Kbps Width : 784 pixels Height : 328 pixels Display aspect ratio : 2.40:1 Frame rate mode : Constant Frame rate : 24.000 fps Color space : YUV Chroma subsampling : 4:2:0 Bit depth : 8 bits Scan type : Progressive Bits/(Pixel*Frame) : 0.146 Writing library : x264 core 125 r2208 d9d2288 Encoding settings : cabac=1 / ref=10 / deblock=1:-1:-1 / analyse=0x3:0x133 / me=umh / subme=9 / psy=1 / psy_rd=1.00:0.15 / mixed_ref=1 / me_range=32 / chroma_me=1 / trellis=2 / 8x8dct=1 / cqm=0 / deadzone=21,11 / fast_pskip=1 / chroma_qp_offset=-3 / threads=3 / lookahead_threads=1 / sliced_threads=0 / nr=0 / decimate=1 / interlaced=0 / bluray_compat=0 / constrained_intra=0 / bframes=10 / b_pyramid=2 / b_adapt=2 / b_bias=0 / direct=3 / weightb=1 / open_gop=0 / weightp=2 / keyint=250 / keyint_min=23 / scenecut=40 / intra_refresh=0 / rc_lookahead=60 / rc=2pass / mbtree=1 / bitrate=903 / ratetol=1.0 / qcomp=0.60 / qpmin=0 / qpmax=69 / qpstep=4 / cplxblur=20.0 / qblur=0.5 / ip_ratio=1.40 / aq=1:1.00 Default : Yes Forced : No

Audio ID : 2 Format : AAC Format/Info : Advanced Audio Codec Format profile : HE-AAC / LC Codec ID : A_AAC Duration : 1h 46mn Channel(s) : 2 channels Channel positions : Front: L R Sampling rate : 48.0 KHz / 24.0 KHz Compression mode : Lossy Delay relative to video : 31ms Default : Yes Forced : No

Скачать фильм Кухня в Париже (2014) через торрент

gig-torrent.net

16 февраля 2016 08:35 Кухня в Париже (2014) BDRemux 1080р от ExKinoRay .torrent   [Информация о файле (нажмите для просмотра)] Качество: Blu-Ray Remux (1080p)Видео: MPEG-4 AVC, 24000 Кбит/с, 1920x1080, 24 кадр/сАудио: AC3, 6 ch, 640 Кбит/с, DTS-HD MA 6 ch, 2048 Кбит/сВидео: Идентификатор : 1 Формат : AVC Формат/Информация : Advanced Video Codec Профиль формата : [email protected] Параметр CABAC формата : Да Параметр ReFrames формата : 4 кадра Идентификатор кодека : V_MPEG4/ISO/AVC Продолжительность : 1 ч. 46 м. Вид битрейта : Переменный Максимальный битрейт : 38,0 Мбит/сек Ширина : 1920 пикселей Высота : 1080 пикселей Соотношение сторон : 16:9 Режим частоты кадров : Постоянный Частота кадров : 24,000 кадра/сек Стандарт вещания : NTSC Цветовое пространство : YUV Субдискретизация насыщенности : 4:2:0 Битовая глубина : 8 бит Тип развёртки : Прогрессивная Язык : Russian Default : Да Forced : Нет Основные цвета : BT.709 Характеристики трансфера : BT.709 Коэффициенты матрицы : BT.709Аудио #1: Идентификатор : 2 Формат : AC-3 Формат/Информация : Audio Coding 3 Расширение режима : CM (complete main) Параметр Endianness формата : Big Идентификатор кодека : A_AC3 Продолжительность : 1 ч. 46 м. Вид битрейта : Постоянный Битрейт : 640 Кбит/сек Каналы : 6 каналов Расположение каналов : Front: L C R, Side: L R, LFE Частота : 48,0 КГц Битовая глубина : 16 бит Метод сжатия : С потерями Размер потока : 488 Мбайт (2%) Язык : Russian Default : Да Forced : НетАудио #2: Идентификатор : 3 Формат : DTS Формат/Информация : Digital Theater Systems Профиль формата : MA / Core Режим : 16 Параметр Endianness формата : Big Идентификатор кодека : A_DTS Продолжительность : 1 ч. 46 м. Вид битрейта : Переменный Битрейт : Неизвестно / 1509 Кбит/сек Каналы : 6 каналов Расположение каналов : Front: L C R, Side: L R, LFE Частота : 48,0 КГц Битовая глубина : 16 бит Метод сжатия : Без потерь / Lossy Язык : Russian Default : Нет Forced : Нет 19,89 Gb 23 8
16 февраля 2016 08:35 Кухня в Париже (2014) HDRip-AVC .torrent   [Информация о файле (нажмите для просмотра)] Перевод: Не требуетсяКодек: x264Качество: HDRip-AVC | (Исх. BDRip 1080p)Видео: 784x328 (2.40:1), 24.000 fps, x264, ~903 kbps avg, 0.146 bit/pixАудио: 48 / 24 kHz, AAC-HE, (L,R) 2 ch, ~72.00 kbps avg 745,38 Mb 95 3
16 февраля 2016 08:35 Кухня в Париже (2014) HDRip от ImperiaFilm | КПК .torrent   [Информация о файле (нажмите для просмотра)] Качество: HDRip | КПК (BDRip 720p)Видео: кодеккодек: x264,формат: mp4,размер кадра: 480x208, битрейт: 350 кб/сАудио: языкрусский, перевод: оригинал, 364,74 Mb 28 1
16 февраля 2016 08:35 Кухня в Париже (2014) BDRip 720p от Leonardo and Scarabey .torrent   [Информация о файле (нажмите для просмотра)] Формат: MKVВидео кодек: MPEG-4 AVC Аудио кодек: AC3Видео: AVC, 1280x534 (2.40:1) at 24.000 fps, AVC at 3327 kbps avg, 0.203 bit/pixelАудио: Russian: 48 kHz; AC3 5.1; 384.00 kbps avg 2,82 Gb 88 5
16 февраля 2016 08:35 Кухня в Париже (2014) BDRip-AVC от Leonardo and Scarabey .torrent   [Информация о файле (нажмите для просмотра)] Формат: MKVВидео кодек: MPEG-4 AVC Аудио кодек: AC3Видео: AVC, 1024x426 (2.40:1) at 24.000 fps, AVC at 1845 kbps avg, 0.176 bit/pixelАудио: Russian: 48 kHz; AC3 5.1; 384.00 kbps avg 1,7 Gb 55 2
16 февраля 2016 08:35 Кухня в Париже (2014) DVD5 от New-Team | Лицензия .torrent   [Информация о файле (нажмите для просмотра)] Перевод: Не требуетсяКодек: MPEG2Качество: DVD5Видео: PAL 16:9 (720x576) VBR ~ 5656.38 kbps avgЗвук: Русский DD 5.1 (448Kbps)Субтитры: Нет 4,14 Gb 17 1
16 февраля 2016 08:35 Кухня в Париже (2014) BDRip от HQCLUB .torrent   [Информация о файле (нажмите для просмотра)] Субтитры: нетФормат: AVIКачество: BDRip (источник / Blu-ray Disc / 1080p)Видео: 720x304 (2.37:1), 23.976 fps, XviD build 65 ~ 1556 kbps avg, 0.30 bit/pixelАудио: 48 kHz, AC3 Dolby Digital, 3/2 (L,C,R,l,r) + LFE ch, ~384.00 kbps avg 1,45 Gb 89 2
16 февраля 2016 08:35 Кухня в Париже (2014) HDRip от Scarabey | Лицензия .torrent   [Информация о файле (нажмите для просмотра)] Перевод: Оригинал (русский) [Лицензия]Качество: HDRipФормат: AVIВидео: 720x304 (2.37:1), 24 fps, XviD build 73 ~1485 kbps avg, 0.28 bit/pixelАудио: 48 kHz, AC3 Dolby Digital, 3/2 (L,C,R,l,r) + LFE ch, ~448.00 kbps avg 1,45 Gb 313 12
16 февраля 2016 08:35 Кухня в Париже (2014) HDRip от Scarabey | Лицензия .torrent   [Информация о файле (нажмите для просмотра)] Перевод: Оригинал (русский) [Лицензия]Качество: HDRipФормат: AVIВидео: 688x288 (2.39:1), 24 fps, XviD build 73 ~839 kbps avg, 0.18 bit/pixelАудио: 48 kHz, MPEG Layer 3, 2 ch, ~128.00 kbps avg 745,95 Mb 35 4
16 февраля 2016 08:35 Кухня в Париже (2014) BDRip 720p .torrent   [Информация о файле (нажмите для просмотра)] Перевод: Оригинал (лицензия)Кодек: x264Качество: BDRip (источник: Blu-ray Disc)Видео: 1280x534 (2,40:1), 24 fps, 3720 kbpsАудио: AC-3, 6 ch, 448 kbpsВидео: Идентификатор : 1 Формат : AVC Формат/Информация : Advanced Video Codec Профиль формата : [email protected] Параметр CABAC формата : Да Параметр ReFrames формата : 11 кадров Идентификатор кодека : V_MPEG4/ISO/AVC Продолжительность : 1 ч. 46 м. Битрейт : 3718 Кбит/сек Ширина : 1280 пикселей Высота : 534 пикселя Соотношение сторон : 2,40:1 Режим частоты кадров : Постоянный Частота кадров : 24,000 кадра/сек Цветовое пространство : YUV Субдискретизация насыщенности : 4:2:0 Битовая глубина : 8 бит Тип развёртки : Прогрессивная Бит/(Пиксели*Кадры) : 0.227 Размер потока : 2,71 Гбайт (87%) Заголовок : Release by AlexKa Библиотека кодирования : x264 core 142 r2431 ac76440 Настройки программы : cabac=1 / ref=11 / deblock=1:-3:-3 / analyse=0x3:0x133 / me=umh / subme=11 / psy=1 / psy_rd=1.00:0.00 / mixed_ref=1 / me_range=32 / chroma_me=1 / trellis=2 / 8x8dct=1 / cqm=0 / deadzone=21,11 / fast_pskip=0 / chroma_qp_offset=-2 / threads=12 / lookahead_threads=2 / sliced_threads=0 / nr=0 / decimate=0 / interlaced=0 / bluray_compat=0 / constrained_intra=0 / bframes=7 / b_pyramid=2 / b_adapt=2 / b_bias=0 / direct=3 / weightb=1 / open_gop=0 / weightp=2 / keyint=240 / keyint_min=24 / scenecut=40 / intra_refresh=0 / rc=2pass / mbtree=0 / bitrate=3718 / ratetol=1.0 / qcomp=0.60 / qpmin=0 / qpmax=69 / qpstep=4 / cplxblur=20.0 / qblur=0.5 / ip_ratio=1.40 / pb_ratio=1.30 / aq=1:0.70 Язык : RussianАудио: Идентификатор : 2 Формат : AC-3 Формат/Информация : Audio Coding 3 Расширение режима : CM (complete main) Параметр Endianness формата : Big Идентификатор кодека : A_AC3 Продолжительность : 1 ч. 46 м. Вид битрейта : Постоянный Битрейт : 448 Кбит/сек Каналы : 6 каналов Расположение каналов : Front: L C R, Side: L R, LFE Частота : 48,0 КГц Битовая глубина : 16 бит Метод сжатия : С потерями Размер потока : 342 Мбайт (11%) Заголовок : Rus Язык : Russian 3,11 Gb 395 12
16 февраля 2016 08:35 Кухня в Париже (2014) BDRip-AVC от HELLYWOOD | Лицензия .torrent   [Информация о файле (нажмите для просмотра)] Перевод: Оригинал [лицензия BD RUS]Субтитры: НетКачество: BDRip-AVCФормат: MKVВидео: х.264, 960x400 (2,40:1), 24,000 fps, 1575 Кbps, 0.171 bit/pixelАудио: 48 kHz, AC3 Dolby Digital, 3/2 (L,C,R,l,r) + LFE ch, 384.00 kbps 1,46 Gb 79 2
16 февраля 2016 08:35 Кухня в Париже (2014) BDRip 1080p от MediaClub | Лицензия .torrent   [Информация о файле (нажмите для просмотра)] Качество: BDRip 1080pВидео: MPEG-4 AVC, 8000 Кбит/с, 1920x800, 24.000 кадр/сАудио #1: Русский (DTS, 6 ch, 1509 Кбит/с)Аудио #2: Русский (AC3, 6 ch, 640 Кбит/с)Видео: Идентификатор : 1 Формат : AVC Формат/Информация : Advanced Video Codec Профиль формата : [email protected] Параметр CABAC формата : Да Параметр ReFrames формата : 5 кадров Идентификатор кодека : V_MPEG4/ISO/AVC Продолжительность : 1 ч. 46 м. Битрейт : 8000 Кбит/сек Ширина : 1920 пикселей Высота : 800 пикселей Соотношение сторон : 2,40:1 Режим частоты кадров : Постоянный Частота кадров : 24,000 кадра/сек Цветовое пространство : YUV Субдискретизация насыщенности : 4:2:0 Битовая глубина : 8 бит Тип развёртки : Прогрессивная Бит/(Пиксели*Кадры) : 0.217 Размер потока : 5,81 Гбайт (77%) Заголовок : -=MediaClub-kaspr=- Библиотека кодирования : x264 core 142 r2431+42 c69a006 tMod [[email protected]:2:0 X86_64] Настройки программы : cabac=1 / ref=5 / deblock=1:-3:-3 / analyse=0x3:0x113 / me=umh / subme=11 / psy=1 / fade_compensate=0.00 / psy_rd=1.00:0.20 / mixed_ref=1 / me_range=32 / chroma_me=1 / trellis=2 / 8x8dct=1 / cqm=0 / deadzone=21,11 / fast_pskip=0 / chroma_qp_offset=-3 / threads=12 / lookahead_threads=2 / sliced_threads=0 / nr=0 / decimate=0 / interlaced=0 / bluray_compat=0 / constrained_intra=0 / fgo=0 / bframes=8 / b_pyramid=2 / b_adapt=2 / b_bias=0 / direct=3 / weightb=1 / open_gop=0 / weightp=2 / keyint=240 / keyint_min=24 / scenecut=40 / intra_refresh=0 / rc=2pass / mbtree=0 / bitrate=8000 / ratetol=1.0 / qcomp=0.60 / qpmin=0:0:0 / qpmax=69:69:69 / qpstep=4 / cplxblur=20.0 / qblur=0.5 / ip_ratio=1.40 / pb_ratio=1.30 / aq=4:0.80 / aq-sensitivity=10.00 / aq-factor=1.00:1.00:1.00 / aq2=0 / aq3=0 Default : Да Forced : ДаАудио #1: Идентификатор : 2 Формат : DTS Формат/Информация : Digital Theater Systems Режим : 16 Параметр Endianness формата : Big Идентификатор кодека : A_DTS Продолжительность : 1 ч. 46 м. Вид битрейта : Постоянный Битрейт : 1509 Кбит/сек Каналы : 6 каналов Расположение каналов : Front: L C R, Side: L R, LFE Частота : 48,0 КГц Битовая глубина : 16 бит Метод сжатия : С потерями Размер потока : 1,12 Гбайт (15%) Заголовок : DTS Язык : Russian Default : Да Forced : ДаАудио #2: Идентификатор : 3 Формат : AC-3 Формат/Информация : Audio Coding 3 Расширение режима : CM (complete main) Параметр Endianness формата : Big Идентификатор кодека : A_AC3 Продолжительность : 1 ч. 46 м. Вид битрейта : Постоянный Битрейт : 640 Кбит/сек Каналы : 6 каналов Расположение каналов : Front: L C R, Side: L R, LFE Частота : 48,0 КГц Битовая глубина : 16 бит Метод сжатия : С потерями Размер потока : 488 Мбайт (6%) Заголовок : AC3 Язык : Russian Default : Нет Forced : Нет 7,56 Gb 74 2
16 февраля 2016 08:35 Кухня в Париже (2014) HDRip-AVC от ExKinoRay | Лицензия .torrent   [Информация о файле (нажмите для просмотра)] Качество: HDRip (AVC)Видео: MPEG-4 AVC, 2679 Кбит/с, 1024x426, 24 кадр/сАудио: AC3, 6 ch, 448 Кбит/с 2,33 Gb 10 3
16 февраля 2016 08:35 Кухня в Париже (2014) BDRip 1080p | Лицензия .torrent   [Информация о файле (нажмите для просмотра)] Формат: MKVКачество: BDRip (1080p)Видео: MPEG-4 AVC, 11000 Кбит/с, 1920x800Аудио: DTS, 6 ch, 1510 Кбит/с 9,41 Gb 34 4

Скачать фильм Кухня в Париже через торрент в хорошем качестве бесплатно BDRip-AVC

ОбщееУникальный идентификатор : 184948467396135028965871364321490141633 (0x8B23C7768CB6A3FDB0795077B0D281C1)Полное имя : Kuhnya.v.Parizhe.2014.RUS.BDRip.x264.-HELLYWOOD.mkvФормат : MatroskaВерсия формата : Version 4 / Version 2Размер файла : 1,46 ГбайтПродолжительность : 1 ч. 46 м.Общий поток : 1961 Кбит/секНазвание фильма : HELLYWOOD - rip by potroksДата кодирования : UTC 2014-06-16 06:22:17Программа кодирования : mkvmerge v5.9.0 ('On The Loose') built on Dec 15 2012 16:39:58Библиотека кодирования : libebml v1.3.0 + libmatroska v1.4.0

ВидеоИдентификатор : 1Формат : AVCФормат/Информация : Advanced Video CodecПрофиль формата : [email protected]Параметр CABAC формата : ДаПараметр ReFrames формата : 11 кадровИдентификатор кодека : V_MPEG4/ISO/AVCПродолжительность : 1 ч. 46 м.Битрейт : 1575 Кбит/секШирина : 960 пикселейВысота : 400 пикселейСоотношение сторон : 2,40:1Режим частоты кадров : ПостоянныйЧастота кадров : 24,000 кадра/секЦветовое пространство : YUVСубдискретизация насыщенности : 4:2:0Битовая глубина : 8 битТип развёртки : ПрогрессивнаяБит/(Пиксели*Кадры) : 0.171Размер потока : 1,15 Гбайт (78%)Заголовок : Кухня в ПарижеБиблиотека кодирования : x264 core 128 r2216M 198a7eaНастройки программы : cabac=1 / ref=12 / deblock=1:-2:-2 / analyse=0x3:0x133 / me=umh / subme=11 / psy=1 / psy_rd=1.05:0.00 / mixed_ref=1 / me_range=48 / chroma_me=1 / trellis=2 / 8x8dct=1 / cqm=0 / deadzone=21,11 / fast_pskip=0 / chroma_qp_offset=-2 / threads=6 / lookahead_threads=1 / sliced_threads=0 / nr=0 / decimate=1 / interlaced=0 / bluray_compat=0 / constrained_intra=0 / bframes=13 / b_pyramid=1 / b_adapt=2 / b_bias=0 / direct=3 / weightb=1 / open_gop=0 / weightp=2 / keyint=250 / keyint_min=23 / scenecut=40 / intra_refresh=0 / rc_lookahead=120 / rc=2pass / mbtree=1 / bitrate=1575 / ratetol=1.0 / qcomp=0.70 / qpmin=0 / qpmax=69 / qpstep=4 / cplxblur=20.0 / qblur=0.5 / vbv_maxrate=20000 / vbv_bufsize=20000 / nal_hrd=none / ip_ratio=1.35 / aq=2:0.80Язык : RussianDefault : ДаForced : Нет

АудиоИдентификатор : 2Формат : AC-3Формат/Информация : Audio Coding 3Расширение режима : CM (complete main)Параметр Endianness формата : BigИдентификатор кодека : A_AC3Продолжительность : 1 ч. 46 м.Вид битрейта : ПостоянныйБитрейт : 384 Кбит/секКаналы : 6 каналовРасположение каналов : Front: L C R, Side: L R, LFEЧастота : 48,0 КГцБитовая глубина : 16 битМетод сжатия : С потерямиРазмер потока : 293 Мбайт (20%)Заголовок : DD 5.1 @ 384 kbpsЯзык : RussianDefault : ДаForced : Нет

Меню00:00:00.000 : :ru Chapter 0100:06:37.500 : :ru Chapter 0200:17:28.333 : :ru Chapter 0300:28:03.750 : :ru Chapter 0400:36:58.916 : :ru Chapter 0500:47:06.583 : :ru Chapter 0600:56:38.291 : :ru Chapter 0701:05:31.666 : :ru Chapter 0801:14:49.541 : :ru Chapter 0901:24:20.750 : :ru Chapter 1001:34:23.000 : :ru Chapter 1101:41:27.208 : :ru Chapter 1201:46:42.083 : :ru Chapter 13

piratbit.ru

Скачать фильм Кухня в Париже через торрент в хорошем качестве бесплатно WEB-DLRip 1080p

ОбщееУникальный идентификатор                 : 209918300709442377982466261854197950757 (0x9DECCB4B858F35CC8F17579E1500A925)Полное имя                               : D:\Games\Kuhnia.2014.O.WEBDL.1080p_.mkvФормат                                   : MatroskaВерсия формата                           : Version 2Размер файла                             : 3,47 ГбайтПродолжительность                        : 1 ч. 46 м.Общий поток                              : 4657 Кбит/секДата кодирования                         : UTC 2014-05-31 20:12:00Программа кодирования                    : mkvmerge v6.9.1 ('Blue Panther') 64bit built on Apr 18 2014 18:23:38Библиотека кодирования                   : libebml v1.3.0 + libmatroska v1.4.1

ВидеоИдентификатор                            : 1Формат                                   : AVCФормат/Информация                        : Advanced Video CodecПрофиль формата                          : [email protected]Параметр CABAC формата                   : ДаПараметр ReFrames формата                : 5 кадровИдентификатор кодека                     : V_MPEG4/ISO/AVCПродолжительность                        : 1 ч. 46 м.Битрейт                                  : 4181 Кбит/секШирина                                   : 1920 пикселейВысота                                   : 800 пикселейСоотношение сторон                       : 2,40:1Режим частоты кадров                     : ПостоянныйЧастота кадров                           : 24,000 кадра/секЦветовое пространство                    : YUVСубдискретизация насыщенности            : 4:2:0Битовая глубина                          : 8 битТип развёртки                            : ПрогрессивнаяБит/(Пиксели*Кадры)                      : 0.113Размер потока                            : 3,12 Гбайт (90%)Язык                                     : EnglishDefault                                  : ДаForced                                   : НетОсновные цвета                           : BT.709Характеристики трансфера                 : BT.709Коэффициенты матрицы                     : BT.709

АудиоИдентификатор                            : 2Формат                                   : AC-3Формат/Информация                        : Audio Coding 3Расширение режима                        : CM (complete main)Параметр Endianness формата              : BigИдентификатор кодека                     : A_AC3Продолжительность                        : 1 ч. 46 м.Вид битрейта                             : ПостоянныйБитрейт                                  : 384 Кбит/секКаналы                                   : 6 каналовРасположение каналов                     : Front: L C R, Side: L R, LFEЧастота                                  : 48,0 КГцБитовая глубина                          : 16 битМетод сжатия                             : С потерямиРазмер потока                            : 293 Мбайт (8%)Язык                                     : RussianDefault                                  : ДаForced                                   : Нет

Меню00:00:00.000                             : en:Глава 100:06:06.000                             : en:Глава 200:11:09.000                             : en:Глава 300:16:11.000                             : en:Глава 400:21:12.000                             : en:Глава 500:26:14.000                             : en:Глава 600:31:15.000                             : en:Глава 700:36:15.000                             : en:Глава 800:41:17.000                             : en:Глава 900:46:30.000                             : en:Глава 1000:51:31.000                             : en:Глава 1100:56:43.000                             : en:Глава 1201:01:45.000                             : en:Глава 1301:06:48.000                             : en:Глава 1401:11:48.000                             : en:Глава 1501:17:02.000                             : en:Глава 1601:22:05.000                             : en:Глава 1701:27:05.000                             : en:Глава 1801:32:06.000                             : en:Глава 1901:37:08.000                             : en:Глава 20

piratbit.ru

Скачать фильм Кухня в Париже через торрент в хорошем качестве бесплатно BDRemux

Общее

Уникальный идентификатор : 234965770266843598031549093692020150655 (0xB0C4C2E3A891AA11BB420F75C720D17F)

Полное имя : E:ЗагрузкиKuhnja.V,Parize.2014.BDRemux.1080p.ExKinoRay.mkv

Формат : Matroska

Версия формата : Version 2

Размер файла : 19,9 Гбайт

Продолжительность : 1 ч. 46 м.

Режим общего битрейта : Переменный

Общий поток : 26,7 Мбит/сек

Название фильма : Кухня в Парижe.2014.Сборкa: ollan

Дата кодирования : UTC 2014-06-12 14:38:36

Программа кодирования : mkvmerge v5.6.0 ('Kenya Kane') built on May 27 2012 16:44:04

Библиотека кодирования : libebml v1.2.3 + libmatroska v1.3.0

Видео

Идентификатор : 1

Формат : AVC

Формат/Информация : Advanced Video Codec

Профиль формата : [email protected]

Параметр CABAC формата : Да

Параметр ReFrames формата : 4 кадра

Идентификатор кодека : V_MPEG4/ISO/AVC

Продолжительность : 1 ч. 46 м.

Вид битрейта : Переменный

Максимальный битрейт : 38,0 Мбит/сек

Ширина : 1920 пикселей

Высота : 1080 пикселей

Соотношение сторон : 16:9

Режим частоты кадров : Постоянный

Частота кадров : 24,000 кадра/сек

Стандарт вещания : NTSC

Цветовое пространство : YUV

Субдискретизация насыщенности : 4:2:0

Битовая глубина : 8 бит

Тип развёртки : Прогрессивная

Язык : Russian

Default : Да

Forced : Нет

Основные цвета : BT.709

Характеристики трансфера : BT.709

Коэффициенты матрицы : BT.709

Аудио #1

Идентификатор : 2

Формат : AC-3

Формат/Информация : Audio Coding 3

Расширение режима : CM (complete main)

Параметр Endianness формата : Big

Идентификатор кодека : A_AC3

Продолжительность : 1 ч. 46 м.

Вид битрейта : Постоянный

Битрейт : 640 Кбит/сек

Каналы : 6 каналов

Расположение каналов : Front: L C R, Side: L R, LFE

Частота : 48,0 КГц

Битовая глубина : 16 бит

Метод сжатия : С потерями

Размер потока : 488 Мбайт (2%)

Язык : Russian

Default : Да

Forced : Нет

Аудио #2

Идентификатор : 3

Формат : DTS

Формат/Информация : Digital Theater Systems

Профиль формата : MA / Core

Режим : 16

Параметр Endianness формата : Big

Идентификатор кодека : A_DTS

Продолжительность : 1 ч. 46 м.

Вид битрейта : Переменный

Битрейт : Неизвестно / 1509 Кбит/сек

Каналы : 6 каналов

Расположение каналов : Front: L C R, Side: L R, LFE

Частота : 48,0 КГц

Битовая глубина : 16 бит

Метод сжатия : Без потерь / Lossy

Язык : Russian

Default : Нет

Forced : Нет

Меню

00:00:00.000 : :ru Chapter 01

00:06:37.500 : :ru Chapter 02

00:17:28.333 : :ru Chapter 03

00:28:03.750 : :ru Chapter 04

00:36:58.916 : :ru Chapter 05

00:47:06.583 : :ru Chapter 06

00:56:38.291 : :ru Chapter 07

01:05:31.666 : :ru Chapter 08

01:14:49.541 : :ru Chapter 09

01:24:20.750 : :ru Chapter 10

01:34:23.000 : :ru Chapter 11

01:41:27.208 : :ru Chapter 12

01:46:42.083 : :ru Chapter 13

piratbit.ru


Смотрите также