Скачать бесплатно через торрент космос между нами в хорошем качестве


Скачать фильм Космос между нами через торрент в хорошем качестве бесплатно BDRip-AVC

GeneralUnique ID : 205891065780885550883757019835871697535 (0x9AE52D487614A011894ACD7703BA9A7F)Complete name : D:\download\The.Space.Between.Us.2017.BDRip-AVC by schultz R.G.Resident.mkvFormat : MatroskaFormat version : Version 4 / Version 2File size : 3.12 GiBDuration : 2 h 0 minOverall bit rate : 3 701 kb/sEncoded date : UTC 2017-05-08 04:10:14Writing application : mkvmerge v8.9.0 ('Father Daughter') 64bitWriting library : libebml v1.3.3 + libmatroska v1.4.4

VideoID : 1Format : AVCFormat/Info : Advanced Video CodecFormat profile : [email protected] settings, CABAC : YesFormat settings, ReFrames : 12 framesCodec ID : V_MPEG4/ISO/AVCDuration : 2 h 0 minBit rate : 2 867 kb/sWidth : 1 024 pixelsHeight : 426 pixelsDisplay aspect ratio : 2.40:1Frame rate mode : ConstantFrame rate : 23.976 (23976/1000) FPSColor space : YUVChroma subsampling : 4:2:0Bit depth : 8 bitsScan type : ProgressiveBits/(Pixel*Frame) : 0.274Stream size : 2.42 GiB (77%)Writing library : x264 core 146 r2538 121396cEncoding settings : cabac=1 / ref=12 / deblock=1:-3:-3 / analyse=0x3:0x113 / me=umh / subme=11 / psy=1 / psy_rd=1.00:0.00 / mixed_ref=1 / me_range=48 / chroma_me=1 / trellis=2 / 8x8dct=1 / cqm=0 / deadzone=21,11 / fast_pskip=0 / chroma_qp_offset=-2 / threads=12 / lookahead_threads=3 / sliced_threads=0 / nr=0 / decimate=0 / interlaced=0 / bluray_compat=0 / constrained_intra=0 / bframes=11 / b_pyramid=2 / b_adapt=2 / b_bias=0 / direct=3 / weightb=1 / open_gop=0 / weightp=2 / keyint=240 / keyint_min=23 / scenecut=40 / intra_refresh=0 / rc_lookahead=40 / rc=2pass / mbtree=1 / bitrate=2867 / ratetol=1.0 / qcomp=0.60 / qpmin=0 / qpmax=69 / qpstep=4 / cplxblur=20.0 / qblur=0.5 / vbv_maxrate=50000 / vbv_bufsize=62500 / nal_hrd=none / filler=0 / ip_ratio=1.40 / aq=1:1.00Language : EnglishDefault : YesForced : No

Audio #1ID : 2Format : AC-3Format/Info : Audio Coding 3Mode extension : CM (complete main)Format settings, Endianness : BigCodec ID : A_AC3Duration : 2 h 0 minBit rate mode : ConstantBit rate : 384 kb/sChannel(s) : 6 channelsChannel positions : Front: L C R, Side: L R, LFESampling rate : 48.0 kHzFrame rate : 31.250 FPS (1536 spf)Compression mode : LossyStream size : 332 MiB (10%)Language : RussianDefault : YesForced : No

Audio #2ID : 3Format : AC-3Format/Info : Audio Coding 3Mode extension : CM (complete main)Format settings, Endianness : BigCodec ID : A_AC3Duration : 2 h 0 minBit rate mode : ConstantBit rate : 448 kb/sChannel(s) : 6 channelsChannel positions : Front: L C R, Side: L R, LFESampling rate : 48.0 kHzFrame rate : 31.250 FPS (1536 spf)Compression mode : LossyStream size : 387 MiB (12%)Language : EnglishDefault : NoForced : No

TextID : 4Format : UTF-8Codec ID : S_TEXT/UTF8Codec ID/Info : UTF-8 Plain TextDuration : 1 h 51 minBit rate : 51 b/sCount of elements : 1527Stream size : 42.5 KiB (0%)Title : fullLanguage : EnglishDefault : NoForced : No

Menu00:00:00.000 : en:00:00:00.00000:06:16.126 : en:00:06:16.12600:11:09.210 : en:00:11:09.21000:18:50.129 : en:00:18:50.12900:23:06.176 : en:00:23:06.17600:28:49.686 : en:00:28:49.68600:33:10.030 : en:00:33:10.03000:38:24.093 : en:00:38:24.09300:43:59.804 : en:00:43:59.80400:49:44.607 : en:00:49:44.60700:53:36.797 : en:00:53:36.79700:58:50.736 : en:00:58:50.73601:06:48.254 : en:01:06:48.25401:15:40.327 : en:01:15:40.32701:22:24.523 : en:01:22:24.52301:30:11.364 : en:01:30:11.36401:36:16.062 : en:01:36:16.06201:43:41.215 : en:01:43:41.21501:48:45.728 : en:01:48:45.72801:53:45.402 : en:01:53:45.402

piratbit.ru

Скачать фильм Космос между нами через торрент в хорошем качестве бесплатно HDTV 720p

piratbit.ru

Размер: 3.77 GB | Добавлен: 6 мес. назад | Торрент скачан:96 раз
Реклама Дарим 3000 рублей за регистрацию, не упусти свой шанс получить шикарный бонус!!!

21-04-2017 19:21 Космос между нами Скачать торрент  

Космос между нами / The Space Between Us Год выпуска: 2017Страна: США Производство: Southpaw Entertainment, Los Angeles Media Fund (LAMF)Жанр: фантастика, драма, мелодрама, приключенияПродолжительность: 02:01:18Перевод: Профессиональный (полное дублирование) [Line]Субтитры: корейские (вшитые)

Режиссер: Питер Челсом

Авторы сценария: Аллан Лоб, Стюарт Шилл, Ричард Бартон Льюис

В ролях: Бритт Робертсон, Гари Олдман, Эйса Баттерфилд, Джанет Монтгомери, Трей Такер, Скотт Такеда, Сара Минник, Райан Джейсон Кук

Описание: Межгалактическая история любви земной девушки и Гарднера Эллиота, выросшего в экспериментальной колонии на Марсе. Их роман начался в интернете, и теперь Эллиот летит на Землю, чтобы встретиться с возлюбленной…

Качество: HDTV 720pФормат: MKVВидео кодек: AVCАудио кодек: АС3Видео: AVC, 1280x536, ~4033 kbps avg, 24.000 fpsАудио: 48 kHz, AC3 Dolby Digital, 2/0 (L,R) ch, ~384 kbps

Скачать Космос между нами через торрент http://img11.lostpic.net/2017/02/08/9a429908b8f886154fe02f3ef99b4412.png Скачать фильм Космос между нами через торрент бесплантно в хорошем качестве Описание: Межгалактическая история любви земной девушки и Гарднера Эллиота, выросшего в экспериментальной колонии на Марсе. Их роман ... 2017-04-21 19:21 8.3 10 3

Loading...

Loading...

% Раздел Тема Автор DL S | L
Фильмы без перевода [ 30.56 GB ] Космос между нами / The Space Between Us [2017 BD Remux] [Оригинал-ENG] smaster Скачать
Фильмы [HD 720p, 1080p] (Хороший звук DUB, MVO) [ 15.86 GB ] Космос между нами / The Space Between Us [2017 BDRip 1080p] -Lexx- Скачать
Фильмы 2017 [DVDrip, WEB-DLRip, HDrip] (DUB, MVO) [ 2.13 GB ] Космос между нами / The Space Between Us [2017 BDRip] - Twi7ter Скачать
R.G.Resident - Фильмы, Видео [ 5.78 GB ] Космос между нами / The Space Between Us [2017 BDRip 720p] - schultz Скачать
Фильмы 2017 [DVDrip, WEB-DLRip, HDrip] (DUB, MVO) [ 1.41 GB ] Космос между нами / The Space Between Us [2017 BDRip] - Twi7ter Скачать
R.G.Resident - Фильмы, Видео [ 3.12 GB ] Космос между нами / The Space Between Us [2017 BDRip-AVC] - schultz Скачать
Фильмы [HD 720p, 1080p] (Хороший звук DUB, MVO) [ 6.57 GB ] Космос между нами / The Space Between Us [2017 BDRip 720p] bober100 Скачать

Рекламный пират

Дорогой пользователь! Огромная просьба, поблагодарите релизера, оцените раздачу и оставьте свои комментарий, если Вы скачали Космос между нами через торрент бесплатно! Внесите свою лепту в развитие PiratBit!

Комментировать посты могут только пользователи прошедшие не сложную регистрацию

Космос между нами через торрент Скачать бесплатно Космос между нами Космос между нами скачать торрент Космос между нами смотреть онлайн Cкачать фильм Космос между нами бесплатно Космос между нами скачать торрент в хорошем качестве Космос между нами смотреть онлайн бесплатно в хорошем качестве

Вы можете начинать темыВы можете отвечать на сообщенияВы не можете редактировать свои сообщенияВы не можете удалять свои сообщенияВы не можете голосовать в опросахВы не можете прикреплять файлы к сообщениямВы можете скачивать файлы

Скачать фильм Космос между нами через торрент в хорошем качестве бесплатно WEB-DLRip

piratbit.ru

Раздают: 1 [ 0 KB/s ]
Размер: 2.05 GB | Добавлен: 5 мес. 24 д. назад | Торрент скачан:63 раза
Реклама Дарим 3000 рублей за регистрацию, не упусти свой шанс получить шикарный бонус!!!

01-05-2017 20:40 Космос между нами Скачать торрент  

Космос между нами / The Space Between Us Страна: США Производство: Southpaw Entertainment, Los Angeles Media Fund (LAMF)Год выпуска: 2017Жанр: фантастика, драма, мелодрама, приключенияПродолжительность: 01:55:22Перевод: Профессиональный (полное дублирование) [Лицензия / iTunes]Субтитры: нет

Режиссер: Питер Челсом

Авторы сценария: Аллан Лоб, Стюарт Шилл, Ричард Бартон Льюис

В ролях: Бритт Робертсон, Гари Олдман, Эйса Баттерфилд, Джанет Монтгомери, Трей Такер, Скотт Такеда, Сара Минник, Райан Джейсон Кук

Описание: Межгалактическая история любви земной девушки и Гарднера Эллиота, выросшего в экспериментальной колонии на Марсе. Их роман начался в интернете, и теперь Эллиот летит на Землю, чтобы встретиться с возлюбленной…

Качество: WEB-DLRipФормат: АVIВидео кодек: XviDАудио кодек: АС3Видео: 720x304 (2.25:1), 23,976 fps, XviD ~1700 kbps avgАудио: 48 kHz, AC3 Dolby Digital, 6 ch, ~384 kbps [DUB]Аудио: 48 kHz, AC3 Dolby Digital, 6 ch, ~384 kbps [ENG]

Скачать Космос между нами через торрент http://img11.lostpic.net/2017/02/08/9a429908b8f886154fe02f3ef99b4412.png Скачать фильм Космос между нами через торрент бесплантно в хорошем качестве Описание: Межгалактическая история любви земной девушки и Гарднера Эллиота, выросшего в экспериментальной колонии на Марсе. Их роман ... 2017-05-01 20:40 10 10 4

Loading...

Loading...

% Раздел Тема Автор DL S | L
Фильмы без перевода [ 30.56 GB ] Космос между нами / The Space Between Us [2017 BD Remux] [Оригинал-ENG] smaster Скачать
Фильмы [HD 720p, 1080p] (Хороший звук DUB, MVO) [ 15.86 GB ] Космос между нами / The Space Between Us [2017 BDRip 1080p] -Lexx- Скачать
Фильмы 2017 [DVDrip, WEB-DLRip, HDrip] (DUB, MVO) [ 2.13 GB ] Космос между нами / The Space Between Us [2017 BDRip] - Twi7ter Скачать
R.G.Resident - Фильмы, Видео [ 5.78 GB ] Космос между нами / The Space Between Us [2017 BDRip 720p] - schultz Скачать
Фильмы 2017 [DVDrip, WEB-DLRip, HDrip] (DUB, MVO) [ 1.41 GB ] Космос между нами / The Space Between Us [2017 BDRip] - Twi7ter Скачать
R.G.Resident - Фильмы, Видео [ 3.12 GB ] Космос между нами / The Space Between Us [2017 BDRip-AVC] - schultz Скачать
Фильмы [HD 720p, 1080p] (Хороший звук DUB, MVO) [ 6.57 GB ] Космос между нами / The Space Between Us [2017 BDRip 720p] bober100 Скачать

Рекламный пират

Дорогой пользователь! Огромная просьба, поблагодарите релизера, оцените раздачу и оставьте свои комментарий, если Вы скачали Космос между нами через торрент бесплатно! Внесите свою лепту в развитие PiratBit!

Комментировать посты могут только пользователи прошедшие не сложную регистрацию

Космос между нами через торрент Скачать бесплатно Космос между нами Космос между нами скачать торрент Космос между нами смотреть онлайн Cкачать фильм Космос между нами бесплатно Космос между нами скачать торрент в хорошем качестве Космос между нами смотреть онлайн бесплатно в хорошем качестве

Вы можете начинать темыВы можете отвечать на сообщенияВы не можете редактировать свои сообщенияВы не можете удалять свои сообщенияВы не можете голосовать в опросахВы не можете прикреплять файлы к сообщениямВы можете скачивать файлы

Скачать фильм Космос между нами через торрент в хорошем качестве бесплатно HDRip-AVC

GeneralUnique ID : 226058083950723917525419916020882612056 (0xAA11340BCE6B9082BC58D0138A681F58)Complete name : D:\The.Space.Between.Us.2017.HDRip.AVC.ExKinoRay.mkvFormat : MatroskaFormat version : Version 2File size : 2.28 GiBDuration : 2 h 0 minOverall bit rate : 2 710 kb/sMovie name : The Space Between Us (2017) from ExKinoRayEncoded date : UTC 2017-05-04 11:01:20Writing application : mkvmerge v5.8.0 ('No Sleep / Pillow') built on Sep 2 2012 15:37:04Writing library : libebml v1.2.3 + libmatroska v1.3.0

VideoID : 1Format : AVCFormat/Info : Advanced Video CodecFormat profile : [email protected] settings, CABAC : YesFormat settings, ReFrames : 12 framesCodec ID : V_MPEG4/ISO/AVCDuration : 2 h 0 minBit rate : 1 876 kb/sWidth : 1 024 pixelsHeight : 426 pixelsDisplay aspect ratio : 2.40:1Frame rate mode : ConstantFrame rate : 23.976 (24000/1001) FPSColor space : YUVChroma subsampling : 4:2:0Bit depth : 8 bitsScan type : ProgressiveBits/(Pixel*Frame) : 0.179Stream size : 1.54 GiB (67%)Title : EnigmaWriting library : x264 core 144 r2525 40bb568Encoding settings : cabac=1 / ref=12 / deblock=1:-2:-3 / analyse=0x3:0x113 / me=umh / subme=10 / psy=1 / psy_rd=1.00:0.05 / mixed_ref=1 / me_range=32 / chroma_me=1 / trellis=2 / 8x8dct=1 / cqm=0 / deadzone=21,11 / fast_pskip=1 / chroma_qp_offset=-3 / threads=12 / lookahead_threads=3 / sliced_threads=0 / nr=0 / decimate=0 / interlaced=0 / bluray_compat=0 / constrained_intra=0 / bframes=10 / b_pyramid=2 / b_adapt=2 / b_bias=0 / direct=3 / weightb=1 / open_gop=0 / weightp=2 / keyint=240 / keyint_min=23 / scenecut=40 / intra_refresh=0 / rc_lookahead=40 / rc=2pass / mbtree=0 / bitrate=1876 / ratetol=1.0 / qcomp=0.60 / qpmin=0 / qpmax=51 / qpstep=4 / cplxblur=20.0 / qblur=0.5 / vbv_maxrate=50000 / vbv_bufsize=62500 / nal_hrd=none / filler=0 / ip_ratio=1.40 / pb_ratio=1.30 / aq=1:1.00Language : EnglishDefault : YesForced : NoColor range : LimitedColor primaries : BT.709Transfer characteristics : BT.709Matrix coefficients : BT.709

Audio #1ID : 2Format : AC-3Format/Info : Audio Coding 3Mode extension : CM (complete main)Format settings, Endianness : BigCodec ID : A_AC3Duration : 2 h 0 minBit rate mode : ConstantBit rate : 384 kb/sChannel(s) : 6 channelsChannel positions : Front: L C R, Side: L R, LFESampling rate : 48.0 kHzFrame rate : 31.250 FPS (1536 spf)Compression mode : LossyStream size : 332 MiB (14%)Title : Dub (iTunes)Language : RussianDefault : YesForced : No

Audio #2ID : 3Format : AC-3Format/Info : Audio Coding 3Mode extension : CM (complete main)Format settings, Endianness : BigCodec ID : A_AC3Duration : 2 h 0 minBit rate mode : ConstantBit rate : 448 kb/sChannel(s) : 6 channelsChannel positions : Front: L C R, Side: L R, LFESampling rate : 48.0 kHzFrame rate : 31.250 FPS (1536 spf)Compression mode : LossyStream size : 387 MiB (17%)Language : EnglishDefault : NoForced : No

TextID : 4Format : UTF-8Codec ID : S_TEXT/UTF8Codec ID/Info : UTF-8 Plain TextLanguage : EnglishDefault : NoForced : No

Menu00:00:00.000 : en:00:00:00.00000:06:16.126 : en:00:06:16.12600:11:09.210 : en:00:11:09.21000:18:50.129 : en:00:18:50.12900:23:06.176 : en:00:23:06.17600:28:49.686 : en:00:28:49.68600:33:10.030 : en:00:33:10.03000:38:24.093 : en:00:38:24.09300:43:59.804 : en:00:43:59.80400:49:44.607 : en:00:49:44.60700:53:36.797 : en:00:53:36.79700:58:50.736 : en:00:58:50.73601:06:48.254 : en:01:06:48.25401:15:40.327 : en:01:15:40.32701:22:24.523 : en:01:22:24.52301:30:11.364 : en:01:30:11.36401:36:16.062 : en:01:36:16.06201:43:41.215 : en:01:43:41.21501:48:45.728 : en:01:48:45.72801:53:45.402 : en:01:53:45.402

piratbit.ru


Смотрите также