Скачать академия вампиров 2 скачать торрент в хорошем качестве


Академия вампиров скачать торрент в хорошем качестве бесплатно

torrentskino.info

BDRipПодробнееПроф. (полное  дублирование) [звук из кинотеатра]AVI1.37 ГБскачать
Продолжительность: 01:44:22Формат: AVIВидео кодек: XviDАудио кодек: MP3Видео:   1738 kb/s, 720x304Аудио:   MP3, 128 kb/s (6 ch)
BDRip (hd)ПодробнееПроф. (полное  дублирование) [звук из кинотеатра]MKV4.46 ГБскачать
Продолжительность: 01:44:22Формат: MKVВидео кодек: H.26xАудио кодек: MP3Видео:   4481 Kb/s, 1280x536Аудио:   Аудио1: Russian: MP3, 128 kb/s (2 ch) Аудио2: English: DTS, 1510 Kb/s (6 ch)
HDTVRipПодробнееЛюбительский (многоголосый)BaibaKoAVI1.46 ГБскачать
Формат: AVIВидео кодек: XviDАудио кодек: AC3Видео:   1605 kb/s, 720x304Аудио:   AC3, 384 kb/s (6 ch)
BDRipПодробнееЛюбительский (многоголосый)BaibaKoMKV2.06 ГБскачать
Продолжительность: 01:44:22Формат: MKVВидео кодек: H.26xАудио кодек: AC3Видео:   1970 kb/s, 720x304Аудио:   Аудио1: Russian: AC3, 384 kb/s (6 ch) Аудио2: English: AC3, 448 kb/s (6 ch)
BDRip (hd)ПодробнееЛюбительский (многоголосый)BaibaKoMKV5.28 ГБскачать
Продолжительность: 01:44:22Формат: MKVВидео кодек: H.26xАудио кодек: AC3Видео:   4481 Kb/s, 1280x536Аудио:   Аудио1: Russian: AC3, 384 kb/s (6 ch) Аудио2: English: DTS, 1510 Kb/s (6 ch)
BDRipПодробнееЛюбительский (многоголосый)BaibaKoMKV1.55 ГБскачать
Продолжительность: 01:44:22Формат: MKVВидео кодек: H.26xАудио кодек: AC3Видео:   MPEG-4 AVC, 1300 Кбит/с, 1024x426, 23.976 кадр/сАудио:   Аудио 1: Русский (AC3, 6 ch, 384 Кбит/с) / Профессиональный многоголосый (Baibako)

Аудио 2: Английский (AC3, 6 ch, 448 Кбит/с)

Blu-Ray (hd)ПодробнееЛюбительский (многоголосый)BaibaKoMKV21.93 ГБскачать
Продолжительность: 01:44:22Формат: MKVВидео кодек: H.26xАудио кодек: AC3Видео:   MPEG-4 AVC, 28902 Кбит/с, 1920x1080, 23.976 кадр/cАудио:   Аудио1: Русский (AC3, 6 ch, 640 Кбит/с), Аудио2: (DTS-HD MA, 6 ch, 3844 Кбит/с), Аудио3: английский (DTS-HD MA, 6 ch, 3788 Кбит/с)
BDRipПодробнееЛюбительский (многоголосый)BaibaKoM4V1.59 ГБскачать
Формат: M4VВидео кодек: H.26xАудио кодек: AACВидео:   1024x428 (2.40:1) at 23.976 fps, AVC at 1900 kbpsАудио:   Аудио1: АAС 2.0 129 kbps - Русский любительский многоголосый закадровый (Baibako) Аудио2: АAС 2.0 132 kbps - Английский
BDRipПодробнееЛюбительский (многоголосый)BaibaKoAVI744.35 МБскачать
Продолжительность: 01:44:22Формат: AVIВидео кодек: XviDАудио кодек: MP3Видео:   688x288 (2.39:1), 23.976 fps, XviD build 73 ~859 kbps avg, 0.18 bit/pixelАудио:   48 kHz, MPEG Layer 3, 2 ch, ~128.00 kbps avg
BDRipПодробнееПроф. (полное дублирование)AVI1.36 ГБскачать
Формат: AVIВидео кодек: XviDАудио кодек: MP3Видео:   1605 kb/s, 720x304Аудио:   MP3, 256 kb/s (2 ch)
BDRipПодробнееЛюбительский (многоголосый)BaibaKoAVI1.45 ГБскачать
Продолжительность: :Формат: AVIВидео кодек: XviDАудио кодек: AC3Видео:   720x304 (2.37:1), 23.976 fps, XviD build 73 ~1593 kbps avg, 0.30 bit/pixelАудио:   48 kHz, AC3 Dolby Digital, 3/2 (L,C,R,l,r) + LFE ch, ~384.00 kbps avg
BDRip (hd)ПодробнееПроф. (полное дублирование)BaibaKoMKV5.55 ГБскачать
Формат: MKVВидео кодек: H.26xАудио кодек: AC3Видео:   6200 kb/s, 1280x534Аудио:   Аудио 1: Russian [Дубляж]: AC3, 384 kb/s (2 ch) Аудио 2: Russian [BaibaKo]: AC3, 384 kb/s (6 ch) Аудио 3: English: AC3, 640 kb/s (6 ch)
BDRip (hd)ПодробнееПроф. (полное дублирование)BaibaKoMKV8.66 ГБскачать
Формат: MKVВидео кодек: AVCАудио кодек: AC3Видео:   9361 kb/s, 1920x800Аудио:   Аудио 1: Russian [Дубляж]: AC3, 384 kb/s (2 ch) Аудио 2: Russian [BaibaKo]: AC3, 384 kb/s (6 ch) Аудио 3: English: DTS, 1510 kb/s (6 ch)
BDRipПодробнееПроф. (полное дублирование)BaibaKoAVI1.45 ГБ скачать
Продолжительность: :Формат: AVIВидео кодек: XviDАудио кодек: MP3Видео:   720x304 (2.37:1), 23.976 fps, XviD build 73 ~1593 kbps avg, 0.30 bit/pixelАудио:   Аудио №1: 48 kHz, MPEG Layer 3, 2 ch, ~256.00 kbps avg - дубляж

Аудио №2: 48 kHz, MPEG Layer 3, 2 ch, ~128.00 kbps avg - Байбако

BDRipПодробнееПроф. (полное дублирование)AVI744.35 МБскачать
Продолжительность: 01:44:22Формат: AVIВидео кодек: XviDАудио кодек: MP3Видео:   688x288 (2.39:1), 23.976 fps, XviD build 73 ~859 kbps avg, 0.18 bit/pixelАудио:   48 kHz, MPEG Layer 3, 2 ch, ~128.00 kbps avg
BDRipПодробнееПроф. (полное дублирование)BaibaKoMKV1.83 ГБскачать
Продолжительность: 01:44:22Формат: MKVВидео кодек: AVCАудио кодек: AC3Видео:   MPEG-4 AVC, 1300 Кбит/с, 1024x426, 23.976 кадр/сАудио:   Аудио #1: Русский (AC3, 2 ch, 384 Кбит/с) / Дублированный (Чистый звук) Аудио #2: Русский (AC3, 6 ch, 384 Кбит/с) (Baibako) Аудио #3: Английский (AC3, 6 ch, 448 Кбит/с)
BDRipПодробнееПроф. (полное дублирование)BaibaKoAVI2.18 ГБскачать
Продолжительность: 01:44:22Формат: AVIВидео кодек: XviDАудио кодек: AC3Видео:   XviD, 1833 Кбит/с, 720x304Аудио:   Аудио 1: Русский, AC3, 6 ch, 384 Кбит/с | дублированный [Чистый звук] Аудио 2: Русский, AC3, 6 ch, 384 Кбит/с | Baibako Аудио 3: Английский, AC3, 6 ch, 384 Кбит/с | (оригинал)
BDRipПодробнееПроф. (многоголосый)BaibaKoMKV1.42 ГБскачать
Продолжительность: 01:44:22Формат: MKVВидео кодек: H.26xАудио кодек: AC3Видео:   х.264, 1032x430(2,40:1), 23,976 fps, 1107 Кbps, 0.104 bit/pixelАудио:   Аудио#1: 48 kHz, AC3 Dolby Digital, 3/2 (L,C,R,l,r) + LFE ch, 384.00 kbps | RUS Аудио#2: 48 kHz, AC3 Dolby Digital, 3/2 (L,C,R,l,r) + LFE ch, 448.00 kbps | ENG
BDRipПодробнееПроф. (полное дублирование)AVI1.46 ГБскачать
Продолжительность: 01:44:22Формат: AVIВидео кодек: XviDАудио кодек: AC3Видео:   XviD, 1614 Кбит/с, 720x304Аудио:   Русский, AC3, 6 ch, 384 Кбит/с | (дуб. Line)
BDRipПодробнееПроф. (полное дублирование)AVI1.41 ГБскачать
Продолжительность: 01:44:22Формат: AVIВидео кодек: XviDАудио кодек: AC3Видео:   720x304 (2.37:1), 23.976 fps, XviD build 73 ~1543 kbps avg, 0.29 bit/pixel

Аудио:   48 kHz, AC3 Dolby Digital, 3/2 (L,C,R,l,r) + LFE ch, ~384 kbps

KPKПодробнееПроф. (полное дублирование)MP4653.35 МБскачать
Продолжительность: 01:44:22Формат: MP4Видео кодек: H.26xАудио кодек: AACВидео:   MPEG-4 AVC, 640 х 264, 23.976 fps, 750 Кбит/с

Аудио:   ААС LC, 2 ch, 128 Кбит/с

BDRipПодробнееПроф. (полное дублирование)AVI1.45 ГБскачать
Продолжительность: 01:44:22Формат: AVIВидео кодек: XviDАудио кодек: AC3Видео:   720x304 (2.37:1), 23.976 fps, XviD build 73 ~1593 kbps avg, 0.30 bit/pixel

Аудио:   48 kHz, AC3 Dolby Digital, 3/2 (L,C,R,l,r) + LFE ch, ~384.00 kbps avg

Скачать фильм Академия вампиров через торрент в хорошем качестве бесплатно BDRip-AVC от sokol_ok

ОбщееУникальный идентификатор : 241672414792159053628897832083471489160 (0xB5D069FE65F3832DA3CD655BDAB45888)Полное имя : M:\Rips2\Vampire Academy\Vampire.Academy.2014.BDRip-AVC.Dub.2.18Gb.stalkerok.new-team.mkvФормат : MatroskaВерсия формата : Version 4 / Version 2Размер файла : 2,14 ГбайтПродолжительность : 1 ч. 44 м.Общий поток : 2929 Кбит/секНазвание фильма : Vampire Academy (2014) (New-Team) (Rip by Stalker oK)Дата кодирования : UTC 2016-01-07 19:23:45Программа кодирования : mkvmerge v8.6.1 ('Flying') 64bitБиблиотека кодирования : libebml v1.3.3 + libmatroska v1.4.4

ВидеоИдентификатор : 2Формат : AVCФормат/Информация : Advanced Video CodecПрофиль формата : [email protected]Параметр CABAC формата : ДаПараметр ReFrames формата : 14 кадровИдентификатор кодека : V_MPEG4/ISO/AVCПродолжительность : 1 ч. 44 м.Битрейт : 2096 Кбит/секШирина : 1152 пикселяВысота : 480 пикселейСоотношение сторон : 2,40:1Режим частоты кадров : ПостоянныйЧастота кадров : 23,976 (24000/1001) кадра/секЦветовое пространство : YUVСубдискретизация насыщенности : 4:2:0Битовая глубина : 8 битТип развёртки : ПрогрессивнаяБит/(Пиксели*Кадры) : 0.158Размер потока : 1,53 Гбайт (72%)Заголовок : Vampire Academy (2014) (New-Team) (Rip by Stalker oK)Библиотека кодирования : x264 core 148 r2638kMod 7599210Настройки программы : cabac=1 / ref=14 / deblock=1:-3:-3 / analyse=0x3:0x133 / me=umh / subme=11 / psy=1 / fade_compensate=0.00 / psy_rd=1.00:0.10 / mixed_ref=1 / me_range=48 / chroma_me=1 / trellis=2 / 8x8dct=1 / cqm=0 / deadzone=21,11 / fast_pskip=0 / chroma_qp_offset=-3 / threads=12 / lookahead_threads=3 / sliced_threads=0 / nr=0 / decimate=0 / interlaced=0 / bluray_compat=0 / constrained_intra=0 / fgo=0 / bframes=15 / b_pyramid=2 / b_adapt=2 / b_bias=0 / direct=3 / weightb=1 / open_gop=0 / weightp=2 / keyint=240 / keyint_min=23 / scenecut=40 / intra_refresh=0 / rc_lookahead=60 / rc=2pass / mbtree=0 / bitrate=2096 / ratetol=1.0 / qcomp=0.70 / qpmin=0 / qpmax=69 / qpstep=4 / cplxblur=20.0 / qblur=0.5 / vbv_maxrate=50000 / vbv_bufsize=62500 / nal_hrd=none / filler=0 / ip_ratio=1.40 / pb_ratio=1.30 / aq=3:0.80Default : ДаForced : Нет

Аудио #1Идентификатор : 1Формат : AC-3Формат/Информация : Audio Coding 3Расширение режима : CM (complete main)Параметр Endianness формата : BigИдентификатор кодека : A_AC3Продолжительность : 1 ч. 44 м.Вид битрейта : ПостоянныйБитрейт : 384 Кбит/секКаналы : 6 каналовРасположение каналов : Front: L C R, Side: L R, LFEЧастота : 48,0 КГцЧастота кадров : 31,250 кадров/сек (1536 spf)Метод сжатия : С потерямиРазмер потока : 287 Мбайт (13%)Язык : RussianDefault : ДаForced : Нет

Аудио #2Идентификатор : 7Формат : AC-3Формат/Информация : Audio Coding 3Расширение режима : CM (complete main)Параметр Endianness формата : BigИдентификатор кодека : A_AC3Продолжительность : 1 ч. 44 м.Вид битрейта : ПостоянныйБитрейт : 448 Кбит/секКаналы : 6 каналовРасположение каналов : Front: L C R, Side: L R, LFEЧастота : 48,0 КГцЧастота кадров : 31,250 кадров/сек (1536 spf)Метод сжатия : С потерямиРазмер потока : 334 Мбайт (15%)Язык : EnglishDefault : НетForced : Нет

Текст #1Идентификатор : 3Формат : UTF-8Идентификатор кодека : S_TEXT/UTF8Идентификатор кодека/Информация : UTF-8 Plain TextПродолжительность : 1 ч. 35 м.Битрейт : 160 бит/секCount of elements : 1630Размер потока : 113 Кбайт (0%)Заголовок : notabenoidЯзык : RussianDefault : НетForced : Нет

Текст #2Идентификатор : 4Формат : UTF-8Идентификатор кодека : S_TEXT/UTF8Идентификатор кодека/Информация : UTF-8 Plain TextПродолжительность : 1 ч. 34 м.Битрейт : 89 бит/секCount of elements : 1628Размер потока : 62,1 Кбайт (0%)Заголовок : FullЯзык : EnglishDefault : НетForced : Нет

Текст #3Идентификатор : 5Формат : UTF-8Идентификатор кодека : S_TEXT/UTF8Идентификатор кодека/Информация : UTF-8 Plain TextПродолжительность : 1 ч. 35 м.Битрейт : 94 бит/секCount of elements : 1814Размер потока : 66,0 Кбайт (0%)Заголовок : SDHЯзык : EnglishDefault : НетForced : Нет

Текст #4Идентификатор : 6Формат : UTF-8Идентификатор кодека : S_TEXT/UTF8Идентификатор кодека/Информация : UTF-8 Plain TextПродолжительность : 1 ч. 36 м.Битрейт : 108 бит/секCount of elements : 1815Размер потока : 76,7 Кбайт (0%)Заголовок : SDH-ColoredЯзык : EnglishDefault : НетForced : Нет

Меню00:00:00.000 : :Chapter 0100:06:11.913 : :Chapter 0200:13:48.661 : :Chapter 0300:19:34.590 : :Chapter 0400:26:25.834 : :Chapter 0500:33:07.652 : :Chapter 0600:39:47.760 : :Chapter 0700:46:29.119 : :Chapter 0800:51:45.852 : :Chapter 0900:56:13.578 : :Chapter 1001:01:42.323 : :Chapter 1101:07:31.005 : :Chapter 1201:13:32.533 : :Chapter 1301:21:50.071 : :Chapter 1401:30:11.781 : :Chapter 1501:36:05.676 : :Chapter 1601:44:22.005 : :Chapter 17

piratbit.ru

Скачать фильм Академия вампиров через торрент в хорошем качестве бесплатно BDRip-AVC от sokol_ok

ОбщееУникальный идентификатор : 223880838310278015939886931095202971998 (0xA86DE18C565D1D54BDB7789C12FE415E)Полное имя : M:\Rips2\Vampire Academy\Vampire.Academy.2014.BDRip-AVC.Dub.1.45Gb.stalkerok.new-team.mkvФормат : MatroskaВерсия формата : Version 4 / Version 2Размер файла : 1,41 ГбайтПродолжительность : 1 ч. 44 м.Общий поток : 1941 Кбит/секНазвание фильма : Vampire Academy (2014) (New-Team) (Rip by Stalker oK)Дата кодирования : UTC 2016-01-07 18:47:03Программа кодирования : mkvmerge v8.6.1 ('Flying') 64bitБиблиотека кодирования : libebml v1.3.3 + libmatroska v1.4.4

ВидеоИдентификатор : 1Формат : AVCФормат/Информация : Advanced Video CodecПрофиль формата : [email protected]Параметр CABAC формата : ДаПараметр ReFrames формата : 14 кадровИдентификатор кодека : V_MPEG4/ISO/AVCПродолжительность : 1 ч. 44 м.Битрейт : 1557 Кбит/секШирина : 1032 пикселяВысота : 430 пикселейСоотношение сторон : 2,40:1Режим частоты кадров : ПостоянныйЧастота кадров : 23,976 (24000/1001) кадра/секЦветовое пространство : YUVСубдискретизация насыщенности : 4:2:0Битовая глубина : 8 битТип развёртки : ПрогрессивнаяБит/(Пиксели*Кадры) : 0.146Размер потока : 1,13 Гбайт (80%)Заголовок : Vampire Academy (2014) (New-Team) (Rip by Stalker oK)Библиотека кодирования : x264 core 148 r2638kMod 7599210Настройки программы : cabac=1 / ref=14 / deblock=1:-3:-3 / analyse=0x3:0x133 / me=umh / subme=11 / psy=1 / fade_compensate=0.00 / psy_rd=1.00:0.10 / mixed_ref=1 / me_range=48 / chroma_me=1 / trellis=2 / 8x8dct=1 / cqm=0 / deadzone=21,11 / fast_pskip=0 / chroma_qp_offset=-3 / threads=12 / lookahead_threads=3 / sliced_threads=0 / nr=0 / decimate=0 / interlaced=0 / bluray_compat=0 / constrained_intra=0 / fgo=0 / bframes=15 / b_pyramid=2 / b_adapt=2 / b_bias=0 / direct=3 / weightb=1 / open_gop=0 / weightp=2 / keyint=240 / keyint_min=23 / scenecut=40 / intra_refresh=0 / rc_lookahead=60 / rc=2pass / mbtree=0 / bitrate=1557 / ratetol=1.0 / qcomp=0.70 / qpmin=0 / qpmax=69 / qpstep=4 / cplxblur=20.0 / qblur=0.5 / vbv_maxrate=50000 / vbv_bufsize=62500 / nal_hrd=none / filler=0 / ip_ratio=1.40 / pb_ratio=1.30 / aq=3:0.90Default : ДаForced : Нет

АудиоИдентификатор : 2Формат : AC-3Формат/Информация : Audio Coding 3Расширение режима : CM (complete main)Параметр Endianness формата : BigИдентификатор кодека : A_AC3Продолжительность : 1 ч. 44 м.Вид битрейта : ПостоянныйБитрейт : 384 Кбит/секКаналы : 6 каналовРасположение каналов : Front: L C R, Side: L R, LFEЧастота : 48,0 КГцЧастота кадров : 31,250 кадров/сек (1536 spf)Метод сжатия : С потерямиРазмер потока : 287 Мбайт (20%)Язык : RussianDefault : ДаForced : Нет

Текст #1Идентификатор : 3Формат : UTF-8Идентификатор кодека : S_TEXT/UTF8Идентификатор кодека/Информация : UTF-8 Plain TextПродолжительность : 1 ч. 34 м.Битрейт : 162 бит/секCount of elements : 1631Размер потока : 113 Кбайт (0%)Заголовок : notabenoidЯзык : RussianDefault : НетForced : Нет

Текст #2Идентификатор : 4Формат : UTF-8Идентификатор кодека : S_TEXT/UTF8Идентификатор кодека/Информация : UTF-8 Plain TextПродолжительность : 1 ч. 34 м.Битрейт : 89 бит/секCount of elements : 1626Размер потока : 62,3 Кбайт (0%)Язык : EnglishDefault : НетForced : Нет

Меню00:00:00.000 : :Chapter 0100:06:11.913 : :Chapter 0200:13:48.661 : :Chapter 0300:19:34.590 : :Chapter 0400:26:25.834 : :Chapter 0500:33:07.652 : :Chapter 0600:39:47.760 : :Chapter 0700:46:29.119 : :Chapter 0800:51:45.852 : :Chapter 0900:56:13.578 : :Chapter 1001:01:42.323 : :Chapter 1101:07:31.005 : :Chapter 1201:13:32.533 : :Chapter 1301:21:50.071 : :Chapter 1401:30:11.781 : :Chapter 1501:36:05.676 : :Chapter 1601:44:22.005 : :Chapter 17

piratbit.ru

Скачать фильм Академия вампиров (2014) через торрент

gig-torrent.net

15 февраля 2016 11:46 Академия вампиров / Vampire Academy (2014) HDRip от Scarabey | iTunes .torrent   [Информация о файле (нажмите для просмотра)] Перевод: Профессиональный (полное дублирование) [iTunes]Видео: 720x304 (2.37:1), 23.976 fps, XviD build 73 ~1593 kbps avg, 0.30 bit/pixelАудио: 48 kHz, AC3 Dolby Digital, 3/2 (L,C,R,l,r) + LFE ch, ~384.00 kbps avg 1,45 Gb 159 6
15 февраля 2016 11:46 Академия вампиров / Vampire Academy (2014) BDRip-AVC от New-Team | iTunes .torrent   [Информация о файле (нажмите для просмотра)] Перевод: Профессиональный (полное дублирование) [Лицензия iTunes]Субтитры: русские (notabenoid), английскиеВидео: 2096 Кбит/сек, 1152*480 (2,40:1), в 23,976 (24000/1001) кадра/сек, AVCАудио #1: Russian, 384 Кбит/сек, 48,0 КГц, 6 каналов, AC-3Аудио #2: English, 448 Кбит/сек, 48,0 КГц, 6 каналов, AC-3Видео: Идентификатор : 2 Формат : AVC Формат/Информация : Advanced Video Codec Профиль формата : [email protected] Параметр CABAC формата : Да Параметр ReFrames формата : 14 кадров Идентификатор кодека : V_MPEG4/ISO/AVC Продолжительность : 1 ч. 44 м. Битрейт : 2096 Кбит/сек Ширина : 1152 пикселя Высота : 480 пикселей Соотношение сторон : 2,40:1 Режим частоты кадров : Постоянный Частота кадров : 23,976 (24000/1001) кадра/сек Цветовое пространство : YUV Субдискретизация насыщенности : 4:2:0 Битовая глубина : 8 бит Тип развёртки : Прогрессивная Бит/(Пиксели*Кадры) : 0.158 Размер потока : 1,53 Гбайт (72%) Заголовок : Vampire Academy (2014) (New-Team) (Rip by Stalker oK) Библиотека кодирования : x264 core 148 r2638kMod 7599210 Настройки программы : cabac=1 / ref=14 / deblock=1:-3:-3 / analyse=0x3:0x133 / me=umh / subme=11 / psy=1 / fade_compensate=0.00 / psy_rd=1.00:0.10 / mixed_ref=1 / me_range=48 / chroma_me=1 / trellis=2 / 8x8dct=1 / cqm=0 / deadzone=21,11 / fast_pskip=0 / chroma_qp_offset=-3 / threads=12 / lookahead_threads=3 / sliced_threads=0 / nr=0 / decimate=0 / interlaced=0 / bluray_compat=0 / constrained_intra=0 / fgo=0 / bframes=15 / b_pyramid=2 / b_adapt=2 / b_bias=0 / direct=3 / weightb=1 / open_gop=0 / weightp=2 / keyint=240 / keyint_min=23 / scenecut=40 / intra_refresh=0 / rc_lookahead=60 / rc=2pass / mbtree=0 / bitrate=2096 / ratetol=1.0 / qcomp=0.70 / qpmin=0 / qpmax=69 / qpstep=4 / cplxblur=20.0 / qblur=0.5 / vbv_maxrate=50000 / vbv_bufsize=62500 / nal_hrd=none / filler=0 / ip_ratio=1.40 / pb_ratio=1.30 / aq=3:0.80 Default : Да Forced : НетАудио #1: Идентификатор : 1 Формат : AC-3 Формат/Информация : Audio Coding 3 Расширение режима : CM (complete main) Параметр Endianness формата : Big Идентификатор кодека : A_AC3 Продолжительность : 1 ч. 44 м. Вид битрейта : Постоянный Битрейт : 384 Кбит/сек Каналы : 6 каналов Расположение каналов : Front: L C R, Side: L R, LFE Частота : 48,0 КГц Частота кадров : 31,250 кадров/сек (1536 spf) Метод сжатия : С потерями Размер потока : 287 Мбайт (13%) Язык : Russian Default : Да Forced : НетАудио #2: Идентификатор : 7 Формат : AC-3 Формат/Информация : Audio Coding 3 Расширение режима : CM (complete main) Параметр Endianness формата : Big Идентификатор кодека : A_AC3 Продолжительность : 1 ч. 44 м. Вид битрейта : Постоянный Битрейт : 448 Кбит/сек Каналы : 6 каналов Расположение каналов : Front: L C R, Side: L R, LFE Частота : 48,0 КГц Частота кадров : 31,250 кадров/сек (1536 spf) Метод сжатия : С потерями Размер потока : 334 Мбайт (15%) Язык : English Default : Нет Forced : Нет 2,14 Gb 24 2
15 февраля 2016 11:46 Академия вампиров / Vampire Academy (2014) BDRip-AVC от New-Team | iTunes .torrent   [Информация о файле (нажмите для просмотра)] Перевод: Профессиональный (полное дублирование) [Лицензия iTunes]Субтитры: русские (notabenoid), английскиеВидео: 1557 Кбит/сек, 1032x430 (2.40:1), 23,976 кадр/сек, AVCАудио: русский, 384 Кбит/сек, 48 КГц, 16 бит, 5.1, AC3Видео: Идентификатор : 1 Формат : AVC Формат/Информация : Advanced Video Codec Профиль формата : [email protected] Параметр CABAC формата : Да Параметр ReFrames формата : 14 кадров Идентификатор кодека : V_MPEG4/ISO/AVC Продолжительность : 1 ч. 44 м. Битрейт : 1557 Кбит/сек Ширина : 1032 пикселя Высота : 430 пикселей Соотношение сторон : 2,40:1 Режим частоты кадров : Постоянный Частота кадров : 23,976 (24000/1001) кадра/сек Цветовое пространство : YUV Субдискретизация насыщенности : 4:2:0 Битовая глубина : 8 бит Тип развёртки : Прогрессивная Бит/(Пиксели*Кадры) : 0.146 Размер потока : 1,13 Гбайт (80%) Заголовок : Vampire Academy (2014) (New-Team) (Rip by Stalker oK) Библиотека кодирования : x264 core 148 r2638kMod 7599210 Настройки программы : cabac=1 / ref=14 / deblock=1:-3:-3 / analyse=0x3:0x133 / me=umh / subme=11 / psy=1 / fade_compensate=0.00 / psy_rd=1.00:0.10 / mixed_ref=1 / me_range=48 / chroma_me=1 / trellis=2 / 8x8dct=1 / cqm=0 / deadzone=21,11 / fast_pskip=0 / chroma_qp_offset=-3 / threads=12 / lookahead_threads=3 / sliced_threads=0 / nr=0 / decimate=0 / interlaced=0 / bluray_compat=0 / constrained_intra=0 / fgo=0 / bframes=15 / b_pyramid=2 / b_adapt=2 / b_bias=0 / direct=3 / weightb=1 / open_gop=0 / weightp=2 / keyint=240 / keyint_min=23 / scenecut=40 / intra_refresh=0 / rc_lookahead=60 / rc=2pass / mbtree=0 / bitrate=1557 / ratetol=1.0 / qcomp=0.70 / qpmin=0 / qpmax=69 / qpstep=4 / cplxblur=20.0 / qblur=0.5 / vbv_maxrate=50000 / vbv_bufsize=62500 / nal_hrd=none / filler=0 / ip_ratio=1.40 / pb_ratio=1.30 / aq=3:0.90 Default : Да Forced : НетАудио: Идентификатор : 2 Формат : AC-3 Формат/Информация : Audio Coding 3 Расширение режима : CM (complete main) Параметр Endianness формата : Big Идентификатор кодека : A_AC3 Продолжительность : 1 ч. 44 м. Вид битрейта : Постоянный Битрейт : 384 Кбит/сек Каналы : 6 каналов Расположение каналов : Front: L C R, Side: L R, LFE Частота : 48,0 КГц Частота кадров : 31,250 кадров/сек (1536 spf) Метод сжатия : С потерями Размер потока : 287 Мбайт (20%) Язык : Russian Default : Да Forced : Нет 1,41 Gb 11 1
15 февраля 2016 11:45 Академия вампиров / Vampire Academy (2014) HDRip от KinoHitHD | КПК | iTunes .torrent   [Информация о файле (нажмите для просмотра)] Кодек: х264Качество: HDRip | КПКВидео: MPEG-4 AVC, 640 х 264, 23.976 fps, 750 Кбит/сАудио: ААС LC, 2 ch, 128 Кбит/сСкриншоты: 653,35 Mb 70 11
15 февраля 2016 11:45 Академия вампиров / Vampire Academy (2014) BDRip 720p | iTunes .torrent   [Информация о файле (нажмите для просмотра)] Перевод: Профессиональный (полное дублирование)iTunesСубтитры: Русские, АнглийскиеФормат: MKVКачество: BDRip 720pВидео: MPEG-4 AVC, 6200 Кбит/с, 1280x534Видео: Идентификатор : 1 Формат : AVC Формат/Информация : Advanced Video Codec Профиль формата : [email protected] Параметр CABAC формата : Да Параметр ReFrames формата : 12 кадров Идентификатор кодека : V_MPEG4/ISO/AVC Продолжительность : 1 ч. 44 м. Битрейт : 6200 Кбит/сек Ширина : 1280 пикселей Высота : 534 пикселя Соотношение сторон : 2,40:1 Режим частоты кадров : Постоянный Частота кадров : 23,976 (24000/1001) кадра/сек Цветовое пространство : YUV Субдискретизация насыщенности : 4:2:0 Битовая глубина : 8 бит Тип развёртки : Прогрессивная Бит/(Пиксели*Кадры) : 0.378 Размер потока : 4,52 Гбайт (86%) Заголовок : Vampire Academy 2014 Библиотека кодирования : x264 core 133 r2334 a3ac64b Настройки программы : cabac=1 / ref=12 / deblock=1:-3:-3 / analyse=0x3:0x113 / me=umh / subme=11 / psy=1 / psy_rd=1.05:0.00 / mixed_ref=1 / me_range=24 / chroma_me=1 / trellis=2 / 8x8dct=1 / cqm=0 / deadzone=21,11 / fast_pskip=0 / chroma_qp_offset=-2 / threads=3 / lookahead_threads=1 / sliced_threads=0 / nr=0 / decimate=0 / interlaced=0 / bluray_compat=0 / constrained_intra=0 / bframes=12 / b_pyramid=2 / b_adapt=2 / b_bias=0 / direct=3 / weightb=1 / open_gop=0 / weightp=2 / keyint=250 / keyint_min=23 / scenecut=40 / intra_refresh=0 / rc=2pass / mbtree=0 / bitrate=6200 / ratetol=1.0 / qcomp=0.60 / qpmin=0 / qpmax=69 / qpstep=4 / cplxblur=20.0 / qblur=0.5 / ip_ratio=1.40 / pb_ratio=1.30 / aq=1:0.60 Язык : English Default : Да Forced : НетАудио #1: Идентификатор : 2 Формат : AC-3 Формат/Информация : Audio Coding 3 Расширение режима : CM (complete main) Параметр Endianness формата : Big Идентификатор кодека : A_AC3 Продолжительность : 1 ч. 44 м. Вид битрейта : Постоянный Битрейт : 384 Кбит/сек Каналы : 6 каналов Расположение каналов : Front: L C R, Side: L R, LFE Частота : 48,0 КГц Частота кадров : 31,250 кадров/сек (1536 spf) Метод сжатия : С потерями Размер потока : 287 Мбайт (5%) Язык : Russian Default : Да Forced : НетАудио #2: Идентификатор : 3 Формат : AC-3 Формат/Информация : Audio Coding 3 Расширение режима : CM (complete main) Параметр Endianness формата : Big Идентификатор кодека : A_AC3 Продолжительность : 1 ч. 44 м. Вид битрейта : Постоянный Битрейт : 640 Кбит/сек Каналы : 6 каналов Расположение каналов : Front: L C R, Side: L R, LFE Частота : 48,0 КГц Частота кадров : 31,250 кадров/сек (1536 spf) Метод сжатия : С потерями Размер потока : 478 Мбайт (9%) Язык : English Default : Нет Forced : Нет 5,27 Gb 18 4
15 февраля 2016 11:45 Академия вампиров / Vampire Academy (2014) BDRip от Twi7ter | iTunes .torrent   [Информация о файле (нажмите для просмотра)] Перевод: Профессиональный (полное дублирование)[iTunes]Субтитры: НетКачество: BDRip| исх. Vampire Academy 2014 COMPLETE BLURAY-LAZERS |Формат: AVIВидео: 720x304 (2.37:1), 23.976 fps, XviD build 73 ~1543 kbps avg, 0.29 bit/pixelАудио: 48 kHz, AC3 Dolby Digital, 3/2 (L,C,R,l,r) + LFE ch, ~384 kbps 1,41 Gb 97 6
15 февраля 2016 11:45 Академия вампиров / Vampire Academy (2014) BDRip от GeneralFilm | Чистый звук .torrent   [Информация о файле (нажмите для просмотра)] Качество: BDRipисходник (Blu-ray Disc)Видео: XviD, 1614 Кбит/с, 720x304Аудио: Русский, AC3, 6 ch, 384 Кбит/с | (дуб. Line)Перевод: Дублированный 1,46 Gb 75 1
15 февраля 2016 11:45 Академия вампиров / Vampire Academy (2014) BDRip-AVC от potroks | P .torrent   [Информация о файле (нажмите для просмотра)] Перевод: Профессиональный (многоголосый закадровый) [BaibaKo]Субтитры: Русские, английские (Full + SDH + SDH-Colored)Качество: BDRip-AVCФормат: MKVВидео: х.264, 1032x430(2,40:1), 23,976 fps, 1107 Кbps, 0.104 bit/pixelАудио#1: 48 kHz, AC3 Dolby Digital, 3/2 (L,C,R,l,r) + LFE ch, 384.00 kbps |RUSАудио#2: 48 kHz, AC3 Dolby Digital, 3/2 (L,C,R,l,r) + LFE ch, 448.00 kbps |ENG 1,42 Gb 6 4
15 февраля 2016 11:45 Академия вампиров / Vampire Academy (2014) BDRip от GeneralFilm | Чистый звук, L2 .torrent   [Информация о файле (нажмите для просмотра)] Качество: BDRipисходник (Blu-ray Disc)Видео: XviD, 1833 Кбит/с, 720x304Аудио 1: Русский, AC3, 6 ch, 384 Кбит/с | дублированный [Чистый звук]Аудио 2: Русский, AC3, 6 ch, 384 Кбит/с | BaibakoАудио 3: Английский, AC3, 6 ch, 384 Кбит/с | (оригинал)Перевод: Дублированный, любительский двухголосый 2,18 Gb 20 1
15 февраля 2016 11:45 Академия вампиров / Vampire Academy (2014) BDRip-AVC от MediaClub | Чистый звук, Baibako .torrent   [Информация о файле (нажмите для просмотра)] Перевод: Любительский многоголосыйКачество: BDRip (AVC)Видео: MPEG-4 AVC, 1300 Кбит/с, 1024x426, 23.976 кадр/сАудио #1: Русский (AC3, 2 ch, 384 Кбит/с) / Дублированный (Чистый звук)Аудио #2: Русский (AC3, 6 ch, 384 Кбит/с) / Любительский многоголосый (Baibako)Аудио #3: Английский (AC3, 6 ch, 448 Кбит/с)Субтитры: Русские, английскиеВидео: Идентификатор : 1 Формат : AVC Формат/Информация : Advanced Video Codec Профиль формата : [email protected] Параметр CABAC формата : Да Параметр ReFrames формата : 10 кадров Идентификатор кодека : V_MPEG4/ISO/AVC Продолжительность : 1 ч. 44 м. Битрейт : 1300 Кбит/сек Ширина : 1024 пикселя Высота : 426 пикселей Соотношение сторон : 2,40:1 Режим частоты кадров : Постоянный Частота кадров : 23,976 кадра/сек Цветовое пространство : YUV Субдискретизация насыщенности : 4:2:0 Битовая глубина : 8 бит Тип развёртки : Прогрессивная Бит/(Пиксели*Кадры) : 0.124 Размер потока : 933 Мбайт (50%) Заголовок : -=MediaClub-kaspr=- Библиотека кодирования : x264 core 142 r2431+42 c69a006 tMod [[email protected]:2:0 X86_64] Настройки программы : cabac=1 / ref=10 / deblock=1:-3:-3 / analyse=0x3:0x113 / me=umh / subme=11 / psy=1 / fade_compensate=0.00 / psy_rd=1.00:0.20 / mixed_ref=1 / me_range=32 / chroma_me=1 / trellis=2 / 8x8dct=1 / cqm=0 / deadzone=21,11 / fast_pskip=0 / chroma_qp_offset=-3 / threads=12 / lookahead_threads=3 / sliced_threads=0 / nr=0 / decimate=0 / interlaced=0 / bluray_compat=0 / constrained_intra=0 / fgo=0 / bframes=12 / b_pyramid=2 / b_adapt=2 / b_bias=0 / direct=3 / weightb=1 / open_gop=0 / weightp=2 / keyint=240 / keyint_min=23 / scenecut=40 / intra_refresh=0 / rc=2pass / mbtree=0 / bitrate=1300 / ratetol=1.0 / qcomp=0.60 / qpmin=0:0:0 / qpmax=69:69:69 / qpstep=4 / cplxblur=20.0 / qblur=0.5 / ip_ratio=1.40 / pb_ratio=1.30 / aq=4:0.80 / aq-sensitivity=10.00 / aq-factor=1.00:1.00:1.00 / aq2=0 / aq3=0 Default : Да Forced : ДаАудио #1: Идентификатор : 2 Формат : AC-3 Формат/Информация : Audio Coding 3 Расширение режима : CM (complete main) Параметр Endianness формата : Big Идентификатор кодека : A_AC3 Продолжительность : 1 ч. 44 м. Вид битрейта : Постоянный Битрейт : 384 Кбит/сек Каналы : 2 канала Расположение каналов : Front: L R Частота : 48,0 КГц Битовая глубина : 16 бит Метод сжатия : С потерями Размер потока : 287 Мбайт (15%) Заголовок : Dub Язык : Russian Default : Нет Forced : ДаАудио #2: Идентификатор : 3 Формат : AC-3 Формат/Информация : Audio Coding 3 Расширение режима : CM (complete main) Параметр Endianness формата : Big Идентификатор кодека : A_AC3 Продолжительность : 1 ч. 44 м. Вид битрейта : Постоянный Битрейт : 384 Кбит/сек Каналы : 6 каналов Расположение каналов : Front: L C R, Side: L R, LFE Частота : 48,0 КГц Битовая глубина : 16 бит Метод сжатия : С потерями Размер потока : 287 Мбайт (15%) Заголовок : MVO (Baibako) Язык : Russian Default : Нет Forced : НетАудио #3: Идентификатор : 4 Формат : AC-3 Формат/Информация : Audio Coding 3 Расширение режима : CM (complete main) Параметр Endianness формата : Big Идентификатор кодека : A_AC3 Продолжительность : 1 ч. 44 м. Вид битрейта : Постоянный Битрейт : 448 Кбит/сек Каналы : 6 каналов Расположение каналов : Front: L C R, Side: L R, LFE Частота : 48,0 КГц Битовая глубина : 16 бит Метод сжатия : С потерями Размер потока : 334 Мбайт (18%) Язык : English Default : Нет Forced : Нет 1,83 Gb 128 3
15 февраля 2016 11:45 Академия вампиров / Vampire Academy (2014) HDRip от Scarabey | Чистый Звук .torrent   [Информация о файле (нажмите для просмотра)] Перевод: Дубляж - Чистый звук + Любительский (многоголосый, закадровый) - BaibaKoКачество: HDRipФормат: AVIВидео: 720x304 (2.37:1), 23.976 fps, XviD build 73 ~1593 kbps avg, 0.30 bit/pixelАудио №1: 48 kHz, MPEG Layer 3, 2 ch, ~256.00 kbps avg - дубляжАудио №2: 48 kHz, MPEG Layer 3, 2 ch, ~128.00 kbps avg - Байбако 1,45 Gb 8 3
15 февраля 2016 11:45 Академия вампиров / Vampire Academy (2014) HDRip от Scarabey | Чистый Звук .torrent   [Информация о файле (нажмите для просмотра)] Перевод: Дубляж - Чистый звукКачество: HDRipФормат: AVIВидео: 688x288 (2.39:1), 23.976 fps, XviD build 73 ~859 kbps avg, 0.18 bit/pixelАудио: 48 kHz, MPEG Layer 3, 2 ch, ~128.00 kbps avg 744,35 Mb 65 8
15 февраля 2016 11:45 Академия вампиров / Vampire Academy (2014) BDRip 1080p от CINEMANIA | D | Чистый Звук | L .torrent   [Информация о файле (нажмите для просмотра)] Формат: MKVКачество: BDRip 1080p[CHD]Видео: 9361 kb/s, 1920x800Аудио: Russian[Дубляж]: AC3, 384 kb/s (2 ch) Russian [BaibaKo]: AC3, 384 kb/s (6 ch) English: DTS, 1510 kb/s (6 ch)Субтитры: Russian[notabenoid], English 8,66 Gb 6 3
15 февраля 2016 11:45 Академия вампиров / Vampire Academy (2014) BDRemux от ExKinoRay | Baibako .torrent   [Информация о файле (нажмите для просмотра)] Качество: Blu-Ray Remux (1080p)Видео: MPEG-4 AVC, 28902 Кбит/с, 1920x1080, 23.976 кадр/cАудио: Русский (AC3, 6 ch, 640 Кбит/с), (DTS-HD MA, 6 ch, 3844 Кбит/с), английский (DTS-HD MA, 6 ch, 3788 Кбит/с)Перевод: Любительский многоголосыйСубтитры: Русские, английскиеВидео: Идентификатор : 1 Формат : AVC Формат/Информация : Advanced Video Codec Профиль формата : [email protected] Параметр CABAC формата : Да Параметр ReFrames формата : 2 кадра Параметр GOP формата : M=1, N=10 Идентификатор кодека : V_MPEG4/ISO/AVC Продолжительность : 1 ч. 44 м. Вид битрейта : Переменный Ширина : 1920 пикселей Высота : 1080 пикселей Соотношение сторон : 16:9 Режим частоты кадров : Постоянный Частота кадров : 23,976 кадра/сек Цветовое пространство : YUV Субдискретизация насыщенности : 4:2:0 Битовая глубина : 8 бит Тип развёртки : Прогрессивная Default : Да Forced : НетАудио #1: Идентификатор : 2 Формат : AC-3 Формат/Информация : Audio Coding 3 Расширение режима : CM (complete main) Параметр Endianness формата : Big Идентификатор кодека : A_AC3 Продолжительность : 1 ч. 44 м. Вид битрейта : Постоянный Битрейт : 640 Кбит/сек Каналы : 6 каналов Расположение каналов : Front: L C R, Side: L R, LFE Частота : 48,0 КГц Битовая глубина : 16 бит Метод сжатия : С потерями Размер потока : 478 Мбайт (2%) Заголовок : Профессиональный многоголосый (Baibako) Язык : Russian Default : Да Forced : НетАудио #2: Идентификатор : 3 Формат : DTS Формат/Информация : Digital Theater Systems Профиль формата : MA / Core Режим : 16 Параметр Endianness формата : Big Идентификатор кодека : A_DTS Продолжительность : 1 ч. 44 м. Вид битрейта : Переменный Битрейт : Неизвестно / 1509 Кбит/сек Каналы : 6 каналов Расположение каналов : Front: L C R, Side: L R, LFE Частота : 48,0 КГц Битовая глубина : 24 бит Метод сжатия : Без потерь / Lossy Заголовок : Профессиональный многоголосый (Baibako) Язык : Russian Default : Нет Forced : НетАудио #3: Идентификатор : 4 Формат : DTS Формат/Информация : Digital Theater Systems Профиль формата : MA / Core Режим : 16 Параметр Endianness формата : Big Идентификатор кодека : A_DTS Продолжительность : 1 ч. 44 м. Вид битрейта : Переменный Битрейт : Неизвестно / 1509 Кбит/сек Каналы : 6 каналов Расположение каналов : Front: L C R, Side: L R, LFE Частота : 48,0 КГц Битовая глубина : 24 бит Метод сжатия : Без потерь / Lossy Язык : English Default : Нет Forced : Нет 21,93 Gb 3 4

Скачать торрент Академия вампиров / Vampire Academy (2014) BDRip-AVC от New-Team

Академия вампировVampire Academy

«Blood is family. Blood is pain. And blood is death»

Страна: СШАЖанр: ужасы, фэнтези, боевик, комедия, детектив

Год выпуска: 2014Продолжительность: 01:44:22

Перевод: Профессиональный (полное дублирование) [Лицензия iTunes]Субтитры: русские (notabenoid), английскиеОригинальная аудиодорожка: нет

Режиссер: Марк Уотерс / Mark Waters

В ролях: Зои Дойч, Люси Фрай, Данила Козловский, Доминик Шервуд, Сара Хайланд, Гэбриел Бирн, Сами Гэйл, Ольга Куриленко, Джоэли Ричардсон, Камерон Монахэн, Эшли Чарльз, Клер Фой

Описание: Мало кому известно, что в Америке, в самом сердце Монтаны, имеется настоящая Академия, где вампиры обучаются высокому искусству магии. И почти никто не знает, что в мире идут кровавые вампирские войны и расе мороев противостоит жестокое племя стригоев, вампиров, переступивших черту закона и не гнушающихся убийством. Даже стены Академии, святая святых науки, не слишком надежная защита от происков темных сил. Юная моройская принцесса Лисса и Роза, ее подруга и верный страж, однажды убеждаются в этом, оказавшись в эпицентре грозных событий.

Релиз:

Автор рипа: Stalker oK

Сэмпл

Качество видео: BDRip-AVC [kinozal / Blu-ray Remux / 1080p]Формат видео: MKVВидео кодек: AVCАудио кодек: AC3Видео: 1557 Кбит/сек, 1032x430 (2.40:1), 23,976 кадр/сек, AVCАудио: русский, 384 Кбит/сек, 48 КГц, 16 бит, 5.1, AC3Навигация по главам: есть

MediaInfo

Общее Уникальный идентификатор : 223880838310278015939886931095202971998 (0xA86DE18C565D1D54BDB7789C12FE415E) Полное имя : M:Rips2Vampire AcademyVampire.Academy.2014.BDRip-AVC.Dub.1.45Gb.stalkerok.new-team.mkv Формат : Matroska Версия формата : Version 4 / Version 2 Размер файла : 1,41 Гбайт Продолжительность : 1 ч. 44 м. Общий поток : 1941 Кбит/сек Название фильма : Vampire Academy (2014) (New-Team) (Rip by Stalker oK) Дата кодирования : UTC 2016-01-07 18:47:03 Программа кодирования : mkvmerge v8.6.1 ('Flying') 64bit Библиотека кодирования : libebml v1.3.3 + libmatroska v1.4.4

Видео Идентификатор : 1 Формат : AVC Формат/Информация : Advanced Video Codec Профиль формата : [email protected] Параметр CABAC формата : Да Параметр ReFrames формата : 14 кадров Идентификатор кодека : V_MPEG4/ISO/AVC Продолжительность : 1 ч. 44 м. Битрейт : 1557 Кбит/сек Ширина : 1032 пикселя Высота : 430 пикселей Соотношение сторон : 2,40:1 Режим частоты кадров : Постоянный Частота кадров : 23,976 (24000/1001) кадра/сек Цветовое пространство : YUV Субдискретизация насыщенности : 4:2:0 Битовая глубина : 8 бит Тип развёртки : Прогрессивная Бит/(Пиксели*Кадры) : 0.146 Размер потока : 1,13 Гбайт (80%) Заголовок : Vampire Academy (2014) (New-Team) (Rip by Stalker oK) Библиотека кодирования : x264 core 148 r2638kMod 7599210 Настройки программы : cabac=1 / ref=14 / deblock=1:-3:-3 / analyse=0x3:0x133 / me=umh / subme=11 / psy=1 / fade_compensate=0.00 / psy_rd=1.00:0.10 / mixed_ref=1 / me_range=48 / chroma_me=1 / trellis=2 / 8x8dct=1 / cqm=0 / deadzone=21,11 / fast_pskip=0 / chroma_qp_offset=-3 / threads=12 / lookahead_threads=3 / sliced_threads=0 / nr=0 / decimate=0 / interlaced=0 / bluray_compat=0 / constrained_intra=0 / fgo=0 / bframes=15 / b_pyramid=2 / b_adapt=2 / b_bias=0 / direct=3 / weightb=1 / open_gop=0 / weightp=2 / keyint=240 / keyint_min=23 / scenecut=40 / intra_refresh=0 / rc_lookahead=60 / rc=2pass / mbtree=0 / bitrate=1557 / ratetol=1.0 / qcomp=0.70 / qpmin=0 / qpmax=69 / qpstep=4 / cplxblur=20.0 / qblur=0.5 / vbv_maxrate=50000 / vbv_bufsize=62500 / nal_hrd=none / filler=0 / ip_ratio=1.40 / pb_ratio=1.30 / aq=3:0.90 Default : Да Forced : Нет

Аудио Идентификатор : 2 Формат : AC-3 Формат/Информация : Audio Coding 3 Расширение режима : CM (complete main) Параметр Endianness формата : Big Идентификатор кодека : A_AC3 Продолжительность : 1 ч. 44 м. Вид битрейта : Постоянный Битрейт : 384 Кбит/сек Каналы : 6 каналов Расположение каналов : Front: L C R, Side: L R, LFE Частота : 48,0 КГц Частота кадров : 31,250 кадров/сек (1536 spf) Метод сжатия : С потерями Размер потока : 287 Мбайт (20%) Язык : Russian Default : Да Forced : Нет

Текст #1 Идентификатор : 3 Формат : UTF-8 Идентификатор кодека : S_TEXT/UTF8 Идентификатор кодека/Информация : UTF-8 Plain Text Продолжительность : 1 ч. 34 м. Битрейт : 162 бит/сек Count of elements : 1631 Размер потока : 113 Кбайт (0%) Заголовок : notabenoid Язык : Russian Default : Нет Forced : Нет

Текст #2 Идентификатор : 4 Формат : UTF-8 Идентификатор кодека : S_TEXT/UTF8 Идентификатор кодека/Информация : UTF-8 Plain Text Продолжительность : 1 ч. 34 м. Битрейт : 89 бит/сек Count of elements : 1626 Размер потока : 62,3 Кбайт (0%) Язык : English Default : Нет Forced : Нет

Меню 00:00:00.000 : :Chapter 01 00:06:11.913 : :Chapter 02 00:13:48.661 : :Chapter 03 00:19:34.590 : :Chapter 04 00:26:25.834 : :Chapter 05 00:33:07.652 : :Chapter 06 00:39:47.760 : :Chapter 07 00:46:29.119 : :Chapter 08 00:51:45.852 : :Chapter 09 00:56:13.578 : :Chapter 10 01:01:42.323 : :Chapter 11 01:07:31.005 : :Chapter 12 01:13:32.533 : :Chapter 13 01:21:50.071 : :Chapter 14 01:30:11.781 : :Chapter 15 01:36:05.676 : :Chapter 16 01:44:22.005 : :Chapter 17

krutor.org


Смотрите также