Скачать 28 панфиловцев через торрент в хорошем качестве


Скачать торрент 28 панфиловцев (2016) BDRip 1080p от New-Team & qqss44

Анонсы 1080p от qqss44✘ 28 панфиловцев ✘

═ Информация о фильме ═✦ Год выхода: 2016✦ Название: 28 панфиловцев✦ Жанр: военный, драма✦ Режиссер: Ким Дружинин, Андрей Шальопа✦ В ролях: Александр Устюгов, Яков Кучеревский, Азамат Нигманов, Олег Фёдоров, Алексей Морозов, Антон Кузнецов, Алексей Лонгин, Максим Белбородов, Дмитрий Мурашев, Виталий Коваленко

═ Описание фильма ═Осенью 1941-го года немецкие части, стоявшие возле Волоколамска, отделяло от Москвы каких-нибудь два часа по шоссе. Однако, на этом шоссе стояла 316-я стрелковая дивизия под командованием генерала И. В. Панфилова. Этот военачальник обладал настолько высоким авторитетом среди личного состава, что бойцы дивизии сами называли себя панфиловцами. А дивизию — панфиловской.

✦ Выпущено: Россия, 28 панфиловцев, Libyan Palette Studios✦ Продолжительность: 02:00:38✦ Озвучивание: || Лицензия ||

═ Информация о файле ═✦ Формат:\| MKV \| x264 \|✦ Качество: BDRip 1080p✦ Видео: X264/MPEG4-AVC | 1920x804 (2.40:1) | ~8555 kbps | 24 fps✦ Аудио Rus: AC3 | 48 KHz | 5.1 (Front: L С R Side: L R) + LFE | ~640 kbps✦ Субтитры: || отсутствуют ||

✘ MediaInfo ✘

x264 [info]: frame I:1006 Avg QP:15.48 size:187959 x264 [info]: frame P:48708 Avg QP:19.00 size: 74532 x264 [info]: frame B:124007 Avg QP:20.58 size: 31549

Общее Уникальный идентификатор : 214764051860497870787419947460264918115 (0xA1920D45C0F0D4E5A382E18F5696FC63) Полное имя : X:ATorrent28.Panfilovcev.2016.(qqss44).mkv Формат : Matroska Версия формата : Version 2 Размер файла : 7,74 Гбайт Продолжительность : 2 ч. 0 м. Общий поток : 9187 Кбит/сек Дата кодирования : UTC 2017-01-28 09:14:18 Программа кодирования : mkvmerge v5.8.0 ('No Sleep / Pillow') built on Sep 2 2012 15:37:04 Библиотека кодирования : libebml v1.2.3 + libmatroska v1.3.0

Видео Идентификатор : 1 Формат : AVC Формат/Информация : Advanced Video Codec Профиль формата : [email protected] Параметр CABAC формата : Да Параметр ReFrames формата : 5 кадров Идентификатор кодека : V_MPEG4/ISO/AVC Продолжительность : 2 ч. 0 м. Битрейт : 8555 Кбит/сек Ширина : 1920 пикселей Высота : 804 пикселя Соотношение сторон : 2,40:1 Режим частоты кадров : Постоянный Частота кадров : 24,000 кадра/сек Цветовое пространство : YUV Субдискретизация насыщенности : 4:2:0 Битовая глубина : 8 бит Тип развёртки : Прогрессивная Бит/(Пиксели*Кадры) : 0.231 Размер потока : 7,05 Гбайт (91%) Библиотека кодирования : x264 core 148 r2744kMod b97ae06 Настройки программы : cabac=1 / ref=5 / deblock=1:-3:-3 / analyse=0x3:0x133 / me=umh / subme=11 / psy=1 / fade_compensate=0.00 / psy_rd=1.00:0.00 / mixed_ref=1 / me_range=32 / chroma_me=1 / trellis=2 / 8x8dct=1 / cqm=0 / deadzone=21,11 / fast_pskip=0 / chroma_qp_offset=-2 / threads=12 / lookahead_threads=3 / sliced_threads=0 / nr=0 / decimate=0 / interlaced=0 / bluray_compat=0 / constrained_intra=0 / bframes=11 / b_pyramid=2 / b_adapt=2 / b_bias=0 / direct=3 / weightb=1 / open_gop=0 / weightp=2 / keyint=240 / keyint_min=23 / scenecut=40 / intra_refresh=0 / rc=2pass / mbtree=0 / bitrate=8555 / ratetol=1.0 / qcomp=0.70 / qpmin=0 / qpmax=69 / qpstep=4 / cplxblur=20.0 / qblur=0.5 / ip_ratio=1.40 / pb_ratio=1.30 / aq=3:0.80 Язык : English Default : Да Forced : Нет

Аудио Идентификатор : 2 Формат : AC-3 Формат/Информация : Audio Coding 3 Расширение режима : CM (complete main) Параметр Endianness формата : Big Идентификатор кодека : A_AC3 Продолжительность : 2 ч. 0 м. Вид битрейта : Постоянный Битрейт : 640 Кбит/сек Каналы : 6 каналов Расположение каналов : Front: L C R, Side: L R, LFE Частота : 48,0 КГц Частота кадров : 31,250 кадров/сек (1536 spf) Метод сжатия : С потерями Размер потока : 552 Мбайт (7%) Default : Да Forced : Нет

Меню 00:00:00.000 : en:00:00:00.000 00:01:24.375 : en:00:01:24.375 00:11:59.208 : en:00:11:59.208 00:26:15.792 : en:00:26:15.792 00:38:43.625 : en:00:38:43.625 00:55:16.417 : en:00:55:16.417 01:12:21.333 : en:01:12:21.333 01:25:35.500 : en:01:25:35.500 01:38:52.333 : en:01:38:52.333

✘ Скриншоты ✘

Релиз от:

krutor.org

Скачать фильм 28 панфиловцев через торрент в хорошем качестве бесплатно WEB-DLRip

piratbit.ru

Раздают: 1 [ 0 KB/s ]
Размер: 2.05 GB | Добавлен: 10 мес. назад | Торрент скачан:481 раз
Реклама Дарим 3000 рублей за регистрацию, не упусти свой шанс получить шикарный бонус!!!

25-12-2016 21:32 28 панфиловцев Скачать торрент  

28 панфиловцев

Год выпуска: 2016Страна: РоссияЖанр: военный, драмаПродолжительность: 02:00:37Озвучивание: Оригинальное Субтитры: отсутствуют

Режиссер: Ким Дружинин, Андрей Шальопа

В ролях:

Александр Устюгов, Яков Кучеревский, Азамат Нигманов, Олег Фёдоров, Алексей Морозов, Антон Кузнецов, Алексей Лонгин, Максим Белбородов, Дмитрий Мурашев, Виталий Коваленко

Описание:

Осенью 1941-го года немецкие части, стоявшие возле Волоколамска, отделяло от Москвы каких-нибудь два часа по шоссе. Однако, на этом шоссе стояла 316-я стрелковая дивизия под командованием генерала И. В. Панфилова. Этот военачальник обладал настолько высоким авторитетом среди личного состава, что бойцы дивизии сами называли себя панфиловцами. А дивизию — панфиловской.

Качество: WEB-DLRipФормат: AVIВидео кодек: XviDАудио кодек: AC3

Видео: 720x304 (2.37:1), 23.976 fps, XviD build 50 ~2045 kbps avg, 0.36 bit/pixelАудио#1: 48 kHz, AC3 Dolby Digital, 3/2 (L,C,R,l,r) + LFE ch, 384 kbps

Рекламы нет!

Скачать 28 панфиловцев через торрент http://pic1.pb.wtf/images/11/odtvh.jpg Скачать фильм 28 панфиловцев через торрент бесплантно в хорошем качестве Описание: Осенью 1941-го года немецкие части, стоявшие возле Волоколамска, отделяло от Москвы каких-нибудь два часа по шоссе. Однако, на ... 2016-12-25 21:32 8.6 10 21

Loading...

Loading...

% Раздел Тема Автор DL S | L
Наши фильмы (Blu-ray, BD-Remux, HDDVD) [ 20 GB ] 28 панфиловцев [2016 Военный BD Remux Оригинальный] Бумер Скачать
Наши новые фильмы 2016 [ 1.46 GB ] 28 панфиловцев [2016 Россия военный BDRip от AVP Studio] AVP Studio Скачать
Наши фильмы (HD, WEB-DL 720p, 1080p) [ 4.18 GB ] 28 панфиловцев [2016 военный WEB-DL 1080p] killermax2013 Скачать
Наши фильмы (HD, WEB-DL 720p, 1080p) [ 4.37 GB ] 28 панфиловцев [2016 военный BDRip 720p] potroks Скачать
Наши новые фильмы 2017 [ 6.49 GB ] 28 панфиловцев [2016 военный BDRip 720p ] R.G.Resident schultz Скачать
Наши фильмы (Blu-ray, BD-Remux, HDDVD) [ 36.18 GB ] 28 панфиловцев [2016 Военный Blu-Ray RUS] Russian Mafia Скачать
Наши фильмы (HD, WEB-DL 720p, 1080p) [ 7.74 GB ] 28 панфиловцев [2016 военный BDRip 1080p] -Lexx- Скачать

Рекламный пират

Дорогой пользователь! Огромная просьба, поблагодарите релизера, оцените раздачу и оставьте свои комментарий, если Вы скачали 28 панфиловцев через торрент бесплатно! Внесите свою лепту в развитие PiratBit!

Комментировать посты могут только пользователи прошедшие не сложную регистрацию

28 панфиловцев через торрент Скачать бесплатно 28 панфиловцев 28 панфиловцев скачать торрент 28 панфиловцев смотреть онлайн Cкачать фильм 28 панфиловцев бесплатно 28 панфиловцев скачать торрент в хорошем качестве 28 панфиловцев смотреть онлайн бесплатно в хорошем качестве

Вы можете начинать темыВы можете отвечать на сообщенияВы не можете редактировать свои сообщенияВы не можете удалять свои сообщенияВы не можете голосовать в опросахВы не можете прикреплять файлы к сообщениямВы можете скачивать файлы

Скачать фильм 28 панфиловцев через торрент в хорошем качестве бесплатно WEB-DLRip-AVC

GeneralUnique ID : 204695368457207741644658926559845345515 (0x99FEE4DA7DC0CC99A7E81E66E056E8EB)Complete name : E:\Dvadtsat.vosem.panfilovtsev.2016.WEB-DLRip-AVC.by.White Smoke.R.G.Resident.mkvFormat : MatroskaFormat version : Version 4 / Version 2File size : 1.91 GiBDuration : 2 h 0 minOverall bit rate : 2 269 kb/sMovie name : Dvadtsat.vosem.panfilovtsev.2016.WEB-DLRip-AVC.by.White Smoke.R.G.Resident.mkvEncoded date : UTC 2016-12-26 04:03:00Writing application : mkvmerge v6.8.0 ('Theme for Great Cities') 64bit built on Mar 2 2014 21:34:26Writing library : libebml v1.3.0 + libmatroska v1.4.1

VideoID : 1Format : AVCFormat/Info : Advanced Video CodecFormat profile : [email protected] settings, CABAC : YesFormat settings, ReFrames : 12 framesCodec ID : V_MPEG4/ISO/AVCDuration : 2 h 0 minBit rate : 1 883 kb/sWidth : 1 024 pixelsHeight : 428 pixelsDisplay aspect ratio : 2.40:1Frame rate mode : ConstantFrame rate : 24.000 FPSColor space : YUVChroma subsampling : 4:2:0Bit depth : 8 bitsScan type : ProgressiveBits/(Pixel*Frame) : 0.179Stream size : 1.55 GiB (81%)Writing library : x264 core 148 r2638 7599210Encoding settings : cabac=1 / ref=12 / deblock=1:-2:-1 / analyse=0x3:0x113 / me=umh / subme=10 / psy=1 / psy_rd=0.00:0.15 / mixed_ref=1 / me_range=32 / chroma_me=1 / trellis=2 / 8x8dct=1 / cqm=0 / deadzone=21,11 / fast_pskip=0 / chroma_qp_offset=-3 / threads=6 / lookahead_threads=1 / sliced_threads=0 / nr=0 / decimate=1 / interlaced=0 / bluray_compat=0 / constrained_intra=0 / bframes=12 / b_pyramid=2 / b_adapt=2 / b_bias=0 / direct=1 / weightb=0 / open_gop=0 / weightp=2 / keyint=240 / keyint_min=24 / scenecut=40 / intra_refresh=0 / rc_lookahead=40 / rc=2pass / mbtree=1 / bitrate=1883 / ratetol=1.0 / qcomp=0.70 / qpmin=0 / qpmax=69 / qpstep=4 / cplxblur=20.0 / qblur=0.5 / vbv_maxrate=50000 / vbv_bufsize=65500 / nal_hrd=none / filler=0 / ip_ratio=1.40 / aq=1:1.00Language : EnglishDefault : YesForced : No

AudioID : 2Format : AC-3Format/Info : Audio Coding 3Mode extension : CM (complete main)Format settings, Endianness : BigCodec ID : A_AC3Duration : 2 h 0 minBit rate mode : ConstantBit rate : 384 kb/sChannel(s) : 6 channelsChannel positions : Front: L C R, Side: L R, LFESampling rate : 48.0 kHzFrame rate : 31.250 FPS (1536 spf)Compression mode : LossyStream size : 331 MiB (17%)Title : AC3 5.1 @ 384 kppsLanguage : RussianDefault : YesForced : No

piratbit.ru

Скачать фильм 28 панфиловцев через торрент в хорошем качестве бесплатно WEB-DLRip

piratbit.ru

Раздают: 1 [ 0 KB/s ]
Размер: 1.37 GB | Добавлен: 10 мес. назад | Торрент скачан:424 раза
Реклама Дарим 3000 рублей за регистрацию, не упусти свой шанс получить шикарный бонус!!!

25-12-2016 21:08 28 панфиловцев Скачать торрент  

28 панфиловцев

Год выпуска: 2016Страна: РоссияЖанр: военный, драмаПродолжительность: 02:00:37 Озвучивание: Оригинальное Субтитры: отсутствуют

Режиссер: Ким Дружинин, Андрей Шальопа

В ролях:

Александр Устюгов, Яков Кучеревский, Азамат Нигманов, Олег Фёдоров, Алексей Морозов, Антон Кузнецов, Алексей Лонгин, Максим Белбородов, Дмитрий Мурашев, Виталий Коваленко

Описание:

Осенью 1941-го года немецкие части, стоявшие возле Волоколамска, отделяло от Москвы каких-нибудь два часа по шоссе. Однако, на этом шоссе стояла 316-я стрелковая дивизия под командованием генерала И. В. Панфилова. Этот военачальник обладал настолько высоким авторитетом среди личного состава, что бойцы дивизии сами называли себя панфиловцами. А дивизию — панфиловской.

Качество: WEB-DLRipФормат: AVIВидео кодек: XviDАудио кодек: AC3

Видео: 720x304 (2.37:1), 23.976 fps, XviD build 50 ~1228 kbps avg, 0.23 bit/pixelАудио#1: 48 kHz, AC3 Dolby Digital, 3/2 (L,C,R,l,r) + LFE ch, 384 kbps

Рекламы нет!

Скачать 28 панфиловцев через торрент http://pic1.pb.wtf/images/11/odtvh.jpg Скачать фильм 28 панфиловцев через торрент бесплантно в хорошем качестве Описание: Осенью 1941-го года немецкие части, стоявшие возле Волоколамска, отделяло от Москвы каких-нибудь два часа по шоссе. Однако, на ... 2016-12-25 21:08 8.6 10 22

Loading...

Loading...

% Раздел Тема Автор DL S | L
Наши фильмы (Blu-ray, BD-Remux, HDDVD) [ 20 GB ] 28 панфиловцев [2016 Военный BD Remux Оригинальный] Бумер Скачать
Наши новые фильмы 2016 [ 1.46 GB ] 28 панфиловцев [2016 Россия военный BDRip от AVP Studio] AVP Studio Скачать
Наши фильмы (HD, WEB-DL 720p, 1080p) [ 4.18 GB ] 28 панфиловцев [2016 военный WEB-DL 1080p] killermax2013 Скачать
Наши фильмы (HD, WEB-DL 720p, 1080p) [ 4.37 GB ] 28 панфиловцев [2016 военный BDRip 720p] potroks Скачать
Наши новые фильмы 2017 [ 6.49 GB ] 28 панфиловцев [2016 военный BDRip 720p ] R.G.Resident schultz Скачать
Наши фильмы (Blu-ray, BD-Remux, HDDVD) [ 36.18 GB ] 28 панфиловцев [2016 Военный Blu-Ray RUS] Russian Mafia Скачать
Наши фильмы (HD, WEB-DL 720p, 1080p) [ 7.74 GB ] 28 панфиловцев [2016 военный BDRip 1080p] -Lexx- Скачать

Рекламный пират

Дорогой пользователь! Огромная просьба, поблагодарите релизера, оцените раздачу и оставьте свои комментарий, если Вы скачали 28 панфиловцев через торрент бесплатно! Внесите свою лепту в развитие PiratBit!

Комментировать посты могут только пользователи прошедшие не сложную регистрацию

28 панфиловцев через торрент Скачать бесплатно 28 панфиловцев 28 панфиловцев скачать торрент 28 панфиловцев смотреть онлайн Cкачать фильм 28 панфиловцев бесплатно 28 панфиловцев скачать торрент в хорошем качестве 28 панфиловцев смотреть онлайн бесплатно в хорошем качестве

Вы можете начинать темыВы можете отвечать на сообщенияВы не можете редактировать свои сообщенияВы не можете удалять свои сообщенияВы не можете голосовать в опросахВы не можете прикреплять файлы к сообщениямВы можете скачивать файлы


Смотрите также