Семейное ограбление скачать торрент в хорошем качестве hd 1080


Скачать торрент Семейное ограбление / Family Heist / Mes trésors (2017) BDRip 1080p | RUS Transfer

Информация о фильмеНазвание: Семейное ограблениеОригинальное название: Family Heist / Mes trésorsГод выхода: 2017Жанр: комедияРежиссер: Паскаль БурдьоВ ролях: Жан Рено, Рем Кериси, Камиль Шаму, Бруно Санчес, Паскаль Демолон, Жан Ренес, Марион Брие, Юже Тьерри, Зина Есепчук

О фильме: Анжела и Анжелика – две абсолютно разные девушки, которые не имеют ничего общего. Кроме, разве что, отца, которого они никогда не видели. И вот однажды он появился в их жизни. Вор международного масштаба решил наверстать упущенное, создав с дочерьми безумную команду, чтобы совершить ограбление века. И все бы ничего, только гениальный план Патрика дает сбой, и все идет не по запланированному сценарию…

Страна: ФранцияСтудия: Canal+ [fr], Forecast Pictures, Orange Cinéma SériesПродолжительность: 01:30:38Перевод: Профессиональный (дублированный) Blu-ray RUS

ФайлФормат: MatroskaКачество: BDRip 1080pВидео: 1920x800 at 24.000 fps, [email protected], ~8100 kbps avgAудио#1: Russian: 48 kHz, DTS, 3/2 (L,C,R,l,r) + LFE ch, ~1509 kbps avg |Дубляж, Blu-ray RUS|Aудио#2: Russian: 48 kHz, AC3, 3/2 (L,C,R,l,r) + LFE ch, ~640 kbps avg |Дубляж, Blu-ray RUS|Субтитры: None

***Сохранены оригинальные главы как на Blu-ray. ***Релиз - [email protected]

MediaInfo

Общее Полное имя : Семейное ограбление_Mes tresors.2017.BDRip.1080p.rus.NNMCLUB.mkv Формат : Matroska Версия формата : Version 4 / Version 2 Размер файла : 6,49 Гбайт Продолжительность : 1 ч. 30 м. Общий поток : 10,3 Мбит/сек Название фильма : Семейное ограбление_Mes tresors.2017.BDRip.1080p.rus.NNMCLUB Дата кодирования : UTC 2017-05-20 12:52:08 Программа кодирования : mkvmerge v11.0.0 ('Alive') 64bit Библиотека кодирования : libebml v1.3.4 + libmatroska v1.4.5

Видео Идентификатор : 1 Формат : AVC Формат/Информация : Advanced Video Codec Профиль формата : [email protected] Параметр CABAC формата : Да Параметр ReFrames формата : 5 кадров Идентификатор кодека : V_MPEG4/ISO/AVC Продолжительность : 1 ч. 30 м. Битрейт : 8107 Кбит/сек Ширина : 1920 пикселей Высота : 800 пикселей Соотношение сторон : 2,40:1 Режим частоты кадров : Постоянный Частота кадров : 24,000 кадра/сек Цветовое пространство : YUV Субдискретизация насыщенности : 4:2:0 Битовая глубина : 8 бит Тип развёртки : Прогрессивная Бит/(Пиксели*Кадры) : 0.220 Размер потока : 5,13 Гбайт (79%) Заголовок : Семейное ограбление_Mes tresors.2017.BDRip.1080p.rus.NNMCLUB Библиотека кодирования : x264 core 148 r2744 b97ae06 Настройки программы : cabac=1 / ref=5 / deblock=1:-3:-3 / analyse=0x3:0x133 / me=umh / subme=10 / psy=1 / psy_rd=1.00:0.00 / mixed_ref=1 / me_range=32 / chroma_me=1 / trellis=2 / 8x8dct=1 / cqm=0 / deadzone=21,11 / fast_pskip=0 / chroma_qp_offset=-2 / threads=12 / lookahead_threads=2 / sliced_threads=0 / nr=0 / decimate=1 / interlaced=0 / bluray_compat=0 / constrained_intra=0 / bframes=8 / b_pyramid=2 / b_adapt=2 / b_bias=0 / direct=3 / weightb=1 / open_gop=0 / weightp=2 / keyint=240 / keyint_min=23 / scenecut=40 / intra_refresh=0 / rc_lookahead=40 / rc=2pass / mbtree=1 / bitrate=8107 / ratetol=1.0 / qcomp=0.60 / qpmin=0 / qpmax=69 / qpstep=4 / cplxblur=20.0 / qblur=0.5 / vbv_maxrate=50000 / vbv_bufsize=62500 / nal_hrd=none / filler=0 / ip_ratio=1.40 / aq=1:0.80 Язык : English Default : Да Forced : Нет

Аудио #1 Идентификатор : 2 Формат : DTS Формат/Информация : Digital Theater Systems Режим : 16 Параметр Endianness формата : Big Идентификатор кодека : A_DTS Продолжительность : 1 ч. 30 м. Вид битрейта : Постоянный Битрейт : 1509 Кбит/сек Каналы : 6 каналов Расположение каналов : Front: L C R, Side: L R, LFE Частота : 48,0 КГц Частота кадров : 93,750 кадра/сек (512 spf) Битовая глубина : 24 бит Метод сжатия : С потерями Размер потока : 978 Мбайт (15%) Заголовок : Дублированный (лицензия) Язык : Russian Default : Да Forced : Нет

Аудио #2 Идентификатор : 3 Формат : AC-3 Формат/Информация : Audio Coding 3 Расширение режима : CM (complete main) Параметр Endianness формата : Big Идентификатор кодека : A_AC3 Продолжительность : 1 ч. 30 м. Вид битрейта : Постоянный Битрейт : 640 Кбит/сек Каналы : 6 каналов Расположение каналов : Front: L C R, Side: L R, LFE Частота : 48,0 КГц Частота кадров : 31,250 кадров/сек (1536 spf) Битовая глубина : 16 бит Метод сжатия : С потерями Размер потока : 415 Мбайт (6%) Заголовок : Дублированный (лицензия) Язык : Russian Default : Нет Forced : Нет

Меню 00:00:00.000 : en:Chapter 01 00:00:41.250 : en:Chapter 02 00:10:19.666 : en:Chapter 03 00:21:48.458 : en:Chapter 04 00:31:16.875 : en:Chapter 05 00:43:53.666 : en:Chapter 06 00:57:39.791 : en:Chapter 07 01:08:40.416 : en:Chapter 08 01:17:47.500 : en:Chapter 09

krutor.org

Скачать торрент Семейное ограбление / Family Heist / Mes trésors (2017) BDRip 1080p | RUS Transfer

Информация о фильмеНазвание: Семейное ограблениеОригинальное название: Family Heist / Mes trésorsГод выхода: 2017Жанр: комедияРежиссер: Паскаль БурдьоВ ролях: Жан Рено, Рем Кериси, Камиль Шаму, Бруно Санчес, Паскаль Демолон, Жан Ренес, Марион Брие, Юже Тьерри, Зина Есепчук

О фильме: Анжела и Анжелика – две абсолютно разные девушки, которые не имеют ничего общего. Кроме, разве что, отца, которого они никогда не видели. И вот однажды он появился в их жизни. Вор международного масштаба решил наверстать упущенное, создав с дочерьми безумную команду, чтобы совершить ограбление века. И все бы ничего, только гениальный план Патрика дает сбой, и все идет не по запланированному сценарию…

Страна: ФранцияСтудия: Canal+ [fr], Forecast Pictures, Orange Cinéma SériesПродолжительность: 01:30:38Перевод: Профессиональный (дублированный) Blu-ray RUS

ФайлФормат: MatroskaКачество: BDRip 1080pВидео: 1920x800 at 24.000 fps, [email protected], ~8100 kbps avgAудио#1: Russian: 48 kHz, DTS, 3/2 (L,C,R,l,r) + LFE ch, ~1509 kbps avg |Дубляж, Blu-ray RUS|Aудио#2: Russian: 48 kHz, AC3, 3/2 (L,C,R,l,r) + LFE ch, ~640 kbps avg |Дубляж, Blu-ray RUS|Субтитры: None

***Сохранены оригинальные главы как на Blu-ray. ***Релиз - [email protected]

MediaInfo

Общее Полное имя : Семейное ограбление_Mes tresors.2017.BDRip.1080p.rus.NNMCLUB.mkv Формат : Matroska Версия формата : Version 4 / Version 2 Размер файла : 6,49 Гбайт Продолжительность : 1 ч. 30 м. Общий поток : 10,3 Мбит/сек Название фильма : Семейное ограбление_Mes tresors.2017.BDRip.1080p.rus.NNMCLUB Дата кодирования : UTC 2017-05-20 12:52:08 Программа кодирования : mkvmerge v11.0.0 ('Alive') 64bit Библиотека кодирования : libebml v1.3.4 + libmatroska v1.4.5

Видео Идентификатор : 1 Формат : AVC Формат/Информация : Advanced Video Codec Профиль формата : [email protected] Параметр CABAC формата : Да Параметр ReFrames формата : 5 кадров Идентификатор кодека : V_MPEG4/ISO/AVC Продолжительность : 1 ч. 30 м. Битрейт : 8107 Кбит/сек Ширина : 1920 пикселей Высота : 800 пикселей Соотношение сторон : 2,40:1 Режим частоты кадров : Постоянный Частота кадров : 24,000 кадра/сек Цветовое пространство : YUV Субдискретизация насыщенности : 4:2:0 Битовая глубина : 8 бит Тип развёртки : Прогрессивная Бит/(Пиксели*Кадры) : 0.220 Размер потока : 5,13 Гбайт (79%) Заголовок : Семейное ограбление_Mes tresors.2017.BDRip.1080p.rus.NNMCLUB Библиотека кодирования : x264 core 148 r2744 b97ae06 Настройки программы : cabac=1 / ref=5 / deblock=1:-3:-3 / analyse=0x3:0x133 / me=umh / subme=10 / psy=1 / psy_rd=1.00:0.00 / mixed_ref=1 / me_range=32 / chroma_me=1 / trellis=2 / 8x8dct=1 / cqm=0 / deadzone=21,11 / fast_pskip=0 / chroma_qp_offset=-2 / threads=12 / lookahead_threads=2 / sliced_threads=0 / nr=0 / decimate=1 / interlaced=0 / bluray_compat=0 / constrained_intra=0 / bframes=8 / b_pyramid=2 / b_adapt=2 / b_bias=0 / direct=3 / weightb=1 / open_gop=0 / weightp=2 / keyint=240 / keyint_min=23 / scenecut=40 / intra_refresh=0 / rc_lookahead=40 / rc=2pass / mbtree=1 / bitrate=8107 / ratetol=1.0 / qcomp=0.60 / qpmin=0 / qpmax=69 / qpstep=4 / cplxblur=20.0 / qblur=0.5 / vbv_maxrate=50000 / vbv_bufsize=62500 / nal_hrd=none / filler=0 / ip_ratio=1.40 / aq=1:0.80 Язык : English Default : Да Forced : Нет

Аудио #1 Идентификатор : 2 Формат : DTS Формат/Информация : Digital Theater Systems Режим : 16 Параметр Endianness формата : Big Идентификатор кодека : A_DTS Продолжительность : 1 ч. 30 м. Вид битрейта : Постоянный Битрейт : 1509 Кбит/сек Каналы : 6 каналов Расположение каналов : Front: L C R, Side: L R, LFE Частота : 48,0 КГц Частота кадров : 93,750 кадра/сек (512 spf) Битовая глубина : 24 бит Метод сжатия : С потерями Размер потока : 978 Мбайт (15%) Заголовок : Дублированный (лицензия) Язык : Russian Default : Да Forced : Нет

Аудио #2 Идентификатор : 3 Формат : AC-3 Формат/Информация : Audio Coding 3 Расширение режима : CM (complete main) Параметр Endianness формата : Big Идентификатор кодека : A_AC3 Продолжительность : 1 ч. 30 м. Вид битрейта : Постоянный Битрейт : 640 Кбит/сек Каналы : 6 каналов Расположение каналов : Front: L C R, Side: L R, LFE Частота : 48,0 КГц Частота кадров : 31,250 кадров/сек (1536 spf) Битовая глубина : 16 бит Метод сжатия : С потерями Размер потока : 415 Мбайт (6%) Заголовок : Дублированный (лицензия) Язык : Russian Default : Нет Forced : Нет

Меню 00:00:00.000 : en:Chapter 01 00:00:41.250 : en:Chapter 02 00:10:19.666 : en:Chapter 03 00:21:48.458 : en:Chapter 04 00:31:16.875 : en:Chapter 05 00:43:53.666 : en:Chapter 06 00:57:39.791 : en:Chapter 07 01:08:40.416 : en:Chapter 08 01:17:47.500 : en:Chapter 09

mrutor.org

Скачать фильм Семейное ограбление через торрент в хорошем качестве бесплатно 1080p

GeneralUnique ID : 171075480353277153527694933079284567803 (0x80B3F064AE833F47B57170FCE6E8CEFB)Complete name : W:\Торенты\Family.Heist.2017.1080p.WEB-DL.Rus.Fre.HDCLUB.mkvFormat : MatroskaFormat version : Version 2File size : 3.25 GiBDuration : 1 h 27 minOverall bit rate : 5 346 kb/sMovie name : Mes tresors (2017) - Release for HDCLUBEncoded date : UTC 2017-05-07 18:58:14Writing application : mkvmerge v3.4.0 ('Rapunzel') built on May 15 2010 09:38:20Writing library : libebml v0.8.0 + libmatroska v0.9.0

VideoID : 1Format : AVCFormat/Info : Advanced Video CodecFormat profile : [email protected] settings, CABAC : YesFormat settings, ReFrames : 5 framesCodec ID : V_MPEG4/ISO/AVCDuration : 1 h 27 minBit rate : 4 472 kb/sWidth : 1 916 pixelsHeight : 792 pixelsDisplay aspect ratio : 2.40:1Frame rate mode : ConstantFrame rate : 25.000 FPSColor space : YUVChroma subsampling : 4:2:0Bit depth : 8 bitsScan type : ProgressiveBits/(Pixel*Frame) : 0.118Stream size : 2.72 GiB (84%)Title : Mes tresors (2017) - Release for HDCLUBLanguage : FrenchDefault : YesForced : NoColor range : LimitedColor primaries : BT.709Transfer characteristics : BT.709Matrix coefficients : BT.709

Audio #1ID : 2Format : AC-3Format/Info : Audio Coding 3Mode extension : CM (complete main)Format settings, Endianness : BigCodec ID : A_AC3Duration : 1 h 27 minBit rate mode : ConstantBit rate : 384 kb/sChannel(s) : 6 channelsChannel positions : Front: L C R, Side: L R, LFESampling rate : 48.0 kHzFrame rate : 31.250 FPS (1536 spf)Compression mode : LossyStream size : 239 MiB (7%)Title : AC3 5.1 @ 384 kbps - DUB, iTunesLanguage : RussianDefault : YesForced : No

Audio #2ID : 3Format : AC-3Format/Info : Audio Coding 3Mode extension : CM (complete main)Format settings, Endianness : BigCodec ID : A_AC3Duration : 1 h 27 minBit rate mode : ConstantBit rate : 384 kb/sChannel(s) : 6 channelsChannel positions : Front: L C R, Side: L R, LFESampling rate : 48.0 kHzFrame rate : 31.250 FPS (1536 spf)Compression mode : LossyStream size : 239 MiB (7%)Title : AC3 5.1 @ 384 kbpsLanguage : FrenchDefault : NoForced : No

Menu00:00:00.000 : en:Chapitre 100:09:54.840 : en:Chapitre 200:20:55.960 : en:Chapitre 300:30:01.160 : en:Chapitre 400:40:59.640 : en:Chapitre 500:51:13.800 : en:Chapitre 601:00:03.280 : en:Chapitre 701:09:59.040 : en:Chapitre 801:17:48.680 : en:Chapitre 901:23:10.800 : en:Chapitre 10

piratbit.ru

Скачать фильм Семейное ограбление через торрент в хорошем качестве бесплатно 1080p

piratbit.ru

Размер: 3.31 GB | Добавлен: 5 мес. 20 д. назад | Торрент скачан:56 раз
Реклама Дарим 3000 рублей за регистрацию, не упусти свой шанс получить шикарный бонус!!!

05-05-2017 20:34 Семейное ограбление Скачать торрент  

Семейное ограбление / Mes trésors

Год выпуска: 2017Выпущено: Франция, Canal+ [fr], Forecast Pictures, Orange Cinéma SériesЖанр: КомедияПродолжительность: 01:28:03Перевод: Профессиональный (полное дублирование) [Звук с TS]

Режиссер: Паскаль Бурдьо

В ролях: Жан Рено, Рем Кериси, Камиль Шаму, Бруно Санчес, Паскаль Демолон, Фамке Янссен

Описание: Анжела и Анжелика — две абсолютно разные девушки, которые не имеют ничего общего. Кроме, разве что, отца, которого они никогда не видели. И вот однажды он появился в их жизни. Вор международного масштаба решил наверстать упущенное, создав с дочерьми безумную команду, чтобы совершить ограбление века. И все бы ничего, только гениальный план Патрика дает сбой, и все идет не по запланированному сценарию...

Качество: WEB-DL [1080p]Формат: MKVВидео: AVC, 5002 Кбит/с, 1916x792, 23,976 fpsАудио: 48.0 KHz, AC3, 2 ch, 384 Кбит/с

Скачать Семейное ограбление через торрент http://s019.radikal.ru/i600/1701/4e/5d6d9e6ae018.jpg Скачать фильм Семейное ограбление через торрент бесплантно в хорошем качестве Описание: Анжела и Анжелика — две абсолютно разные девушки, которые не имеют ничего общего. Кроме, разве что, отца, которого они никогда не ... 2017-05-05 20:34 7 10 3

Loading...

Loading...

% Раздел Тема Автор DL S | L
Фильмы (Blu-ray, BD-Remux, HDDVD) [ 14.59 GB ] Семейное ограбление / Mes trésors [2017 BD Remux 1080p] DUB [RUS Transfer] [] bober100 Скачать
Фильмы 2017 [DVDrip, WEB-DLRip, HDrip] (DUB, MVO) [ 1.36 GB ] Семейное ограбление / Mes trésors [2017 BDRip-AVC] [] - ExKinoRay Enigma2010 Скачать
Фильмы 2017 [DVDrip, WEB-DLRip, HDrip] (DUB, MVO) [ 1.46 GB ] Семейное ограбление / Mes trésors [2017 BDRip] - [] Twi7ter Скачать
Фильмы [HD 720p, 1080p] (Хороший звук DUB, MVO) [ 2.94 GB ] Семейное ограбление / Mes trésors [2017 BDRip 720p] [] - ExKinoRay Enigma2010 Скачать
Фильмы 2017 [DVDrip, WEB-DLRip, HDrip] (DUB, MVO) [ 699 MB ] Семейное ограбление / Mes trеsors [2017 WEB-DLRip] Sherif Скачать
Фильмы (WEB-DL 720p, 1080p) [ 3.25 GB ] Семейное ограбление / Mes trésors [2017 WEB-DL 1080p] - Ворон Скачать

Рекламный пират

Дорогой пользователь! Огромная просьба, поблагодарите релизера, оцените раздачу и оставьте свои комментарий, если Вы скачали Семейное ограбление через торрент бесплатно! Внесите свою лепту в развитие PiratBit!

Комментировать посты могут только пользователи прошедшие не сложную регистрацию

Семейное ограбление через торрент Скачать бесплатно Семейное ограбление Семейное ограбление скачать торрент Семейное ограбление смотреть онлайн Cкачать фильм Семейное ограбление бесплатно Семейное ограбление скачать торрент в хорошем качестве Семейное ограбление смотреть онлайн бесплатно в хорошем качестве

Вы можете начинать темыВы можете отвечать на сообщенияВы не можете редактировать свои сообщенияВы не можете удалять свои сообщенияВы не можете голосовать в опросахВы не можете прикреплять файлы к сообщениямВы можете скачивать файлы

Скачать торрент Семейное ограбление (2017) бесплатно в хорошем качестве HD 1080

Скачал сам?! Дай скачать другим, не уходи с раздачи!!!

Информация о фильмеНазвание: Семейное ограблениеОригинальное название: Mes trsorsГод выхода: 2017Жанр: КомедияРежиссер: Паскаль БурдьоВ ролях: Жан Рено, Рем Кериси, Камиль Шаму, Бруно Санчес, Паскаль Демолон, Жан Ренес, Марион Брие, Юже Тьерри, Зина Есепчук

О фильме: Семейное ограбление - в центре сюжета Анжела и Анжелика, между этими девушками вообще нет ни капли ничего общего, кроме отца, которого они ни разу в жизни не видели. Но вот однажды наступил момент, когда отец снова появился в их жизни. Он вор и не просто вор, а вор мирового масштаба и он решил организовать вместе со своими дочерьми настоящее ограбление века!

Страна: ФранцияСтудия: Canal+ [fr], Forecast Pictures, Orange Cinma SriesПродолжительность: 01:30:38Перевод: Дублированный | Лицензия

ФайлКачество: BDRip 1080pВидео: MPEG-4 AVC, 1920x800, 9800 Kbit/s, 24.000 fpsАудио #01: 48 kHz, AC3, 5.1, 640 Kbps | Дублированный | RUS |Аудио #02: 48 kHz, AC3, 5.1, 384 Kbps | Оригинал | FRE |

GeneralUnique ID : 210102088961377446095357664650860816843 (0x9E1030C163EEE8F3AB38F1B6D921E9CB)Complete name : F:VideoFamily.Heist.2017.BDRip.1080p.ExKinoRay.mkvFormat : MatroskaFormat version : Version 4 / Version 2File size : 6.85 GiBDuration : 1 h 30 minOverall bit rate : 10.8 Mb/sEncoded date : UTC 2017-05-21 16:08:25Writing application : mkvmerge v12.0.0 ('Trust / Lust') 64bitWriting library : libebml v1.3.4 + libmatroska v1.4.5

VideoID : 1Format : AVCFormat/Info : Advanced Video CodecFormat profile : [email protected] settings, CABAC : YesFormat settings, ReFrames : 5 framesCodec ID : V_MPEG4/ISO/AVCDuration : 1 h 30 minBit rate : 9 800 kb/sWidth : 1 920 pixelsHeight : 800 pixelsDisplay aspect ratio : 2.40:1Frame rate mode : ConstantFrame rate : 24.000 FPSColor space : YUVChroma subsampling : 4:2:0Bit depth : 8 bitsScan type : ProgressiveBits/(Pixel*Frame) : 0.266Stream size : 6.20 GiB (91%)Writing library : x264 core 146 r2538 121396cEncoding settings : cabac=1 / ref=5 / deblock=1:-3:-3 / analyse=0x3:0x133 / me=umh / subme=11 / psy=1 / psy_rd=1.05:0.05 / mixed_ref=1 / me_range=64 / chroma_me=1 / trellis=2 / 8x8dct=1 / cqm=0 / deadzone=21,11 / fast_pskip=0 / chroma_qp_offset=-3 / threads=6 / lookahead_threads=1 / sliced_threads=0 / nr=0 / decimate=0 / interlaced=0 / bluray_compat=0 / constrained_intra=0 / bframes=8 / b_pyramid=2 / b_adapt=2 / b_bias=0 / direct=3 / weightb=1 / open_gop=0 / weightp=2 / keyint=240 / keyint_min=24 / scenecut=40 / intra_refresh=0 / rc_lookahead=50 / rc=2pass / mbtree=0 / bitrate=9800 / ratetol=1.0 / qcomp=0.60 / qpmin=0 / qpmax=69 / qpstep=4 / cplxblur=20.0 / qblur=0.5 / vbv_maxrate=50000 / vbv_bufsize=62500 / nal_hrd=none / filler=0 / ip_ratio=1.40 / pb_ratio=1.30 / aq=1:0.80Language : RussianDefault : YesForced : No

Audio #1ID : 2Format : AC-3Format/Info : Audio Coding 3Format settings, Endianness : BigCodec ID : A_AC3Duration : 1 h 30 minBit rate mode : ConstantBit rate : 640 kb/sChannel(s) : 6 channelsChannel positions : Front: L C R, Side: L R, LFESampling rate : 48.0 kHzFrame rate : 31.250 FPS (1536 spf)Bit depth : 16 bitsCompression mode : LossyStream size : 415 MiB (6%)Title : Dub [License]Language : RussianService kind : Complete MainDefault : YesForced : No

Audio #2ID : 3Format : AC-3Format/Info : Audio Coding 3Format settings, Endianness : BigCodec ID : A_AC3Duration : 1 h 30 minBit rate mode : ConstantBit rate : 384 kb/sChannel(s) : 6 channelsChannel positions : Front: L C R, Side: L R, LFESampling rate : 48.0 kHzFrame rate : 31.250 FPS (1536 spf)Bit depth : 16 bitsCompression mode : LossyStream size : 249 MiB (4%)Title : OriginalLanguage : FrenchService kind : Complete MainDefault : NoForced : No

Menu00:00:00.000 : en:Chapitre 100:09:54.840 : en:Chapitre 200:20:55.960 : en:Chapitre 300:30:01.160 : en:Chapitre 400:40:59.640 : en:Chapitre 500:51:13.800 : en:Chapitre 601:00:03.280 : en:Chapitre 701:09:59.040 : en:Chapitre 801:17:48.680 : en:Chapitre 901:23:10.800 : en:Chapitre 10

Размер файла: 6.85 GB

Поиск торрент раздач, пожалуйста подождите!

ufreetorrent.ru

Скачать торрент Семейное ограбление (2017) бесплатно в хорошем качестве HD 720

Скачал сам?! Дай скачать другим, не уходи с раздачи!!!

Информация о фильмеНазвание: Семейное ограблениеОригинальное название: Mes trsorsГод выпуска: 2017Жанр: КомедияРежиссер: Паскаль БурдьоВ ролях: Жан Рено, Рем Кериси, Камиль Шаму, Бруно Санчес, Паскаль Демолон, Жан Ренес, Марион Брие, Юже Тьерри, Зина Есепчук

Описание: Семейное ограбление - в центре сюжета Анжела и Анжелика, между этими девушками вообще нет ни капли ничего общего, кроме отца, которого они ни разу в жизни не видели. Но вот однажды наступил момент, когда отец снова появился в их жизни. Он вор и не просто вор, а вор мирового масштаба и он решил организовать вместе со своими дочерьми настоящее ограбление века!

Страна: ФранцияСтудия: Canal+ [fr], Forecast Pictures, Orange Cinma SriesПродолжительность: 01:30:38Перевод: Дублированный | BD RUS

Файл Формат: MKVКачество: BDRip 720p Видео: AVC, 1280х534 (2.40:1), 4019 kbps, 24,000 fps, 0,245 bppАудио: 48 kHz, AC3, 5.1, 640 Kbps | RUS |

Навигация по главам: есть

GeneralUnique ID : 231875511609055116088098855360853226591 (0xAE71995FC8B8E405B7F570FCF5ACB45F)Complete name : D:Mes.tresors.2017.BDRip720p.ExKinoRay.mkvFormat : MatroskaFormat version : Version 2File size : 2.94 GiBDuration : 1 h 30 minOverall bit rate : 4 641 kb/sMovie name : Семейное ограбление (2017) from ExKinoRayEncoded date : UTC 2017-05-20 01:42:35Writing application : mkvmerge v5.8.0 ('No Sleep / Pillow') built on Sep 2 2012 15:37:04Writing library : libebml v1.2.3 + libmatroska v1.3.0

VideoID : 1Format : AVCFormat/Info : Advanced Video CodecFormat profile : [email protected] settings, CABAC : YesFormat settings, ReFrames : 12 framesCodec ID : V_MPEG4/ISO/AVCDuration : 1 h 30 minBit rate : 4 019 kb/sWidth : 1 280 pixelsHeight : 534 pixelsDisplay aspect ratio : 2.40:1Frame rate mode : ConstantFrame rate : 24.000 FPSColor space : YUVChroma subsampling : 4:2:0Bit depth : 8 bitsScan type : ProgressiveBits/(Pixel*Frame) : 0.245Stream size : 2.47 GiB (84%)Writing library : x264 core 144 r2525 40bb568Encoding settings : cabac=1 / ref=12 / deblock=1:-2:-2 / analyse=0x3:0x113 / me=umh / subme=10 / psy=1 / psy_rd=1.05:0.10 / mixed_ref=1 / me_range=32 / chroma_me=1 / trellis=2 / 8x8dct=1 / cqm=0 / deadzone=21,11 / fast_pskip=1 / chroma_qp_offset=-3 / threads=12 / lookahead_threads=3 / sliced_threads=0 / nr=0 / decimate=0 / interlaced=0 / bluray_compat=0 / constrained_intra=0 / bframes=11 / b_pyramid=2 / b_adapt=2 / b_bias=0 / direct=3 / weightb=1 / open_gop=0 / weightp=2 / keyint=240 / keyint_min=24 / scenecut=40 / intra_refresh=0 / rc_lookahead=40 / rc=2pass / mbtree=0 / bitrate=4019 / ratetol=1.0 / qcomp=0.60 / qpmin=0 / qpmax=51 / qpstep=4 / cplxblur=20.0 / qblur=0.5 / vbv_maxrate=50000 / vbv_bufsize=62500 / nal_hrd=none / filler=0 / ip_ratio=1.40 / pb_ratio=1.30 / aq=1:1.00Default : YesForced : NoColor range : LimitedColor primaries : BT.709Transfer characteristics : BT.709Matrix coefficients : BT.709

AudioID : 2Format : AC-3Format/Info : Audio Coding 3Mode extension : CM (complete main)Format settings, Endianness : BigCodec ID : A_AC3Duration : 1 h 30 minBit rate mode : ConstantBit rate : 640 kb/sChannel(s) : 6 channelsChannel positions : Front: L C R, Side: L R, LFESampling rate : 48.0 kHzFrame rate : 31.250 FPS (1536 spf)Compression mode : LossyStream size : 415 MiB (14%)Title : Dub (Лицензия)Language : RussianDefault : YesForced : No

Menu00:00:00.000 : :Chapter 0100:00:41.250 : :Chapter 0200:10:19.666 : :Chapter 0300:21:48.458 : :Chapter 0400:31:16.875 : :Chapter 0500:43:53.666 : :Chapter 0600:57:39.791 : :Chapter 0701:08:40.416 : :Chapter 0801:17:47.500 : :Chapter 09

Размер файла: 2.94 GB

Поиск торрент раздач, пожалуйста подождите!

ufreetorrent.ru


Смотрите также