Противостояние первый мститель скачать торрент в хорошем


Скачать торрент Первый мститель: Противостояние / Captain America: Civil War (2016) TC 1080p

«Первый мститель: Противостояние»Информация о фильме • Название: Первый мститель: Противостояние / Капитан Америка: Гражданская Война • Оригинальное название: Captain America: Civil War • Год выхода: 2016 • Страна: США, Германия • Студия: Marvel Studios Inc. • Жанр: фантастика, боевик, триллер, приключения• Продолжительность: 02:27:27

• Перевод: • Профессиональный (полное дублирование) - [Line] • Cубтитры: корейские (форсированные) - инострання речь и надписи

• Режиссеры: Энтони Руссо, Джо Руссо

• В ролях: Крис Эванс, Роберт Дауни мл., Скарлетт Йоханссон, Себастьян Стэн, Энтони Маки, Дон Чидл, Джереми Реннер, Чедвик Боузман, Пол Беттани, Элизабет Олсен, Пол Радд, Эмили ВанКэмп, Том Холланд, Даниэль Брюль, Фрэнк Грилло и др.

• Описание: Мстители под руководством Капитана Америки оказываются участниками разрушительного инцидента, имеющего международный масштаб. Эти события заставляют правительство задуматься над тем, чтобы начать регулировать действия всех людей с особыми способностями, введя «Акт о регистрации супергероев», вынуждая их подчиняться ООН.

Видя в этом договоре нарушение гражданских прав и плевок на всё, во что он верит, Стив Роджерс открыто восстаёт против нового режима, ведя за собой группу героев, поддерживающих его мнение. В свою очередь, Тони Старк видит смысл в новом договоре и становится во главе героев, поддерживающих его. Всё это приводит к неизбежному расколу Мстителей и войне между сторонами. Сражаясь друг с другом, Старк и Роджерс не знают о том, что таинственный Барон Земо уже строит свои собственные планы, воспользовавшись расколом величайших героев Земли.

Файл • Качество: TeleCine 1080p • Формат: MKV • Видео кодек: h364 • Аудио кодек: AC3

• Видео: 1920x1080 (16:9), 29.970 fps, ~4895 Kbps, 0.079 bit/pixel • | Аудио #1: 48 kHz, AC3 Dolby Digital, 2/0 (L,R) ch, ~192.00 kbps | Rus | Dub • | Аудио #2: 48 kHz, AC3 Dolby Digital, 2/0 (L,R) ch, ~192.00 kbps | Eng | Original • Формат субтитров: hardsub (не отключаемые)

Релиз от: KinoView

MediaInfo

General Unique ID : 250269870793968430349966657509484193415 (0xBC48394D2F69E598B0BFDF943458E687) Complete name : Captain.America.III.Civil.War.2016.HDTC.1080p.H.264.AC3.[RUS+ENG].mkv Format : Matroska Format version : Version 2 File size : 5.55 GiB Duration : 2h 27mn Overall bit rate : 5 386 Kbps Movie name : Первый мститель: Противостояние (2016) HDTC 1080p Encoded date : UTC 2016-05-16 06:12:27 Writing application : mkvmerge v5.2.1 ('A Far Off Place') built on Jan 2 2012 23:21:10 Writing library : libebml v1.2.3 + libmatroska v1.3.0 Cover : Yes Attachments : Cover.png

Video ID : 1 Format : AVC Format/Info : Advanced Video Codec Format profile : [email protected] Format settings, CABAC : Yes Format settings, ReFrames : 4 frames Muxing mode : Header stripping Codec ID : V_MPEG4/ISO/AVC Duration : 2h 27mn Bit rate : 4 895 Kbps Width : 1 920 pixels Height : 1 080 pixels Display aspect ratio : 16:9 Frame rate mode : Constant Frame rate : 29.970 (29970/1000) fps Color space : YUV Chroma subsampling : 4:2:0 Bit depth : 8 bits Scan type : Progressive Bits/(Pixel*Frame) : 0.079 Stream size : 5.04 GiB (91%) Title : Релиз от: KinoView Language : English Default : Yes Forced : No

Audio #1 ID : 2 Format : AC-3 Format/Info : Audio Coding 3 Mode extension : CM (complete main) Format settings, Endianness : Big Muxing mode : Header stripping Codec ID : A_AC3 Duration : 2h 27mn Bit rate mode : Constant Bit rate : 192 Kbps Channel(s) : 2 channels Channel positions : Front: L R Sampling rate : 48.0 KHz Frame rate : 31.250 fps (1536 spf) Compression mode : Lossy Delay relative to video : -1ms Stream size : 202 MiB (4%) Title : Dub (Line) Language : Russian Default : Yes Forced : No

Audio #2 ID : 3 Format : AC-3 Format/Info : Audio Coding 3 Mode extension : CM (complete main) Format settings, Endianness : Big Muxing mode : Header stripping Codec ID : A_AC3 Duration : 2h 27mn Bit rate mode : Constant Bit rate : 192 Kbps Channel(s) : 2 channels Channel positions : Front: L R Sampling rate : 48.0 KHz Frame rate : 31.250 fps (1536 spf) Compression mode : Lossy Delay relative to video : -1ms Stream size : 202 MiB (4%) Title : Original Language : English Default : No Forced : No

krutor.org

Противостояние (2016) скачать торрент в хорошем качестве hd

Название: Первый мститель: Противостояние 

Оригинальное название: Captain America: Civil War 

Год выхода: 2016 

Жанр: фантастика, боевик, приключения 

Режиссёр: Энтони Руссо, Джо Руссо 

Актёры: Крис Эванс, Роберт Дауни мл., Скарлетт Йоханссон, Себастьян Стэн, Энтони Маки, Дон Чидл, Джереми Реннер, Чедвик Боузман, Пол Беттани, Элизабет Олсен 

Раскол между друзьями и теми, кто раньше был единым целым, может привести к серьёзным последствиям. Тем более, если речь идет о неординарных личностях и тех, кто обладает совершенными силами и могуществом. Так противостояние и грани понимания мира возникли и в данной истории, где супергерои нашли точку, которая способна разрушить мирное время на планете Земля. Именно поступок Капитана Америки, с серьезным разрушением центра города, заставил Тони Старка, начать режим соперничества и войны. Но они не ожидают, что этим может воспользоваться таинственный Барон Земо, готовый всегда начать свой план действий. 

Сюжетом для нового эпизода фильма Первый мститель: Противостояние о приключениях супергероев, с железным человеком и его наработками в вооружении, станет сложным и порой неординарным. Ведь, вспыхнет вражда и начнется соперничество на новом уровне, уже между супергероями. Так после своих разрушительных действий на грани понимания мира и дружбы окажется Капитан Америка и всегда готовый его остановить и проучить Тони Старк. Они соберут вокруг себя отдельных воинов и покажут на что может повлиять их противостояние. Разрушая привычные рамки ведения боя и сражения. 

Супергерои начнут побег или вдогонку тех, кто не решится подчиниться созданным правилам о регистрации всех действий супергероев. Всем этим могут воспользоваться силы зла, когда будет наблюдаться серьезный раскол в рядах добра и тех, кто готов прийти на выручку простым людям. Именно таинственный Барон Земо, начнет свою подпольную игру и наведет новый порядок действий, создавая преграды для двух воющих лагерей. 

Сильно впечатляющая история, с огромным и превосходно выполненным антуражем боевика и фантастического сражения. Отлично поставленные трюки и умелая актерская игра, все это позволит увидеть отличный ракурс в изменившихся подходах и отношениях между мирными и как казалось ранее добрыми героями. За что кинолента и получает столь высокие и заслуженные 10 из 10. Давая лишний повод увидеть фантастические решения в амуниции и военном вооружении каждого из тех, кто обладает возможностью силы и воли к сражению.

Страна: США / Marvel Entertainment, Marvel Studios Inc., Studio Babelsberg 

Продолжительность: 02:26:57 

Озвучивание: Дублированное 

Субтитры: местами присутствуют вшитые иностранные субтитры 

ПРИМЕЧАНИЕ: ПРИСУТСТВУЕТ РЕКЛАМА!

Формат: AVI (XviD) 

Качество: TC 

Видео: 1794 kb/s, 720x320 

Аудио: AC3, 192 kb/s (2 ch) 

Поиск торрент раздач, пожалуйста подождите!

Информация о торрент файле

Скачать торрент Торрент: Зарегистрирован Статус: v Проверено Просмотров: 6 826 Категория: боевики Общий размер: 2.05 GB

Поделитесь ссылкой на наш сайт с друзьями в соц.сетях ↓

mega-torrent.co

Противостояние через торрент в хорошем качестве бесплатно HDRip

piratbit.ru

Размер: 2.18 GB | Добавлен: 1 год 1 мес. назад | Торрент скачан:332 раза
Реклама Дарим 3000 рублей за регистрацию, не упусти свой шанс получить шикарный бонус!!!

01-09-2016 18:48 Первый мститель: Противостояние Скачать торрент  

Первый мститель: Противостояние / Captain America: Civil War

Год выпуска: 2016Страна: США, Германия / Marvel Studios, Vita-Ray Dutch Productions (III), Studio BabelsbergЖанр: фантастика, боевик, приключенияПродолжительность: 02:27:41Перевод: Дубляж (iTunes)

Режиссер: Энтони Руссо, Джо Руссо

В ролях: Крис Эванс, Роберт Дауни мл., Скарлетт Йоханссон, Себастьян Стэн, Энтони Маки, Дон Чидл, Джереми Реннер, Чедвик Боузман, Пол Беттани, Элизабет Олсен

Описание: Мстители под руководством Капитана Америки оказываются участниками разрушительного инцидента, имеющего международный масштаб. Эти события заставляют правительство задуматься над тем, чтобы начать регулировать действия всех людей с особыми способностями, введя «Акт о регистрации супергероев», вынуждая их подчиняться ООН.

Видя в этом договоре нарушение гражданских прав и плевок на всё, во что он верит, Стив Роджерс открыто восстаёт против нового режима, ведя за собой группу героев, поддерживающих его мнение. В свою очередь, Тони Старк видит смысл в новом договоре и становится во главе героев, поддерживающих его. Всё это приводит к неизбежному расколу Мстителей и войне между сторонами. Сражаясь друг с другом, Старк и Роджерс не знают о том, что таинственный Барон Земо уже строит свои собственные планы, воспользовавшись расколом величайших героев Земли.

Качество: HDRipФормат: AVIВидео кодек: XviDАудио кодек: AC3Видео: 720x304 (2.37:1), 23.976 fps, XviD build 50 ~1718 kbps avg, 0.33 bit/pixelАудио: 48 kHz, AC3 Dolby Digital, 3/2 (L,C,R,l,r) + LFE ch, ~384 kbps

Скачать Первый мститель: Противостояние через торрент http://pic.pb.wtf/images/11/ongb2.jpg Скачать фильм Первый мститель: Противостояние через торрент бесплантно в хорошем качестве Описание: Мстители под руководством Капитана Америки оказываются участниками разрушительного инцидента, имеющего международный масштаб. Эти ... 2016-09-01 18:48 10 10 13

Loading...

Loading...

Рекламный пират

Дорогой пользователь! Огромная просьба, поблагодарите релизера, оцените раздачу и оставьте свои комментарий, если Вы скачали Первый мститель: Противостояние через торрент бесплатно! Внесите свою лепту в развитие PiratBit!

Комментировать посты могут только пользователи прошедшие не сложную регистрацию

Первый мститель: Противостояние через торрент Скачать бесплатно Первый мститель: Противостояние Первый мститель: Противостояние скачать торрент Первый мститель: Противостояние смотреть онлайн Cкачать фильм Первый мститель: Противостояние бесплатно Первый мститель: Противостояние скачать торрент в хорошем качестве Первый мститель: Противостояние смотреть онлайн бесплатно в хорошем качестве

Вы не можете начинать темыВы не можете отвечать на сообщенияВы не можете редактировать свои сообщенияВы не можете удалять свои сообщенияВы не можете голосовать в опросахВы не можете прикреплять файлы к сообщениямВы можете скачивать файлы

Противостояние (2016) скачать торрент в хорошем качестве hd

Название: Первый мститель: Противостояние 

Оригинальное название: Captain America: Civil War 

Год выпуска: 2016 

Жанр: Фантастика, боевик, триллер, приключения 

Режиссеры: Энтони Руссо, Джо Руссо 

В ролях: Крис Эванс, Роберт Дауни мл., Скарлетт Йоханссон, Себастьян Стэн, Энтони Маки, Дон Чидл, Джереми Реннер, Чедвик Боузман 

Раскол между друзьями и теми, кто раньше был единым целым, может привести к серьёзным последствиям. Тем более, если речь идет о неординарных личностях и тех, кто обладает совершенными силами и могуществом. Так противостояние и грани понимания мира возникли и в данной истории, где супергерои нашли точку, которая способна разрушить мирное время на планете Земля. Именно поступок Капитана Америки, с серьезным разрушением центра города, заставил Тони Старка, начать режим соперничества и войны. Но они не ожидают, что этим может воспользоваться таинственный Барон Земо, готовый всегда начать свой план действий. 

Сюжетом для нового эпизода фильма Первый мститель: Противостояние о приключениях супергероев, с железным человеком и его наработками в вооружении, станет сложным и порой неординарным. Ведь, вспыхнет вражда и начнется соперничество на новом уровне, уже между супергероями. Так после своих разрушительных действий на грани понимания мира и дружбы окажется Капитан Америка и всегда готовый его остановить и проучить Тони Старк. Они соберут вокруг себя отдельных воинов и покажут на что может повлиять их противостояние. Разрушая привычные рамки ведения боя и сражения. 

Супергерои начнут побег или вдогонку тех, кто не решится подчиниться созданным правилам о регистрации всех действий супергероев. Всем этим могут воспользоваться силы зла, когда будет наблюдаться серьезный раскол в рядах добра и тех, кто готов прийти на выручку простым людям. Именно таинственный Барон Земо, начнет свою подпольную игру и наведет новый порядок действий, создавая преграды для двух воющих лагерей. 

Сильно впечатляющая история, с огромным и превосходно выполненным антуражем боевика и фантастического сражения. Отлично поставленные трюки и умелая актерская игра, все это позволит увидеть отличный ракурс в изменившихся подходах и отношениях между мирными и как казалось ранее добрыми героями. За что кинолента и получает столь высокие и заслуженные 10 из 10. Давая лишний повод увидеть фантастические решения в амуниции и военном вооружении каждого из тех, кто обладает возможностью силы и воли к сражению.

Страна: США 

Студия: Marvel Entertainment, Marvel Studios Inc., Studio Babelsberg 

Продолжительность: 02:27:41 

Перевод: Дублированный | iTunes 

Кодек: MPEG-4 

Качество: BDRip 720p 

Видео: 1280x534, 3587 Kbit/s, 23.976 fps 

Звук: 

Аудио #01: 48 kHz, AC3, 5.1, 384 Kbps | Дублированный, iTunes |

Аудио #02: 48 kHz, DTS, 5.1, 1510 kbps | Оригинал |

Субтитры: Русские (полные, форсированные), английские (full, SDH)  

Поиск торрент раздач, пожалуйста подождите!

Информация о торрент файле

Скачать торрент Торрент: Зарегистрирован Статус: v Проверено Просмотров: 772 Категория: фантастика Общий размер: 5.66 GB

Поделитесь ссылкой на наш сайт с друзьями в соц.сетях ↓

mega-torrent.co

Противостояние (2016) скачать торрент в хорошем качестве hd

Страна: США 

Производство: Marvel Entertainment, Marvel Studios Inc., Studio Babelsberg 

Год выпуска: 2016 

Жанр: фантастика, боевик, триллер, приключения 

Продолжительность: 02:27:41 

Режиссеры: Энтони Руссо, Джо Руссо 

Автор сценария: Кристофер Маркус, Стивен МакФили, Марк Миллар 

В ролях: Крис Эванс, Роберт Дауни мл., Скарлетт Йоханссон, Себастьян Стэн, Энтони Маки, Дон Чидл, Джереми Реннер, Чедвик Боузман 

Раскол между друзьями и теми, кто раньше был единым целым, может привести к серьёзным последствиям. Тем более, если речь идет о неординарных личностях и тех, кто обладает совершенными силами и могуществом. Так противостояние и грани понимания мира возникли и в данной истории, где супергерои нашли точку, которая способна разрушить мирное время на планете Земля. Именно поступок Капитана Америки, с серьезным разрушением центра города, заставил Тони Старка, начать режим соперничества и войны. Но они не ожидают, что этим может воспользоваться таинственный Барон Земо, готовый всегда начать свой план действий. 

Сюжетом для нового эпизода фильма Первый мститель: Противостояние о приключениях супергероев, с железным человеком и его наработками в вооружении, станет сложным и порой неординарным. Ведь, вспыхнет вражда и начнется соперничество на новом уровне, уже между супергероями. Так после своих разрушительных действий на грани понимания мира и дружбы окажется Капитан Америка и всегда готовый его остановить и проучить Тони Старк. Они соберут вокруг себя отдельных воинов и покажут на что может повлиять их противостояние. Разрушая привычные рамки ведения боя и сражения. 

Супергерои начнут побег или вдогонку тех, кто не решится подчиниться созданным правилам о регистрации всех действий супергероев. Всем этим могут воспользоваться силы зла, когда будет наблюдаться серьезный раскол в рядах добра и тех, кто готов прийти на выручку простым людям. Именно таинственный Барон Земо, начнет свою подпольную игру и наведет новый порядок действий, создавая преграды для двух воющих лагерей. 

Сильно впечатляющая история, с огромным и превосходно выполненным антуражем боевика и фантастического сражения. Отлично поставленные трюки и умелая актерская игра, все это позволит увидеть отличный ракурс в изменившихся подходах и отношениях между мирными и как казалось ранее добрыми героями. За что кинолента и получает столь высокие и заслуженные 10 из 10. Давая лишний повод увидеть фантастические решения в амуниции и военном вооружении каждого из тех, кто обладает возможностью силы и воли к сражению.

Страна: США 

Студия: Marvel Entertainment, Marvel Studios Inc., Studio Babelsberg 

Продолжительность: 02:27:57 

Перевод: Профессиональный (полное дублирование) | iTunes 

Формат: AVI 

Качество: BDRip 

Видео: XviD, 720x304 (2.35:1), 23.976 fps, 1644 Kbps (0.313 bit/pixel) 

Звук: 48.0 kHz, AC3 Dolby Digital, 5/1 (L C R, Side: L R, LFE) ch, 384 kbps 

Субтитры: Нет

Поиск торрент раздач, пожалуйста подождите!

Информация о торрент файле

Скачать торрент Торрент: Зарегистрирован Статус: v Проверено Просмотров: 736 Категория: фантастика Общий размер: 2.11 GB

Поделитесь ссылкой на наш сайт с друзьями в соц.сетях ↓

mega-torrent.co

Противостояние через торрент в хорошем качестве бесплатно BDRip-AVC

GeneralUnique ID : 247959735254722150078295254405121254492 (0xBA8B4ED361E7A3CCA4DB3A10A3D7245C)Complete name : D:\download\Captain.America.Civil.War.2016.BDRip-AVC by schultz R.G.Resident.mkvFormat : MatroskaFormat version : Version 4 / Version 2File size : 2.92 GiBDuration : 2 h 27 minOverall bit rate : 2 830 kb/sEncoded date : UTC 2016-08-31 07:15:54Writing application : mkvmerge v8.9.0 ('Father Daughter') 64bitWriting library : libebml v1.3.3 + libmatroska v1.4.4

VideoID : 1Format : AVCFormat/Info : Advanced Video CodecFormat profile : [email protected] settings, CABAC : YesFormat settings, ReFrames : 11 framesCodec ID : V_MPEG4/ISO/AVCDuration : 2 h 27 minBit rate : 1 996 kb/sWidth : 1 024 pixelsHeight : 428 pixelsDisplay aspect ratio : 2.40:1Frame rate mode : ConstantFrame rate : 23.976 (23976/1000) FPSColor space : YUVChroma subsampling : 4:2:0Bit depth : 8 bitsScan type : ProgressiveBits/(Pixel*Frame) : 0.190Stream size : 2.06 GiB (71%)Writing library : x264 core 146 r2538 121396cEncoding settings : cabac=1 / ref=11 / deblock=1:-3:-3 / analyse=0x3:0x113 / me=umh / subme=11 / psy=1 / psy_rd=1.00:0.00 / mixed_ref=1 / me_range=48 / chroma_me=1 / trellis=2 / 8x8dct=1 / cqm=0 / deadzone=21,11 / fast_pskip=0 / chroma_qp_offset=-2 / threads=12 / lookahead_threads=3 / sliced_threads=0 / nr=0 / decimate=0 / interlaced=0 / bluray_compat=0 / constrained_intra=0 / bframes=12 / b_pyramid=2 / b_adapt=2 / b_bias=0 / direct=3 / weightb=1 / open_gop=0 / weightp=2 / keyint=240 / keyint_min=23 / scenecut=40 / intra_refresh=0 / rc_lookahead=40 / rc=2pass / mbtree=1 / bitrate=1996 / ratetol=1.0 / qcomp=0.60 / qpmin=0 / qpmax=69 / qpstep=4 / cplxblur=20.0 / qblur=0.5 / vbv_maxrate=14000 / vbv_bufsize=14000 / nal_hrd=none / filler=0 / ip_ratio=1.40 / aq=1:1.00Language : EnglishDefault : YesForced : No

Audio #1ID : 2Format : AC-3Format/Info : Audio Coding 3Mode extension : CM (complete main)Format settings, Endianness : BigCodec ID : A_AC3Duration : 2 h 27 minBit rate mode : ConstantBit rate : 384 kb/sChannel(s) : 6 channelsChannel positions : Front: L C R, Side: L R, LFESampling rate : 48.0 kHzFrame rate : 31.250 FPS (1536 spf)Compression mode : LossyDelay relative to video : 800 msStream size : 406 MiB (14%)Language : RussianDefault : YesForced : No

Audio #2ID : 3Format : AC-3Format/Info : Audio Coding 3Mode extension : CM (complete main)Format settings, Endianness : BigCodec ID : A_AC3Duration : 2 h 27 minBit rate mode : ConstantBit rate : 448 kb/sChannel(s) : 6 channelsChannel positions : Front: L C R, Side: L R, LFESampling rate : 48.0 kHzFrame rate : 31.250 FPS (1536 spf)Compression mode : LossyStream size : 473 MiB (16%)Language : EnglishDefault : NoForced : No

Text #1ID : 4Format : UTF-8Codec ID : S_TEXT/UTF8Codec ID/Info : UTF-8 Plain TextDuration : 2 h 26 minBit rate : 86 b/sCount of elements : 1512Stream size : 92.8 KiB (0%)Title : fullLanguage : RussianDefault : YesForced : No

Text #2ID : 5Format : UTF-8Codec ID : S_TEXT/UTF8Codec ID/Info : UTF-8 Plain TextDuration : 2 h 25 minBit rate : 50 b/sCount of elements : 1865Stream size : 54.2 KiB (0%)Title : FullLanguage : EnglishDefault : NoForced : No

Text #3ID : 6Format : UTF-8Codec ID : S_TEXT/UTF8Codec ID/Info : UTF-8 Plain TextDuration : 2 h 26 minBit rate : 55 b/sCount of elements : 2105Stream size : 59.1 KiB (0%)Title : SDHLanguage : EnglishDefault : NoForced : No

piratbit.ru

Противостояние (2016) HD 1080p скачать торрент в хорошем качестве

Информация о фильме Год выхода: 2016Название: Первый мститель: ПротивостояниеЖанр: Фантастика, боевик, приключенияОригинальное название: Captain America: Civil WarРежиссер: Энтони Руссо, Джо РуссоВ ролях: Крис Эванс, Роберт Дауни мл., Скарлетт Йоханссон, Себастьян Стэн, Энтони Маки, Дон Чидл, Джереми Реннер, Чэдвик Боузмэн, Пол Беттани, Элизабет Олсен

Описание фильма Мстители под руководством Капитана Америки оказываются участниками разрушительного инцидента, имеющего международный масштаб. Эти события заставляют правительство задуматься над тем, чтобы начать регулировать действия всех людей с особыми способностями, введя «Акт о регистрации супергероев», вынуждая их раскрыть свои личности и работать на правительственные службы.

Страна: СШАПродолжительность: 02:27:41Перевод: дублированный - iTunes

Информация о файле Формат:| MKV | x264 |Качество: BDRip 1080pВидео: X264/MPEG4-AVC | 1920x804 (2.40:1) | ~6176 kbps | 23.976 fpsАудио Rus: AC3 | 48 KHz | 5.1 (Front: L С R Side: L R) + LFE | ~384 kbpsАудио Eng: AC3 | 48 KHz | 5.1 (Front: L С R Side: L R) + LFE | ~640 kbpsСубтитры: | Русские (Forced, Full) | английские (Full) |

x264 [info]: frame I:1747 Avg QP:14.76 size:175315x264 [info]: frame P:62256 Avg QP:18.22 size: 56406x264 [info]: frame B:148471 Avg QP:18.99 size: 20367

ОбщееУникальный идентификатор : 232920987614159991916568916091107721218 (0xAF3AF352260108C0936810379BAAC002)Полное имя : X:ATorrentCaptain.America.Civil.War.(2016).BDRip.1080p.(qqss44).mkvФормат : MatroskaВерсия формата : Version 2Размер файла : 7,43 ГбайтПродолжительность : 2 ч. 27 м.Общий поток : 7203 Кбит/секНазвание фильма : Captain.America.Civil.War.(2016).BDRip.1080p.(qqss44)Дата кодирования : UTC 2016-09-20 15:56:02Программа кодирования : mkvmerge v7.9.0 ('Birds') 64bitБиблиотека кодирования : libebml v1.3.1 + libmatroska v1.4.2

ВидеоИдентификатор : 1Формат : AVCФормат/Информация : Advanced Video CodecПрофиль формата : [email protected]Параметр CABAC формата : ДаПараметр ReFrames формата : 5 кадровИдентификатор кодека : V_MPEG4/ISO/AVCПродолжительность : 2 ч. 27 м.Битрейт : 6176 Кбит/секШирина : 1920 пикселейВысота : 804 пикселяСоотношение сторон : 2,40:1Режим частоты кадров : ПостоянныйЧастота кадров : 23,976 (24000/1001) кадра/секЦветовое пространство : YUVСубдискретизация насыщенности : 4:2:0Битовая глубина : 8 битТип развёртки : ПрогрессивнаяБит/(Пиксели*Кадры) : 0.167Размер потока : 6,37 Гбайт (86%)Заголовок : Captain.America.Civil.War.(2016).BDRip.1080p.(qqss44)Библиотека кодирования : x264 core 146 r2538 121396cНастройки программы : cabac=1 / ref=5 / deblock=1:-3:-3 / analyse=0x3:0x133 / me=umh / subme=11 / psy=1 / psy_rd=1.00:0.00 / mixed_ref=1 / me_range=32 / chroma_me=1 / trellis=2 / 8x8dct=1 / cqm=0 / deadzone=21,11 / fast_pskip=0 / chroma_qp_offset=-2 / threads=12 / lookahead_threads=2 / sliced_threads=0 / nr=0 / decimate=0 / interlaced=0 / bluray_compat=0 / constrained_intra=0 / bframes=8 / b_pyramid=2 / b_adapt=2 / b_bias=0 / direct=3 / weightb=1 / open_gop=0 / weightp=2 / keyint=240 / keyint_min=23 / scenecut=40 / intra_refresh=0 / rc=2pass / mbtree=0 / bitrate=6176 / ratetol=1.0 / qcomp=0.60 / qpmin=0 / qpmax=69 / qpstep=4 / cplxblur=20.0 / qblur=0.5 / ip_ratio=1.40 / pb_ratio=1.30 / aq=1:1.00Язык : EnglishDefault : ДаForced : Нет

Аудио #1Идентификатор : 2Формат : AC-3Формат/Информация : Audio Coding 3Расширение режима : CM (complete main)Параметр Endianness формата : BigИдентификатор кодека : A_AC3Продолжительность : 2 ч. 27 м.Вид битрейта : ПостоянныйБитрейт : 384 Кбит/секКаналы : 6 каналовРасположение каналов : Front: L C R, Side: L R, LFEЧастота : 48,0 КГцЧастота кадров : 31,250 кадров/сек (1536 spf)Метод сжатия : С потерямиЗадержка видео : 800 мс.Размер потока : 406 Мбайт (5%)Заголовок : DUB | DD5.1 @ 384 kbpsЯзык : RussianDefault : ДаForced : Нет

Аудио #2Идентификатор : 3Формат : AC-3Формат/Информация : Audio Coding 3Расширение режима : CM (complete main)Параметр Endianness формата : BigИдентификатор кодека : A_AC3Продолжительность : 2 ч. 27 м.Вид битрейта : ПостоянныйБитрейт : 640 Кбит/секКаналы : 6 каналовРасположение каналов : Front: L C R, Side: L R, LFEЧастота : 48,0 КГцЧастота кадров : 31,250 кадров/сек (1536 spf)Метод сжатия : С потерямиРазмер потока : 676 Мбайт (9%)Заголовок : Original | DD5.1 @ 640 kbpsЯзык : EnglishDefault : НетForced : Нет

Текст #1Идентификатор : 4Формат : UTF-8Идентификатор кодека : S_TEXT/UTF8Идентификатор кодека/Информация : UTF-8 Plain TextПродолжительность : 2 ч. 24 м.Битрейт : 2 бит/секCount of elements : 57Размер потока : 2,85 Кбайт (0%)Заголовок : ForcedЯзык : RussianDefault : ДаForced : Нет

Текст #2Идентификатор : 5Формат : UTF-8Идентификатор кодека : S_TEXT/UTF8Идентификатор кодека/Информация : UTF-8 Plain TextПродолжительность : 2 ч. 25 м.Битрейт : 74 бит/секCount of elements : 1722Размер потока : 80,1 Кбайт (0%)Заголовок : FullЯзык : RussianDefault : НетForced : Нет

Текст #3Идентификатор : 6Формат : UTF-8Идентификатор кодека : S_TEXT/UTF8Идентификатор кодека/Информация : UTF-8 Plain TextПродолжительность : 2 ч. 25 м.Битрейт : 50 бит/секCount of elements : 1865Размер потока : 54,2 Кбайт (0%)Заголовок : FullЯзык : EnglishDefault : НетForced : Нет

Меню00:00:00.000 : en:Chapter 100:09:01.958 : en:Chapter 200:13:04.993 : en:Chapter 300:21:03.345 : en:Chapter 400:27:53.380 : en:Chapter 500:31:57.290 : en:Chapter 600:35:08.398 : en:Chapter 700:42:58.451 : en:Chapter 800:52:04.621 : en:Chapter 901:05:39.102 : en:Chapter 1001:16:41.639 : en:Chapter 1101:22:28.777 : en:Chapter 1201:29:29.489 : en:Chapter 1301:34:09.769 : en:Chapter 1401:45:38.582 : en:Chapter 1501:55:54.322 : en:Chapter 1602:02:35.056 : en:Chapter 1702:12:14.176 : en:Chapter 1802:18:29.384 : en:Chapter 19

rutorg2.ru


Смотрите также