Прогулка скачать торрент в хорошем качестве hd 720


Скачать фильм Прогулка через торрент в хорошем качестве бесплатно 1080p

ОбщееУникальный идентификатор : 198371163503870189601789870058415851647 (0x953CE579C85426AFA2083EBD2E7C087F)Полное имя : E:\Progulka.2015.D.BDRip.1080p.mkvФормат : MatroskaВерсия формата : Version 4 / Version 2Размер файла : 9,08 ГбайтПродолжительность : 2 ч. 3 м.Общий поток : 10,5 Мбит/секДата кодирования : UTC 2015-12-17 22:49:52Программа кодирования : mkvmerge v8.3.0 ('Over the Horizon') 64bitБиблиотека кодирования : libebml v1.3.1 + libmatroska v1.4.2DURATION : 01:47:51.715000000NUMBER_OF_FRAMES : 120NUMBER_OF_BYTES : 3101_STATISTICS_WRITING_APP : mkvmerge v8.3.0 ('Over the Horizon') 64bit_STATISTICS_WRITING_DATE_UTC : 2015-12-17 22:49:52_STATISTICS_TAGS : BPS DURATION NUMBER_OF_FRAMES NUMBER_OF_BYTES

ВидеоИдентификатор : 1Формат : AVCФормат/Информация : Advanced Video CodecПрофиль формата : [email protected]Параметр CABAC формата : ДаПараметр ReFrames формата : 5 кадровИдентификатор кодека : V_MPEG4/ISO/AVCПродолжительность : 2 ч. 3 м.Битрейт : 8654 Кбит/секШирина : 1920 пикселейВысота : 800 пикселейСоотношение сторон : 2,40:1Режим частоты кадров : ПостоянныйЧастота кадров : 23,976 кадра/секЦветовое пространство : YUVСубдискретизация насыщенности : 4:2:0Битовая глубина : 8 битТип развёртки : ПрогрессивнаяБит/(Пиксели*Кадры) : 0.235Размер потока : 7,27 Гбайт (80%)Библиотека кодирования : x264 core 148 r2638 7599210Настройки программы : cabac=1 / ref=5 / deblock=1:0:0 / analyse=0x3:0x133 / me=umh / subme=7 / psy=1 / psy_rd=1.00:0.00 / mixed_ref=1 / me_range=16 / chroma_me=1 / trellis=1 / 8x8dct=1 / cqm=0 / deadzone=21,11 / fast_pskip=0 / chroma_qp_offset=-2 / threads=12 / lookahead_threads=2 / sliced_threads=0 / nr=0 / decimate=1 / interlaced=0 / bluray_compat=0 / constrained_intra=0 / bframes=3 / b_pyramid=2 / b_adapt=1 / b_bias=0 / direct=1 / weightb=1 / open_gop=0 / weightp=2 / keyint=250 / keyint_min=23 / scenecut=40 / intra_refresh=0 / rc_lookahead=40 / rc=2pass / mbtree=1 / bitrate=8654 / ratetol=1.0 / qcomp=0.60 / qpmin=0 / qpmax=69 / qpstep=4 / cplxblur=20.0 / qblur=0.5 / ip_ratio=1.40 / aq=1:1.00Язык : EnglishDefault : ДаForced : НетDURATION : 02:03:11.313000000NUMBER_OF_FRAMES : 177214NUMBER_OF_BYTES : 7994265268_STATISTICS_WRITING_APP : mkvmerge v8.3.0 ('Over the Horizon') 64bit_STATISTICS_WRITING_DATE_UTC : 2015-12-17 22:49:52_STATISTICS_TAGS : BPS DURATION NUMBER_OF_FRAMES NUMBER_OF_BYTES

Аудио #1Идентификатор : 2Формат : AC-3Формат/Информация : Audio Coding 3Расширение режима : CM (complete main)Параметр Endianness формата : BigИдентификатор кодека : A_AC3Продолжительность : 2 ч. 3 м.Вид битрейта : ПостоянныйБитрейт : 384 Кбит/секКаналы : 6 каналовРасположение каналов : Front: L C R, Side: L R, LFEЧастота : 48,0 КГцБитовая глубина : 16 битМетод сжатия : С потерямиРазмер потока : 338 Мбайт (4%)Язык : RussianDefault : ДаForced : Нет

Аудио #2Идентификатор : 3Формат : DTSФормат/Информация : Digital Theater SystemsРежим : 16Параметр Endianness формата : BigИдентификатор кодека : A_DTSПродолжительность : 2 ч. 3 м.Вид битрейта : ПостоянныйБитрейт : 1509 Кбит/секКаналы : 6 каналовРасположение каналов : Front: L C R, Side: L R, LFEЧастота : 48,0 КГцБитовая глубина : 24 битМетод сжатия : С потерямиРазмер потока : 1,30 Гбайт (14%)Язык : EnglishDefault : НетForced : Нет

Текст #1Идентификатор : 4Формат : UTF-8Идентификатор кодека : S_TEXT/UTF8Идентификатор кодека/Информация : UTF-8 Plain TextЗаголовок : ForcedЯзык : RussianDefault : ДаForced : Да

Текст #2Идентификатор : 5Формат : UTF-8Идентификатор кодека : S_TEXT/UTF8Идентификатор кодека/Информация : UTF-8 Plain TextЗаголовок : English-ForcedЯзык : EnglishDefault : НетForced : Нет

Меню00:00:00.000 : en:00:00:00.00000:05:15.774 : en:00:05:15.77400:10:06.147 : en:00:10:06.14700:14:51.808 : en:00:14:51.80800:23:30.868 : en:00:23:30.86800:32:22.149 : en:00:32:22.14900:41:46.879 : en:00:41:46.87900:46:32.415 : en:00:46:32.41500:55:38.460 : en:00:55:38.46001:04:37.373 : en:01:04:37.37301:11:17.315 : en:01:11:17.31501:17:40.406 : en:01:17:40.40601:24:37.072 : en:01:24:37.07201:33:46.746 : en:01:33:46.74601:42:21.927 : en:01:42:21.92701:50:29.540 : en:01:50:29.540

piratbit.ru

Скачать фильм Прогулка через торрент в хорошем качестве бесплатно HDTV 720p

ОбщееУникальный идентификатор : 248042797259863921115971947437386216961 (0xBA9B4E19478CB157951B98BB484DB601)Полное имя : F:\5roGu1k0.2015.D.HDTV.720p.mkvФормат : MatroskaВерсия формата : Version 4 / Version 2Размер файла : 4,74 ГбайтПродолжительность : 2 ч. 3 м.Общий поток : 5517 Кбит/секДата кодирования : UTC 2015-12-09 07:01:42Программа кодирования : mkvmerge v8.6.1 ('Flying') 64bitБиблиотека кодирования : libebml v1.3.3 + libmatroska v1.4.4DURATION : 02:03:04.768000000NUMBER_OF_FRAMES : 230774NUMBER_OF_BYTES : 354468864_STATISTICS_WRITING_APP : mkvmerge v8.6.1 ('Flying') 64bit_STATISTICS_WRITING_DATE_UTC : 2015-12-09 07:01:42_STATISTICS_TAGS : BPS DURATION NUMBER_OF_FRAMES NUMBER_OF_BYTES

ВидеоИдентификатор : 1Формат : AVCФормат/Информация : Advanced Video CodecПрофиль формата : [email protected]Параметр CABAC формата : ДаПараметр ReFrames формата : 4 кадраИдентификатор кодека : V_MPEG4/ISO/AVCПродолжительность : 2 ч. 3 м.Битрейт : 4750 Кбит/секШирина : 1280 пикселейВысота : 536 пикселейСоотношение сторон : 2,40:1Режим частоты кадров : ПостоянныйЧастота кадров : 29,970 кадров/секЦветовое пространство : YUVСубдискретизация насыщенности : 4:2:0Битовая глубина : 8 битТип развёртки : ПрогрессивнаяБит/(Пиксели*Кадры) : 0.231Размер потока : 3,99 Гбайт (84%)Заголовок : 5roGu1k0.2015.D.HDTV.720p.ELEKTRI4KA.uniongang.tvБиблиотека кодирования : x264 core 146 r2538 121396cНастройки программы : cabac=1 / ref=4 / deblock=1:-3:-3 / analyse=0x3:0x113 / me=hex / subme=6 / psy=1 / psy_rd=1.00:0.00 / mixed_ref=1 / me_range=16 / chroma_me=1 / trellis=2 / 8x8dct=1 / cqm=0 / deadzone=21,11 / fast_pskip=1 / chroma_qp_offset=-2 / threads=12 / lookahead_threads=2 / sliced_threads=0 / nr=0 / decimate=1 / interlaced=0 / bluray_compat=0 / constrained_intra=0 / bframes=4 / b_pyramid=2 / b_adapt=1 / b_bias=0 / direct=1 / weightb=1 / open_gop=0 / weightp=1 / keyint=250 / keyint_min=25 / scenecut=40 / intra_refresh=0 / rc_lookahead=30 / rc=2pass / mbtree=1 / bitrate=4750 / ratetol=1.0 / qcomp=0.60 / qpmin=0 / qpmax=69 / qpstep=4 / cplxblur=20.0 / qblur=0.5 / vbv_maxrate=14000 / vbv_bufsize=14000 / nal_hrd=none / filler=0 / ip_ratio=1.40 / aq=1:1.00Язык : EnglishDefault : ДаForced : НетDURATION : 02:03:04.751000000NUMBER_OF_FRAMES : 221321NUMBER_OF_BYTES : 4381910781_STATISTICS_WRITING_APP : mkvmerge v8.6.1 ('Flying') 64bit_STATISTICS_WRITING_DATE_UTC : 2015-12-09 07:01:42_STATISTICS_TAGS : BPS DURATION NUMBER_OF_FRAMES NUMBER_OF_BYTES

Аудио #1Идентификатор : 2Формат : AC-3Формат/Информация : Audio Coding 3Расширение режима : CM (complete main)Параметр Endianness формата : BigИдентификатор кодека : A_AC3Продолжительность : 2 ч. 3 м.Вид битрейта : ПостоянныйБитрейт : 384 Кбит/секКаналы : 2 каналаРасположение каналов : Front: L RЧастота : 48,0 КГцБитовая глубина : 16 битМетод сжатия : С потерямиРазмер потока : 338 Мбайт (7%)Заголовок : 5roGu1k0.2015.D.HDTV.720p.ELEKTRI4KA.uniongang.tvЯзык : RussianDefault : ДаForced : Нет

Аудио #2Идентификатор : 3Формат : AC-3Формат/Информация : Audio Coding 3Расширение режима : CM (complete main)Параметр Endianness формата : BigИдентификатор кодека : A_AC3Продолжительность : 2 ч. 3 м.Вид битрейта : ПостоянныйБитрейт : 384 Кбит/секКаналы : 2 каналаРасположение каналов : Front: L RЧастота : 48,0 КГцБитовая глубина : 16 битМетод сжатия : С потерямиРазмер потока : 338 Мбайт (7%)Заголовок : 5roGu1k0.2015.D.HDTV.720p.ELEKTRI4KA.uniongang.tvЯзык : EnglishDefault : НетForced : Нет

ТекстИдентификатор : 4Формат : UTF-8Идентификатор кодека : S_TEXT/UTF8Идентификатор кодека/Информация : UTF-8 Plain TextЯзык : RussianDefault : ДаForced : Да

piratbit.ru

Скачать фильм Прогулка через торрент в хорошем качестве бесплатно 720p

ОбщееУникальный идентификатор : 241973736096675528026967601696734513136 (0xB60A7247F370BA22B7F0C4E8871507F0)Полное имя : E:\Pr0GylKa.2015.D.WEB-DL.720p.mkvФормат : MatroskaВерсия формата : Version 4 / Version 2Размер файла : 3,80 ГбайтПродолжительность : 2 ч. 3 м.Общий поток : 4412 Кбит/секДата кодирования : UTC 2015-12-16 19:17:47Программа кодирования : mkvmerge v8.3.0 ('Over the Horizon') 64bitБиблиотека кодирования : libebml v1.3.1 + libmatroska v1.4.2DURATION : 02:03:09.376000000NUMBER_OF_FRAMES : 230918NUMBER_OF_BYTES : 354690048_STATISTICS_WRITING_APP : mkvmerge v8.3.0 ('Over the Horizon') 64bit_STATISTICS_WRITING_DATE_UTC : 2015-12-16 19:17:47_STATISTICS_TAGS : BPS DURATION NUMBER_OF_FRAMES NUMBER_OF_BYTES

ВидеоИдентификатор : 1Формат : AVCФормат/Информация : Advanced Video CodecПрофиль формата : [email protected]Параметр CABAC формата : НетПараметр ReFrames формата : 2 кадраИдентификатор кодека : V_MPEG4/ISO/AVCПродолжительность : 2 ч. 3 м.Битрейт : 3941 Кбит/секШирина : 1280 пикселейВысота : 532 пикселяСоотношение сторон : 2,40:1Режим частоты кадров : ПостоянныйЧастота кадров : 23,976 кадра/секЦветовое пространство : YUVСубдискретизация насыщенности : 4:2:0Битовая глубина : 8 битТип развёртки : ПрогрессивнаяБит/(Пиксели*Кадры) : 0.241Размер потока : 3,39 Гбайт (89%)Язык : EnglishDefault : ДаForced : НетОсновные цвета : BT.709Характеристики трансфера : BT.709Коэффициенты матрицы : BT.709

АудиоИдентификатор : 2Формат : AC-3Формат/Информация : Audio Coding 3Расширение режима : CM (complete main)Параметр Endianness формата : BigИдентификатор кодека : A_AC3Продолжительность : 2 ч. 3 м.Вид битрейта : ПостоянныйБитрейт : 384 Кбит/секКаналы : 6 каналовРасположение каналов : Front: L C R, Side: L R, LFEЧастота : 48,0 КГцБитовая глубина : 16 битМетод сжатия : С потерямиРазмер потока : 338 Мбайт (9%)Язык : RussianDefault : ДаForced : Нет

Меню00:00:00.000 : en:100:05:13.000 : en:200:10:04.000 : en:300:14:49.000 : en:400:23:27.000 : en:500:32:18.000 : en:600:41:42.000 : en:700:46:28.000 : en:800:55:33.000 : en:901:04:32.000 : en:1001:11:11.000 : en:1101:17:34.000 : en:1201:24:30.000 : en:1301:33:39.000 : en:1401:42:14.000 : en:1501:50:21.000 : en:16

piratbit.ru

Скачать фильм Прогулка через торрент в хорошем качестве бесплатно 720p

x264 [info]: frame I:1103 Avg QP:13.92 size:127119x264 [info]: frame P:37385 Avg QP:16.71 size: 62552x264 [info]: frame B:138728 Avg QP:17.88 size: 21177

Format : MatroskaFormat version : Version 4 / Version 2File size : 6.68 GiBDuration : 2h 3mnOverall bit rate : 7 758 KbpsMovie name : Прогулка. (Tonik)Encoded date : UTC 2015-12-18 08:51:51Writing application : mkvmerge v7.1.0 ('Good Love') 64bit built on Jul 27 2014 13:06:55Writing library : libebml v1.3.0 + libmatroska v1.4.1_STATISTICS_WRITING_APP : mkvmerge v7.1.0 ('Good Love') 64bit built on Jul 27 2014 13:06:55_STATISTICS_WRITING_DATE_UTC : 2015-12-18 08:51:51_STATISTICS_TAGS : BPS DURATION NUMBER_OF_FRAMES NUMBER_OF_BYTESDURATION : 02:03:10.848000000NUMBER_OF_FRAMES : 230964NUMBER_OF_BYTES : 354760704

VideoID : 1Format : AVCFormat/Info : Advanced Video CodecFormat profile : [email protected] settings, CABAC : YesFormat settings, ReFrames : 12 framesCodec ID : V_MPEG4/ISO/AVCDuration : 2h 3mnBit rate : 5 711 KbpsWidth : 1 280 pixelsHeight : 534 pixelsDisplay aspect ratio : 2.40:1Frame rate mode : ConstantFrame rate : 23.976 fpsColor space : YUVChroma subsampling : 4:2:0Bit depth : 8 bitsScan type : ProgressiveBits/(Pixel*Frame) : 0.348Stream size : 4.91 GiB (74%)Writing library : x264 core 142 r2431+42 c69a006 tMod [[email protected] X86_64]Encoding settings : cabac=1 / ref=12 / deblock=1:-3:-3 / analyse=0x3:0x133 / me=umh / subme=11 / psy=1 / fade_compensate=0.00 / psy_rd=1.05:1.00 / mixed_ref=1 / me_range=32 / chroma_me=1 / trellis=2 / 8x8dct=1 / cqm=0 / deadzone=21,11 / fast_pskip=0 / chroma_qp_offset=-4 / threads=12 / lookahead_threads=2 / sliced_threads=0 / nr=0 / decimate=0 / interlaced=0 / bluray_compat=0 / constrained_intra=0 / fgo=0 / bframes=8 / b_pyramid=2 / b_adapt=2 / b_bias=0 / direct=3 / weightb=1 / open_gop=0 / weightp=2 / keyint=240 / keyint_min=23 / scenecut=40 / intra_refresh=0 / rc_lookahead=60 / rc=crf / mbtree=0 / crf=16.3000 / qcomp=0.60 / qpmin=0:0:0 / qpmax=69:69:69 / qpstep=4 / vbv_maxrate=40000 / vbv_bufsize=30000 / crf_max=0.0 / nal_hrd=none / filler=0 / ip_ratio=1.40 / pb_ratio=1.30 / aq=1:1.00 / aq-sensitivity=10.00 / aq-factor=1.00:1.00:1.00 / aq2=0 / aq3=0Language : EnglishDefault : YesForced : No

Audio #1ID : 2Format : AC-3Format/Info : Audio Coding 3Mode extension : CM (complete main)Format settings, Endianness : BigCodec ID : A_AC3Duration : 2h 3mnBit rate mode : ConstantBit rate : 384 KbpsChannel(s) : 6 channelsChannel positions : Front: L C R, Side: L R, LFESampling rate : 48.0 KHzBit depth : 16 bitsCompression mode : LossyStream size : 338 MiB (5%)Title : iTunesLanguage : RussianDefault : YesForced : No

Audio #2ID : 3Format : DTSFormat/Info : Digital Theater SystemsMode : 16Format settings, Endianness : BigCodec ID : A_DTSDuration : 2h 3mnBit rate mode : ConstantBit rate : 1 509 KbpsChannel(s) : 6 channelsChannel positions : Front: L C R, Side: L R, LFESampling rate : 48.0 KHzBit depth : 16 bitsCompression mode : LossyStream size : 1.30 GiB (19%)Language : EnglishDefault : NoForced : No

Text #1ID : 4Format : UTF-8Codec ID : S_TEXT/UTF8Codec ID/Info : UTF-8 Plain TextTitle : ForcedLanguage : RussianDefault : YesForced : No

Text #2ID : 5Format : UTF-8Codec ID : S_TEXT/UTF8Codec ID/Info : UTF-8 Plain TextLanguage : RussianDefault : NoForced : No

Text #3ID : 6Format : UTF-8Codec ID : S_TEXT/UTF8Codec ID/Info : UTF-8 Plain TextTitle : ForcedLanguage : EnglishDefault : NoForced : No

Text #4ID : 7Format : UTF-8Codec ID : S_TEXT/UTF8Codec ID/Info : UTF-8 Plain TextLanguage : EnglishDefault : NoForced : No

Menu00:00:00.000 : en:Chapter 0100:05:15.773 : en:Chapter 0200:10:06.147 : en:Chapter 0300:14:51.807 : en:Chapter 0400:23:30.867 : en:Chapter 0500:32:22.148 : en:Chapter 0600:41:46.879 : en:Chapter 0700:46:32.414 : en:Chapter 0800:55:38.460 : en:Chapter 0901:04:37.373 : en:Chapter 1001:11:17.314 : en:Chapter 1101:17:40.405 : en:Chapter 1201:24:37.072 : en:Chapter 1301:33:46.746 : en:Chapter 1401:42:21.927 : en:Chapter 1501:50:29.539 : en:Chapter 16

piratbit.ru

Скачать торрент Прогулка / The Walk (2015) Blu-ray | 3D-Video

Производство: США / ImageMovers, Mel's Cite du Cinema, Sony Pictures Entertainment (SPE)Жанр: триллер, драма, приключения, биография

Режиссер: Роберт ЗемекисПродюсер: Джек Рэпк, Том Ротман, Стив СтаркиАктеры: Джозеф Гордон-Левитт, Бен Кингсли, Стив Валентайн, Шарлотта Ле Бон, Джеймс Бэдж Дэйл, Бен Шварц, Бенедикт Сэмюэл, Мизинга Мвинга, Дэниэл Аррош, Джейсон Делайн

Описание: Вы боитесь высоты? А можете представить себя идущим по натянутому канату на высоте более 400м без всякой страховки? Потоки ветра обдувают вас, а внизу - город и тысячи взволнованных взглядов, устремленных вверх.

История о том, как французский канатоходец Филипп Пети отважился совершить легендарный трюк - пройти без страховки по канату, натянутому между небоскребами в Нью-Йорке.

Рейтинг MPAA: PG - рекомендуется присутствие родителейДата мировой премьеры: 26 сентября 2015Дата российской премьеры: 15 октября 2015, «WDSSPR» 3DДата выхода DVD релиза: 14 января 2016, «CP Дистрибуция»

Релиз от: hdclubПродолжительность: 02:03:11Качество: Blu-ray 3DПеревод: Профессиональный (полное дублирование) (Лицензия BD CEE)Вид субтитров: вшитые, отключаемыеЯзык субтитров: Русский, английский, арабский, болгарский, чешский, эстонский, греческий, иврий, венгерский, исландский, латышский, литовский, польский, португальский, румынский, сербский, словацкий, словенский, турецкий, хорватский

Видео: MPEG-4 AVC/H.264, 1920x1080p, (16:9), ~22975 kbps, 23.976 fps, MPEG-4 MVC/H.264, ~11652 kbpsАудио: AC3, 6 ch, 640 kbps - РусскийАудио: AC3, 6 ch, 640 kbps - ЧешскийАудио: AC3, 6 ch, 640 kbps - ВенгерскийАудио: AC3, 6 ch, 640 kbps - ПольскийАудио: AC3, 6 ch, 448 kbps - ТурецкийАудио: DTS-HD MA, 6 ch, 2163 kbps - Английский

BDInfo:

DISC INFO:

Disc Title: THE_WALK_3D Disc Size: 44 149 776 573 bytes Protection: AACS BD-Java: Yes Extras: Blu-ray 3D BDInfo: 0.5.8

PLAYLIST REPORT:

Name: 00001.MPLS Length: 2:03:11.384 (h:m:s.ms) Size: 40 049 344 512 bytes Total Bitrate: 43,35 Mbps

VIDEO:

Codec Bitrate Deion ----- ------- ----------- MPEG-4 AVC Video 22975 kbps 1080p / 23,976 fps / 16:9 / High Profile 4.1 MPEG-4 MVC Video 11652 kbps

AUDIO:

Codec Language Bitrate Deion ----- -------- ------- ----------- DTS-HD Master Audio English 2163 kbps 5.1 / 48 kHz / 2163 kbps / 16-bit (DTS Core: 5.1 / 48 kHz / 1509 kbps / 16-bit) Dolby Digital Audio Czech 640 kbps 5.1 / 48 kHz / 640 kbps Dolby Digital Audio Hungarian 640 kbps 5.1 / 48 kHz / 640 kbps Dolby Digital Audio Polish 640 kbps 5.1 / 48 kHz / 640 kbps Dolby Digital Audio Russian 640 kbps 5.1 / 48 kHz / 640 kbps Dolby Digital Audio Turkish 448 kbps 5.1 / 48 kHz / 448 kbps

SUBTITLES:

Codec Language Bitrate Deion ----- -------- ------- ----------- Presentation Graphics English 31,713 kbps Presentation Graphics Arabic 15,819 kbps Presentation Graphics Bulgarian 28,399 kbps Presentation Graphics Croatian 23,249 kbps Presentation Graphics Czech 28,812 kbps Presentation Graphics Estonian 23,376 kbps Presentation Graphics Greek 33,390 kbps Presentation Graphics Hebrew 21,768 kbps Presentation Graphics Hungarian 30,034 kbps Presentation Graphics Icelandic 30,373 kbps Presentation Graphics Latvian 23,234 kbps Presentation Graphics Lithuanian 29,754 kbps Presentation Graphics Polish 24,676 kbps Presentation Graphics Portuguese 29,003 kbps Presentation Graphics Romanian 28,717 kbps Presentation Graphics Russian 31,728 kbps Presentation Graphics Serbian 27,001 kbps Presentation Graphics Slovak 23,983 kbps Presentation Graphics Slovenian 23,427 kbps Presentation Graphics Turkish 32,485 kbps

FILES:

Name Time In Length Size Total Bitrate ---- ------- ------ ---- ------------- 00001.SSIF 0:00:00.000 2:03:11.384 40 049 344 512 43 347

Скриншоты: Время раздачи: 24/7

krutor.org


Смотрите также