Притворись моим парнем скачать торрент в хорошем качестве


Притворись моим парнем 2013 - скачать бесплатно через торрент в хорошем качестве. Без регистрации

www.kinovit.net

Название: Притворись моим парнем / 20 ans d'ecart (2013) BDRip-AVC от New-Team | iTunes
Качество видео: BDRip-AVC [Исходник BDRemux 1080p]
Перевод: Профессиональный (полное дублирование) iTunes Russia
Формат видео: MKV
Видео: H.264 744x312 (2.35:1), 24.000 fps, h364 ~ 1 059 Kbps, 0.190 bit/pixel
Аудио: AAC 48 KHz / 24 KHz, AAC HE-AAC / LC, 2/0 (L,R) ch, ~64 kbps
Скачать

Загрузка начнется в течение 5 сек.

744.20 MB

Название: Притворись моим парнем / 20 ans d'ecart (2013) BDRip-AVC от leonardo 59 & Scarabey | iTunes Russia
Качество видео: BDRip-AVC Исходник: Blu-ray
Перевод: Профессиональный (полное дублирование) iTunes Russia
Формат видео: MKV Видео кодек: MPEG-4 AVC Аудио кодек: AC3
Видео: AVC, 1024x428 (2.40:1) at 24.000 fps, AVC at 3537 kbps avg, 0.336 bit/pixel
Аудио: 48 kHz, AC3 Dolby Digital, 3/2 (L,C,R,l,r) + LFE ch, 384.00 kbps - Russian
Скачать

Загрузка начнется в течение 5 сек.

2.59 GB

Название: Притворись моим парнем / 20 ans d'ecart (2013) BDRip-AVC | iTunes Russia
Качество видео: BDRip-AVC [Рип с BDRemux]
Перевод: Дублированное [iTunes Russia]
Формат видео: MKV
Видео: 1865 Kb/s, 1024x432
Аудио: AC3, 384 kb/s (6 ch)
Скачать

Загрузка начнется в течение 5 сек.

1.45 GB

Название: Притворись моим парнем / 20 ans d'ecart (2013) HDRip от Youtracker | iTunes
Качество видео: HDRip [BDRip 1080p]
Перевод: Профессиональный (полное дублирование) [iTunes Russia]
Формат видео: AVI
Видео: XviD 720x304 (2.37:1), 24.000 fps, XviD build 73 ~1865 kbps avg, 0.35 bit/pixel
Аудио: AC3 48 kHz, AC3 Dolby Digital, 3/2 (L,C,R,l,r) + LFE ch, ~384.00 kbps avg
Скачать

Загрузка начнется в течение 5 сек.

1.46 GB

Название: Притворись моим парнем / 20 ans d'ecart (2013) HDRip от Scarabey | iTunes Russia
Качество видео: HDRip
Перевод: Дубляж [iTunes Russia]
Формат видео: AVI
Видео: 688x288 (2.39:1), 24 fps, XviD build 73 ~984 kbps avg, 0.21 bit/pixel
Аудио: 48 kHz, MPEG Layer 3, 2 ch, ~128.00 kbps avg
Скачать

Загрузка начнется в течение 5 сек.

743.24 MB

Название: Притворись моим парнем / 20 ans d'ecart (2013) HDRip от Scarabey | iTunes Russia
Качество видео: HDRip
Перевод: Дубляж [iTunes Russia]
Формат видео: AVI
Видео: 720x304 (2.37:1), 24 fps, XviD build 73 ~1778 kbps avg, 0.34 bit/pixel
Аудио: 48 kHz, AC3 Dolby Digital, 3/2 (L,C,R,l,r) + LFE ch, ~384.00 kbps avg
Скачать

Загрузка начнется в течение 5 сек.

1.40 GB

Название: Притворись моим парнем / 20 ans d'ecart (2013) HDRip от INTERCINEMA | iTunes Russia
Качество видео: HDRip [рип с BDRip 720p]
Перевод: Дублированное [iTunes Russia]
Формат видео: AVI (XviD)
Видео: 1720 kb/s, 720x304
Аудио: AC3, 384 kb/s (6 ch)
Скачать

Загрузка начнется в течение 5 сек.

1.37 GB

Название: Притворись моим парнем / 20 ans d'ecart (2013) BDRip 720p | iTunes Russia
Качество видео: BDRip 720p
Перевод: Дублированное [iTunes Russia]
Формат видео: MKV
Видео: 5245 Kb/s, 1280x536
Аудио: Russian: AC3, 384 kb/s (6 ch) / French: DTS, 1510 kb/s (6 ch)
Скачать

Загрузка начнется в течение 5 сек.

4.62 GB

Название: Притворись моим парнем / 20 ans d'ecart (2013) BDRip 720p | Звук с TS
Качество видео: BDRip 720p
Перевод: Дублированное [звук с TS]
Формат видео: MKV (H.264)
Видео: 5245 Kb/s, 1280x536
Аудио: Russian: MP3, 192 kb/s (2 ch) / French: DTS, 1510 kb/s (6 ch)
Скачать

Загрузка начнется в течение 5 сек.

4.49 GB

Название: Притворись моим парнем / 20 ans d'ecart (2013) HDRip | Звук с TS
Качество видео: HDRip [рип с BDRip 720p]
Перевод: Дублированное [звук с TS]
Формат видео: AVI (XviD)
Видео: 1909 kb/s, 720x304
Аудио: MP3, 192 kb/s (2 ch)
Скачать

Загрузка начнется в течение 5 сек.

1.36 GB

Притворись моим парнем через торрент

ОбщееУникальный идентификатор : 233584295093091373947601168433486772970 (0xAFBAB2E78F8E7FD08860DF4B29343AEA)Полное имя : Pritvoris'.Moim.Parnem.2013.DUAL.BDRip.x264.-HELLYWOOD.mkvФормат : MatroskaВерсия формата : Version 4 / Version 2Размер файла : 2,14 ГбайтПродолжительность : 1 ч. 32 м.Общий поток : 3307 Кбит/секНазвание фильма : HELLYWOOD - rip by potroksДата кодирования : UTC 2013-09-27 12:50:30Программа кодирования : mkvmerge v5.9.0 ('On The Loose') built on Dec 15 2012 16:39:58Библиотека кодирования : libebml v1.3.0 + libmatroska v1.4.0

ВидеоИдентификатор : 1Формат : AVCФормат/Информация : Advanced Video CodecПрофиль формата : [email protected]Параметр CABAC формата : ДаПараметр ReFrames формата : 10 кадровИдентификатор кодека : V_MPEG4/ISO/AVCПродолжительность : 1 ч. 32 м.Битрейт : 2482 Кбит/секШирина : 1032 пикселяВысота : 432 пикселяСоотношение сторон : 2,40:1Режим частоты кадров : ПостоянныйЧастота кадров : 24,000 кадра/секЦветовое пространство : YUVСубдискретизация насыщенности : 4:2:0Битовая глубина : 8 битТип развёртки : ПрогрессивнаяБит/(Пиксели*Кадры) : 0.232Размер потока : 1,56 Гбайт (73%)Заголовок : 20 ans d'ecartБиблиотека кодирования : x264 core 130 r2273 b3065e6Настройки программы : cabac=1 / ref=10 / deblock=1:-2:-1 / analyse=0x3:0x133 / me=umh / subme=11 / psy=1 / psy_rd=1.13:0.06 / mixed_ref=1 / me_range=48 / chroma_me=1 / trellis=2 / 8x8dct=1 / cqm=0 / deadzone=21,11 / fast_pskip=0 / chroma_qp_offset=-3 / threads=8 / lookahead_threads=2 / sliced_threads=0 / nr=0 / decimate=0 / interlaced=0 / bluray_compat=0 / constrained_intra=0 / bframes=11 / b_pyramid=2 / b_adapt=2 / b_bias=0 / direct=3 / weightb=1 / open_gop=0 / weightp=2 / keyint=250 / keyint_min=23 / scenecut=40 / intra_refresh=0 / rc_lookahead=60 / rc=2pass / mbtree=0 / bitrate=2482 / ratetol=1.0 / qcomp=0.70 / qpmin=0 / qpmax=69 / qpstep=4 / cplxblur=20.0 / qblur=0.5 / vbv_maxrate=20000 / vbv_bufsize=20000 / nal_hrd=none / ip_ratio=1.35 / pb_ratio=1.25 / aq=1:0.70Язык : EnglishDefault : ДаForced : Нет

Аудио #1Идентификатор : 2Формат : AC-3Формат/Информация : Audio Coding 3Расширение режима : CM (complete main)Параметр Endianness формата : BigИдентификатор кодека : A_AC3Продолжительность : 1 ч. 32 м.Вид битрейта : ПостоянныйБитрейт : 384 Кбит/секКаналы : 6 каналовРасположение каналов : Front: L C R, Side: L R, LFEЧастота : 48,0 КГцБитовая глубина : 16 битМетод сжатия : С потерямиРазмер потока : 254 Мбайт (12%)Заголовок : Dub | DD 5.1 @ 384 kbps - iTunes RussiaЯзык : RussianDefault : ДаForced : Да

Аудио #2Идентификатор : 3Формат : AC-3Формат/Информация : Audio Coding 3Расширение режима : CM (complete main)Параметр Endianness формата : BigИдентификатор кодека : A_AC3Продолжительность : 1 ч. 32 м.Вид битрейта : ПостоянныйБитрейт : 448 Кбит/секКаналы : 6 каналовРасположение каналов : Front: L C R, Side: L R, LFEЧастота : 48,0 КГцБитовая глубина : 16 битМетод сжатия : С потерямиРазмер потока : 297 Мбайт (14%)Заголовок : Original | DD 5.1 @ 448 kbpsЯзык : EnglishDefault : НетForced : Нет

Меню00:00:00.000 : :(безымянный)00:03:35.000 : fr:00:08:26.000 : fr:00:12:27.000 : fr:00:17:39.000 : fr:00:21:25.000 : fr:00:24:30.000 : fr:00:28:12.000 : fr:00:34:47.000 : fr:00:37:50.000 : fr:00:43:22.000 : fr:00:49:00.000 : fr:00:54:05.000 : fr:00:57:11.000 : fr:01:01:12.000 : fr:01:06:20.000 : fr:01:09:57.000 : fr:01:14:17.000 : fr:01:20:02.000 : fr:01:27:15.000 : fr:

piratbit.ru

Скачать фильм Притворись моим парнем (2012) через торрент

gig-torrent.net

4 февраля 2016 12:01 Притворись моим парнем / 20 ans dcart (2013) HDRip от MediaClub | КПК .torrent   [Информация о файле (нажмите для просмотра)] Перевод: ДублированныйКодек: MPEG-4Качество: HDRipВидео: 500 Кбит/с, 320x128, 24.000 кадр/сЗвук: Русский (AAC, 2 ch, 128 Кбит/с) 415,87 Mb 8 4
4 февраля 2016 12:01 Притворись моим парнем / 20 ans decart (2013) BDRip-AVC от New-Team | iTunes .torrent   [Информация о файле (нажмите для просмотра)] Перевод: Профессиональный (полное дублирование) iTunes RussiaСубтитры: нетКачество: BDRip-AVC [Исходник BDRemux 1080p]Формат: MKVВидео: 744x312 (2.35:1), 24.000 fps, h364 ~ 1 059 Kbps, 0.190 bit/pixelАудио: 48 KHz / 24 KHz, AAC HE-AAC / LC, 2/0 (L,R) ch, ~64 kbps 744,2 Mb 18 1
4 февраля 2016 12:01 Притворись моим парнем / 20 ans dcart (2013) BDRip от HQCLUB .torrent   [Информация о файле (нажмите для просмотра)] Перевод: Профессиональный (полное дублирование) iTunes Russia +Оригинальная французская звуковая дорожкаСубтитры: нетФормат: AVIКачество: BDRip (источник: Kinozal-TV /BD-Remux / 1080p)Видео: 720x304 (2.37:1), 24 fps, XviD build 65 ~1849 kbps avg, 0.35 bit/pixelАудио #1: 48 kHz, AC3 Dolby Digital, 3/2 (L,C,R,l,r) + LFE ch, ~384.00 kbps avgАудио #2: 48 kHz, AC3 Dolby Digital, 3/2 (L,C,R,l,r) + LFE ch, ~384.00 kbps avg(отдельно, http) 1,45 Gb 247 7
4 февраля 2016 12:01 Притворись моим парнем / 20 ans dcart (2013) HDRip от -=HD-NET=- | КПК | iTunes Russia .torrent   [Информация о файле (нажмите для просмотра)] Перевод: Профессиональный (полное дублирование) iTunes RussiaКодек: x264Качество: HDRip | КПКВидео: MPEG-4, 480 х 200, 23,976 fps, 397 Кбит/сЗвук: ААС LC, 2 ch, 128 Кбит/с 349,36 Mb 8 4
4 февраля 2016 12:01 Притворись моим парнем / 20 ans decart (2013) BDRip-AVC от Leonardo and Scarabey | iTunes Russia .torrent   [Информация о файле (нажмите для просмотра)] Перевод: Профессиональный (полное дублирование) iTunes RussiaФормат: MKVВидео кодек: MPEG-4 AVC Аудио кодек: AC3Видео: AVC, 1024x428 (2.40:1) at 24.000 fps, AVC at 3537 kbps avg, 0.336 bit/pixelАудио: 48 kHz, AC3 Dolby Digital, 3/2 (L,C,R,l,r) + LFE ch, 384.00 kbps - Russian 2,59 Gb 39 7
4 февраля 2016 12:01 Притворись моим парнем / 20 ans dcart (2013) BDRip 1080p от Killbrain .torrent   [Информация о файле (нажмите для просмотра)] Перевод: русский профессиональный (полное дублирование)[Лицензия, iTunes]Контейнер: MKVВидео: AVC / / 2 pass / 24,000 fps / 1920x804p (2,40:1) / 15,5 Mbps / 0.418Аудио 1: AC3 / 5.1 ch / 384 kbps / Русский дубляж, iTunesАудио 2: AC3 / 5.1 ch / 640 kbps / Французский original, BD FREСубтитры: [PGS]Видео: Идентификатор : 1 Формат : AVC Формат/Информация : Advanced Video Codec Профиль формата : [email protected] Параметр CABAC формата : Да Параметр ReFrames формата : 4 кадра Идентификатор кодека : V_MPEG4/ISO/AVC Продолжительность : 1 ч. 32 м. Битрейт : 15,5 Мбит/сек Ширина : 1920 пикселей Высота : 804 пикселя Соотношение сторон : 2,40:1 Режим частоты кадров : Постоянный Частота кадров : 24,000 кадра/сек Цветовое пространство : YUV Субдискретизация насыщенности : 4:2:0 Битовая глубина : 8 бит Тип развёртки : Прогрессивная Бит/(Пиксели*Кадры) : 0.418 Размер потока : 9,81 Гбайт (92%) Заголовок : 20 ans d'?cart (2013) Библиотека кодирования : x264 core 138 r2358 9e941d1 Настройки программы : cabac=1 / ref=4 / deblock=1:-3:-3 / analyse=0x3:0x113 / me=umh / subme=10 / psy=1 / psy_rd=1.00:0.15 / mixed_ref=1 / me_range=32 / chroma_me=1 / trellis=2 / 8x8dct=1 / cqm=0 / deadzone=21,11 / fast_pskip=0 / chroma_qp_offset=-3 / threads=3 / lookahead_threads=1 / sliced_threads=0 / nr=0 / decimate=0 / interlaced=0 / bluray_compat=0 / constrained_intra=0 / bframes=8 / b_pyramid=2 / b_adapt=2 / b_bias=0 / direct=3 / weightb=1 / open_gop=0 / weightp=2 / keyint=240 / keyint_min=24 / scenecut=40 / intra_refresh=0 / rc_lookahead=60 / rc=2pass / mbtree=0 / bitrate=15500 / ratetol=1.0 / qcomp=0.65 / qpmin=0 / qpmax=69 / qpstep=4 / cplxblur=20.0 / qblur=0.5 / vbv_maxrate=40000 / vbv_bufsize=30000 / nal_hrd=none / ip_ratio=1.40 / pb_ratio=1.30 / aq=1:0.80 Язык : French Default : Да Forced : НетАудио #1: Идентификатор : 2 Формат : AC-3 Формат/Информация : Audio Coding 3 Расширение режима : CM (complete main) Параметр Endianness формата : Big Идентификатор кодека : A_AC3 Продолжительность : 1 ч. 32 м. Вид битрейта : Постоянный Битрейт : 384 Кбит/сек Каналы : 6 каналов Расположение каналов : Front: L C R, Side: L R, LFE Частота : 48,0 КГц Битовая глубина : 16 бит Метод сжатия : С потерями Размер потока : 254 Мбайт (2%) Заголовок : AC3 / 5.1 ch / 384 kbps / Русский Дубляж, iTunes Язык : Russian Default : Да Forced : НетАудио #2: Идентификатор : 3 Формат : AC-3 Формат/Информация : Audio Coding 3 Расширение режима : CM (complete main) Параметр Endianness формата : Big Идентификатор кодека : A_AC3 Продолжительность : 1 ч. 32 м. Вид битрейта : Постоянный Битрейт : 640 Кбит/сек Каналы : 6 каналов Расположение каналов : Front: L C R, Side: L R, LFE Частота : 48,0 КГц Битовая глубина : 16 бит Метод сжатия : С потерями Размер потока : 424 Мбайт (4%) Заголовок : AC3 / 5.1 ch / 640 kbps / Французский Original, BD FRE Язык : French Default : Нет Forced : Нет 10,68 Gb 11 8
4 февраля 2016 12:01 Притворись моим парнем / 20 ans dcart (2013) BDRip-AVC от HELLYWOOD | iTunes Russia .torrent   [Информация о файле (нажмите для просмотра)] Перевод: Профессиональный (полное дублирование) iTunes Russia Качество: BDRip-AVC [Byzantium.2012.1080p.BluRay.AVC.DTS-HD.MA.5.1-PublicHD]Формат: MKVВидео: х.264, 1032x432 (2,40:1), 24,000 fps, 2482 Кbps, 0.232 bit/pixelАудио#1: 48 kHz, AC3 Dolby Digital, 3/2 (L,C,R,l,r) + LFE ch, 384.00 kbps |RUSАудио#2: 48 kHz, AC3 Dolby Digital, 3/2 (L,C,R,l,r) + LFE ch, 448.00 kbps |FRE 2,14 Gb 35 4
4 февраля 2016 12:01 Притворись моим парнем / 20 ans decart (2013) BDRip 720p от Leonardo and Scarabey | iTunes Russia .torrent   [Информация о файле (нажмите для просмотра)] Перевод: Профессиональный (полное дублирование) iTunes RussiaФормат: MKVВидео кодек: MPEG-4 AVC Аудио кодек: AC3Видео: AVC, 1280x536 (2.40:1) at 24.000 fps, AVC at 5580 kbps avg, 0.352 bit/pixelАудио: 48 kHz, AC3 Dolby Digital, 3/2 (L,C,R,l,r) + LFE ch, 384.00 kbps - Russian 3,94 Gb 60 10
4 февраля 2016 12:01 Притворись моим парнем / 20 ans decart (2013) BDRip-AVC | iTunes Russia .torrent   [Информация о файле (нажмите для просмотра)] Формат: MKVКачество: BDRip-AVC [Рип с BDRemux]Видео: 1865 Kb/s, 1024x432Аудио: AC3, 384 kb/s (6 ch) 1,45 Gb 14 2
4 февраля 2016 12:01 Притворись моим парнем / 20 ans decart (2013) HDRip от New-team | iTunes .torrent   [Информация о файле (нажмите для просмотра)] Перевод: Профессиональный (полное дублирование) [iTunes Russia]Субтитры: нетКачество: HDRip [BDRip 1080p]Формат: AVIВидео: 720x304 (2.37:1), 24.000 fps, XviD build 73 ~1865 kbps avg, 0.35 bit/pixelАудио: 48 kHz, AC3 Dolby Digital, 3/2 (L,C,R,l,r) + LFE ch, ~384.00 kbps avg 1,46 Gb 8 4
4 февраля 2016 12:01 Притворись моим парнем / 20 ans decart (2013) Blu-Ray Remux 1080p | D .torrent   [Информация о файле (нажмите для просмотра)] Перевод: ДублированныйКачество: Blu-Ray Remux 1080pВидео: MPEG-4 AVC, 31105 Кбит/с, 1920x1080Видео: Идентификатор : 1 Формат : AVC Формат/Информация : Advanced Video Codec Профиль формата : [email protected] Параметр CABAC формата : Да Параметр ReFrames формата : 4 кадра Параметр GOP формата : M=3, N=24 Идентификатор кодека : V_MPEG4/ISO/AVC Продолжительность : 1 ч. 32 м. Вид битрейта : Переменный Максимальный битрейт : 35,0 Мбит/сек Ширина : 1920 пикселей Высота : 1080 пикселей Соотношение сторон : 16:9 Режим частоты кадров : Постоянный Частота кадров : 24,000 кадра/сек Стандарт вещания : NTSC Цветовое пространство : YUV Субдискретизация насыщенности : 4:2:0 Битовая глубина : 8 бит Тип развёртки : Прогрессивная Язык : English Default : Нет Forced : Нет Основные цвета : BT.709 Характеристики трансфера : BT.709 Коэффициенты матрицы : BT.709Аудио #1: Идентификатор : 2 Формат : AC-3 Формат/Информация : Audio Coding 3 Расширение режима : CM (complete main) Параметр Endianness формата : Big Идентификатор кодека : A_AC3 Продолжительность : 1 ч. 32 м. Вид битрейта : Постоянный Битрейт : 384 Кбит/сек Каналы : 6 каналов Расположение каналов : Front: L C R, Side: L R, LFE Частота : 48,0 КГц Битовая глубина : 16 бит Метод сжатия : С потерями Размер потока : 254 Мбайт (1%) Язык : Russian Default : Да Forced : НетАудио #2: Идентификатор : 3 Формат : DTS Формат/Информация : Digital Theater Systems Профиль формата : MA / Core Режим : 16 Параметр Endianness формата : Big Идентификатор кодека : A_DTS Продолжительность : 1 ч. 32 м. Вид битрейта : Переменный Битрейт : Неизвестно / 1509 Кбит/сек Каналы : 6 каналов Расположение каналов : Front: L C R, Side: L R, LFE Частота : 48,0 КГц Битовая глубина : 24 бит Метод сжатия : Без потерь / Lossy Заголовок : DTS-HD.MA.3643.kbps (6ch) French Lossless Язык : French Default : Нет Forced : Нет 22,73 Gb 6 8
4 февраля 2016 12:01 Притворись моим парнем / 20 ans decart (2013) HDRip от Scarabey | iTunes Russia .torrent   [Информация о файле (нажмите для просмотра)] Перевод: Дубляж [iTunes Russia]Субтитры: нетКачество: HDRipФормат: AVIВидео: 720x304 (2.37:1), 24 fps, XviD build 73 ~1778 kbps avg, 0.34 bit/pixelАудио: 48 kHz, AC3 Dolby Digital, 3/2 (L,C,R,l,r) + LFE ch, ~384.00 kbps avg 1,4 Gb 66 13
4 февраля 2016 12:01 Притворись моим парнем / 20 ans decart (2013) HDRip от Scarabey | iTunes Russia .torrent   [Информация о файле (нажмите для просмотра)] Перевод: Дубляж [iTunes Russia]Субтитры: нетКачество: HDRipФормат: AVIВидео: 688x288 (2.39:1), 24 fps, XviD build 73 ~984 kbps avg, 0.21 bit/pixelАудио: 48 kHz, MPEG Layer 3, 2 ch, ~128.00 kbps avg 743,24 Mb 10 3
4 февраля 2016 12:01 Притворись моим парнем / 20 ans decart (2013) BDRip 720p | iTunes Russia .torrent   [Информация о файле (нажмите для просмотра)] Формат: MKVКачество: BDRip 720pВидео: 5245 Kb/s, 1280x536Аудио: Russian: AC3, 384 kb/s (6 ch) / French: DTS, 1510 kb/s (6 ch) 4,62 Gb 32 3
4 февраля 2016 12:01 Притворись моим парнем / 20 ans decart (2013) BDRip 1080p | iTunes Russia .torrent   [Информация о файле (нажмите для просмотра)] Качество: BDRip (1080p)Видео: MPEG-4 AVC, 8627 Кбит/с, 1920x808Аудио: Русский (AC3, 6 ch, 384 Кбит/с), французский (DTS, 6 ch, 1510 Кбит/с)Перевод: Дублированный [iTunes Russia] 6,8 Gb 35 5
4 февраля 2016 12:01 Притворись моим парнем / 20 ans decart (2013) HDRip от INTERCINEMA | iTunes Russia .torrent   [Информация о файле (нажмите для просмотра)] Формат: AVI (XviD)Качество: HDRip [рип с BDRip 720p]Видео: 1720 kb/s, 720x304Аудио: AC3, 384 kb/s (6 ch) 1,37 Gb 221 12

Притворись моим парнем через торрент

GeneralUnique ID : 172160463100451345208296544909695323539 (0x8184E62C3C2C43068F6459BE3C370D93)Complete name : D:ТорентыPritvoris.moim.parnem.2013.D.BDRip.1080p.mkvFormat : MatroskaFormat version : Version 4 / Version 2File size : 6.80 GiBDuration : 1h 32mnOverall bit rate : 10.5 MbpsEncoded date : UTC 2013-09-23 19:20:42Writing application : mkvmerge v6.3.0 ('You can't stop me!') built on Jun 28 2013 20:09:41Writing library : libebml v1.3.0 + libmatroska v1.4.0

VideoID : 1Format : AVCFormat/Info : Advanced Video CodecFormat profile : [email protected] settings, CABAC : YesFormat settings, ReFrames : 5 framesCodec ID : V_MPEG4/ISO/AVCDuration : 1h 32mnBit rate : 8 627 KbpsWidth : 1 920 pixelsHeight : 808 pixelsDisplay aspect ratio : 2.40:1Frame rate : 24.000 fpsColor space : YUVChroma subsampling : 4:2:0Bit depth : 8 bitsScan type : ProgressiveBits/(Pixel*Frame) : 0.232Stream size : 5.44 GiB (80%)Writing library : x264 core 133 r2334 a3ac64bEncoding settings : cabac=1 / ref=5 / deblock=1:0:0 / analyse=0x3:0x113 / me=umh / subme=8 / psy=1 / psy_rd=1.00:0.00 / mixed_ref=1 / me_range=16 / chroma_me=1 / trellis=1 / 8x8dct=1 / cqm=0 / deadzone=21,11 / fast_pskip=1 / chroma_qp_offset=-2 / threads=12 / lookahead_threads=2 / sliced_threads=0 / nr=0 / decimate=1 / interlaced=0 / bluray_compat=0 / constrained_intra=0 / bframes=3 / b_pyramid=2 / b_adapt=2 / b_bias=0 / direct=3 / weightb=1 / open_gop=0 / weightp=2 / keyint=240 / keyint_min=24 / scenecut=40 / intra_refresh=0 / rc_lookahead=50 / rc=2pass / mbtree=1 / bitrate=8627 / ratetol=1.0 / qcomp=0.60 / qpmin=0 / qpmax=69 / qpstep=4 / cplxblur=20.0 / qblur=0.5 / ip_ratio=1.40 / aq=1:1.00Language : EnglishDefault : YesForced : Yes

Audio #1ID : 2Format : AC-3Format/Info : Audio Coding 3Mode extension : CM (complete main)Codec ID : A_AC3Duration : 1h 32mnBit rate mode : ConstantBit rate : 384 KbpsChannel(s) : 6 channelsChannel positions : Front: L C R, Side: L R, LFESampling rate : 48.0 KHzBit depth : 16 bitsCompression mode : LossyStream size : 254 MiB (4%)Title : DD 5.1 @ 384 kbps - Dub, iTunesLanguage : RussianDefault : YesForced : Yes

Audio #2ID : 3Format : DTSFormat/Info : Digital Theater SystemsCodec ID : A_DTSDuration : 1h 32mnBit rate mode : ConstantBit rate : 1 510 KbpsChannel(s) : 6 channelsChannel positions : Front: L C R, Side: L R, LFESampling rate : 48.0 KHzBit depth : 24 bitsCompression mode : LossyStream size : 1 000 MiB (14%)Language : FrenchDefault : NoForced : No

Menu00:00:00.000 : en:00:00:00.00000:07:29.625 : en:00:07:29.62500:13:56.083 : en:00:13:56.08300:21:12.625 : en:00:21:12.62500:28:49.917 : en:00:28:49.91700:37:18.875 : en:00:37:18.87500:45:08.958 : en:00:45:08.95800:53:21.583 : en:00:53:21.58301:02:53.875 : en:01:02:53.87501:11:13.917 : en:01:11:13.91701:19:59.000 : en:01:19:59.00001:26:44.875 : en:01:26:44.875

piratbit.ru

Притворись моим парнем / 20 ans d'écart (фильм, 2013) скачать торрент - Фильм Притворись моим парнем

hotkit.ru

Коротко о фильме "Притворись моим парнем" - У редактора модного глянцевого журнала Алисы Лантенс безупречный вкус, отличное резюме и репутация «железной леди». Но однажды начальство намекает, что возглавлять молодежное издание должен кто-то более смелый и провокативный. Решение приходит неожиданно: по нелепой случайности по миру шоу-бизнеса разносится слух о ее романе с 18-летним студентом. Оказывается, что подмоченная репутация - именно то, что нужно для продвижения по карьерной лестнице! Но куда деваться от парня, который и вправду влюбился?

Притворись моим парнем

20 ans d'écart
Фильм выпущен: 2013
Страна (кинокомпания): Франция
Pежиссер: Давид Моро
Сценарий фильма: Амро Хамзави, Давид Моро
Продюсер фильма: Кристофер Ламберт, Абель Намиас
Оператор: Лорен Танги
Композитор: Гийом Пассел
Художники: Жан Рабасс, Изабель Паннетье
Монтаж: Сирил Беснард
Жанр фильма: комедия
Премьера (мир): 19 января 2013
премьера (Pоссия): 8 августа 2013, Вольга
продолжительность92 мин
В главных ролях:
Женна Азулай
Камиль Пелисье
Микаэль Абитбуль
Камила Джепи
Амели Гленн
Жиль Коэн
Шарль Берлинг
Пьер Нини
Вирджиния Эфира
и другие ...

Трейлер фильма:

 

Скачать фильм Притворись моим парнем / 20 ans d'écart - новинка кино 2013

В фильме "Притворись моим парнем" - что может быть лучше подмоченной репутации редактора глянцевого журнала, но куда девать влюбившегося парня

--> Всего 10

Параметры: 01.10.2013 BDRip-AVC от Leonardo and Scarabey | iTunes Russia, 2,59 Гб

Формат: BDRip-AVC Исходник: Blu-ray,, размер файла: 2,59 ГбВидео: 1024x428, AVC - AVC at 3537 Кбит/сАудио: Русский: AC3, 6 каналов, 384 Кбит/сПеревод (озвучивание): Профессиональный (полное дублирование) iTunes Russia

Параметры: 26.09.2013 BDRip 720p от Leonardo and Scarabey | iTunes Russia, 3,94 Гб

Формат: BDRip 720p Исходник: Blu-ray,, размер файла: 3,94 ГбВидео: 1280x536, AVC - AVC at 5580 Кбит/сАудио: Русский: AC3, 6 каналов, 384 Кбит/сПеревод (озвучивание): Профессиональный (полное дублирование) iTunes Russia

Параметры: 23.09.2013 HDRip от Scarabey | iTunes Russia, 1,40 Гб

Формат: HDRip, AVI, XviD, AC3, размер файла: 1,40 ГбВидео: 720x304, XviD - build 73 ~1778 Кбит/сАудио: AC3, 6 каналов, 384 Кбит/сПеревод (озвучивание): Дубляж [iTunes Russia]

Параметры: 22.09.2013 HDRip от INTERCINEMA | iTunes Russia, 1,37 Гб

Формат: HDRip [рип с BDRip 720p], AVI, XviD, AC3, размер файла: 1,37 ГбВидео: 720x304, XviD - 1720 Кбит/сАудио: AC3, 6 каналов, 384 Кбит/сПеревод (озвучивание): Дублированное [iTunes Russia]

Параметры: 22.09.2013 BDRip 1080p | iTunes Russia, 6,80 Гб

Формат: BDRip (1080p), MKV, AVC, размер файла: 6,80 ГбВидео: 1920x808, AVC - 8627 Кбит/сАудио: Русский / Французский: AC3, 6 каналов, 384 Кбит/сПеревод (озвучивание): Дублированный [iTunes Russia]

Параметры:

Формат: HDRip, AVI, MPEG Layer 3, размер файла: 744 МбВидео: 688x288, XviD - build 73 ~984 Кбит/сАудио: MPEG Layer 3, 2 канала, ~128 Кбит/сПеревод (озвучивание): Дубляж [iTunes Russia]

Параметры:

Формат: HDRip [BDRip 1080p], AVI, AC3,, размер файла: 1,46 ГбВидео: 720x304, AC3 - build 73 ~1865 Кбит/сАудио: AC3, 6 каналов, ~384 Кбит/сПеревод (озвучивание): Профессиональный (полное дублирование) [iTunes Russia]

Параметры:

Формат: , размер файла: Видео: 688x288, XviD - build 73 ~984 Кбит/сАудио: MPEG Layer 3, 2 канала, ~128 Кбит/сПеревод (озвучивание): Дубляж [iTunes Russia]

Параметры:

Формат: BDRip 720p, MKV, AC3, размер файла: Видео: 1280x536, - 5245 Кбит/сАудио: Русский: AC3, 6 каналов, 384 Кбит/с::French: DTS, 6 каналов, 1510 Кбит/сПеревод (озвучивание): Дублированное [iTunes Russia]

Параметры:

Формат: , размер файла: Видео: 720x304, XviD - 1720 Кбит/сАудио: AC3, 6 каналов, 384 Кбит/сПеревод (озвучивание): Дублированное [iTunes Russia]

Смотрите фильм онлайн:

 


Смотрите также