Песнь моря скачать через торрент бесплатно в хорошем качестве


Скачать торрент Песнь моря / Song of the Sea (2014) BDRip 1080p от HDClub

krutor.org

Информация о фильмеНазвание: Песнь моряОригинальное название: Song of the SeaГод выхода: 2014Жанр: мультфильм, фэнтези, семейныйРежиссер: Томм МурВ ролях: Дэвид Роул, Брендан Глисон, Лиза Хэннигэн, Финола Флэнаган, Люси О’Коннелл, Джон Кенни, Пэт Шорт, Лиам Хурикан

О фильме: Сюжет повествует о последней «селки», которая может перевоплощаться из тюленя в человека, и ее путешествии к морю.

Страна: Ирландия, Дания, Бельгия, Люксембург, ФранцияСтудия: Irish Film Board, The Cartoon SaloonПродолжительность: 01:33:59Перевод: Авторский (одноголосый, закадровый) Юрий Сербин + Любительский (многоголосый, закадровый) CatBug TV + Профессиональный (многоголосый, закадровый) Омикрон

Релиз:

ФайлФормат: MatroskaВидео: 1920x1040 at 23.976 fps, [email protected], ~8623 kbps avgАудио#1: Russian: 48 kHz/16 bits, DTS, 3/2 (L,C,R,l,r) + LFE ch, ~1509 kbps avg |Авторский, Ю.Сербин|Аудио#2: Russian:48 kHz/16 bits, DTS, 3/2 (L,C,R,l,r) + LFE ch, ~1509 kbps avg |Многоголосый закадровый, CatBug TV|Аудио#3: Ukrainian:48 kHz/16 bits, DTS, 3/2 (L,C,R,l,r) + LFE ch, ~1509 kbps avg |Многоголосый закадровый, Омикрон|Аудио#4: English: 48 kHz/16 bits, DTS, 3/2 (L,C,R,l,r) + LFE ch, ~1509 kbps avg Аудио#5: English: 48 kHz, AAC, 2/0 (L,R) ch, ~96 kbps avg |Commentary with Director Tomm Moore|Субтитры: Russian (x4), Ukrainian, English, English (SDH)

MI

Общее Уникальный идентификатор : 232855630559912041121856186022898487159 (0xAF2E5CF826198D83AF77BF2D3A68CF77) Полное имя : Song.of.the.Sea.2014.1080p.BluRay.2xRus.Ukr.Eng..HDCLUB.mkv Формат : Matroska Версия формата : Version 4 / Version 2 Размер файла : 9,81 Гбайт Продолжительность : 1 ч. 33 м. Общий поток : 14,9 Мбит/сек Дата кодирования : UTC 2015-07-24 10:28:47 Программа кодирования : mkvmerge v8.2.0 ('World of Adventure') 64bit Библиотека кодирования : libebml v1.3.1 + libmatroska v1.4.2 Attachements : cover.jpg

Видео Идентификатор : 1 Формат : AVC Формат/Информация : Advanced Video Codec Профиль формата : [email protected] Параметр CABAC формата : Да Параметр ReFrames формата : 4 кадра Идентификатор кодека : V_MPEG4/ISO/AVC Ширина : 1920 пикселей Высота : 1040 пикселей Соотношение сторон : 1,85:1 Режим частоты кадров : Переменный Частота кадров в оригинале : 23,976 кадра/сек Цветовое пространство : YUV Субдискретизация насыщенности : 4:2:0 Битовая глубина : 8 бит Тип развёртки : Прогрессивная Библиотека кодирования : x264 core 144 r0+2574 9abcd72 t_mod_Custom [[email protected] X86_64] Настройки программы : cabac=1 / ref=4 / deblock=1:-3:-3 / analyse=0x3:0x133 / me=umh / subme=10 / psy=1 / fade_compensate=0.00 / psy_rd=0.90:0.00 / mixed_ref=1 / me_range=48 / chroma_me=1 / trellis=2 / 8x8dct=1 / cqm=0 / deadzone=21,11 / fast_pskip=1 / chroma_qp_offset=-2 / threads=4 / lookahead_threads=1 / sliced_threads=0 / nr=0 / decimate=1 / interlaced=0 / bluray_compat=0 / constrained_intra=0 / fgo=0 / bframes=9 / b_pyramid=2 / b_adapt=2 / b_bias=0 / direct=3 / weightb=1 / open_gop=0 / weightp=2 / keyint=250 / keyint_min=23 / scenecut=40 / intra_refresh=0 / rc_lookahead=150 / rc=crf / mbtree=0 / crf=17.0000 / qcomp=0.65 / qpmin=0:0:0 / qpmax=69:69:69 / qpstep=4 / vbv_maxrate=50000 / vbv_bufsize=62500 / crf_max=0.0 / nal_hrd=none / filler=0 / ip_ratio=1.20 / pb_ratio=1.20 / aq=4:0.75 / aq-sensitivity=10.00 / aq-factor=1.00:1.00:1.00 / aq2=0 / aq3=0 Язык : English Default : Да Forced : Нет

Аудио #1 Идентификатор : 2 Формат : DTS Формат/Информация : Digital Theater Systems Режим : 16 Параметр Endianness формата : Big Идентификатор кодека : A_DTS Продолжительность : 1 ч. 33 м. Вид битрейта : Постоянный Битрейт : 1509 Кбит/сек Каналы : 6 каналов Расположение каналов : Front: L C R, Side: L R, LFE Частота : 48,0 КГц Битовая глубина : 16 бит Метод сжатия : С потерями Размер потока : 1015 Мбайт (10%) Заголовок : Одноголосый закадровый, Юрий Сербин Язык : Russian Default : Да Forced : Нет

Аудио #2 Идентификатор : 3 Формат : DTS Формат/Информация : Digital Theater Systems Режим : 16 Параметр Endianness формата : Big Идентификатор кодека : A_DTS Продолжительность : 1 ч. 33 м. Вид битрейта : Постоянный Битрейт : 1509 Кбит/сек Каналы : 6 каналов Расположение каналов : Front: L C R, Side: L R, LFE Частота : 48,0 КГц Битовая глубина : 16 бит Метод сжатия : С потерями Размер потока : 1015 Мбайт (10%) Заголовок : Многоголосый закадровый, "CatBug TV" Язык : Russian Default : Нет Forced : Нет

Аудио #3 Идентификатор : 4 Формат : DTS Формат/Информация : Digital Theater Systems Режим : 16 Параметр Endianness формата : Big Идентификатор кодека : A_DTS Продолжительность : 1 ч. 33 м. Вид битрейта : Постоянный Битрейт : 1509 Кбит/сек Каналы : 6 каналов Расположение каналов : Front: L C R, Side: L R, LFE Частота : 48,0 КГц Битовая глубина : 16 бит Метод сжатия : С потерями Размер потока : 1015 Мбайт (10%) Заголовок : Многоголосый закадровый, "Омикрон" Язык : Ukrainian Default : Нет Forced : Нет

Аудио #4 Идентификатор : 5 Формат : DTS Формат/Информация : Digital Theater Systems Режим : 16 Параметр Endianness формата : Big Идентификатор кодека : A_DTS Продолжительность : 1 ч. 33 м. Вид битрейта : Постоянный Битрейт : 1509 Кбит/сек Каналы : 6 каналов Расположение каналов : Front: L C R, Side: L R, LFE Частота : 48,0 КГц Битовая глубина : 24 бит Метод сжатия : С потерями Размер потока : 1015 Мбайт (10%) Язык : English Default : Нет Forced : Нет

Аудио #5 Идентификатор : 6 Формат : AAC Формат/Информация : Advanced Audio Codec Профиль формата : LC Идентификатор кодека : A_AAC Продолжительность : 1 ч. 33 м. Каналы : 2 канала Расположение каналов : Front: L R Частота : 48,0 КГц Метод сжатия : С потерями Задержка видео : 9 мс. Заголовок : Commentary with Director Tomm Moore Язык : English Default : Нет Forced : Нет

Текст #1 Идентификатор : 7 Формат : UTF-8 Идентификатор кодека : S_TEXT/UTF8 Идентификатор кодека/Информация : UTF-8 Plain Text Заголовок : NOTABENOID Язык : Russian Default : Нет Forced : Нет

Текст #2 Идентификатор : 8 Формат : UTF-8 Идентификатор кодека : S_TEXT/UTF8 Идентификатор кодека/Информация : UTF-8 Plain Text Заголовок : SDH.COLORED.NOTABENOID Язык : Russian Default : Нет Forced : Нет

Текст #3 Идентификатор : 9 Формат : UTF-8 Идентификатор кодека : S_TEXT/UTF8 Идентификатор кодека/Информация : UTF-8 Plain Text Заголовок : SDH.NOTABENOID Язык : Russian Default : Нет Forced : Нет

Текст #4 Идентификатор : 10 Формат : UTF-8 Идентификатор кодека : S_TEXT/UTF8 Идентификатор кодека/Информация : UTF-8 Plain Text Заголовок : SPICYN Язык : Russian Default : Нет Forced : Нет

Текст #5 Идентификатор : 11 Формат : UTF-8 Идентификатор кодека : S_TEXT/UTF8 Идентификатор кодека/Информация : UTF-8 Plain Text Язык : Ukrainian Default : Нет Forced : Нет

Текст #6 Идентификатор : 12 Формат : UTF-8 Идентификатор кодека : S_TEXT/UTF8 Идентификатор кодека/Информация : UTF-8 Plain Text Язык : English Default : Нет Forced : Нет

Текст #7 Идентификатор : 13 Формат : UTF-8 Идентификатор кодека : S_TEXT/UTF8 Идентификатор кодека/Информация : UTF-8 Plain Text Заголовок : SDH Язык : English Default : Нет Forced : Нет

Меню 00:00:00.000 : en:00:00:00.000 00:04:26.057 : en:00:04:26.057 00:09:28.943 : en:00:09:28.943 00:13:23.761 : en:00:13:23.761 00:18:49.587 : en:00:18:49.587 00:23:29.742 : en:00:23:29.742 00:26:30.339 : en:00:26:30.339 00:31:07.157 : en:00:31:07.157 00:35:10.400 : en:00:35:10.400 00:39:53.308 : en:00:39:53.308 00:44:19.115 : en:00:44:19.115 00:48:53.055 : en:00:48:53.055 00:52:21.347 : en:00:52:21.347 00:56:24.673 : en:00:56:24.673 00:59:58.094 : en:00:59:58.094 01:04:53.223 : en:01:04:53.223 01:08:52.462 : en:01:08:52.462 01:12:59.709 : en:01:12:59.709 01:17:48.289 : en:01:17:48.289 01:26:47.244 : en:01:26:47.244

Скачать фильм Песнь моря через торрент в хорошем качестве бесплатно HDRip

piratbit.ru

Размер: 1.45 GB | Добавлен: 2 года назад | Торрент скачан:313 раз
Реклама Дарим 3000 рублей за регистрацию, не упусти свой шанс получить шикарный бонус!!!

27-09-2015 16:06 Песнь моря Скачать торрент  

Песнь моря / Song of the Sea ИНФОРМАЦИЯ: Год выпуска:2014 Страна: Ирландия, Дания, Бельгия, Люксембург, Франция Жанр: мультфильм, фэнтези, семейный Продолжительность: 01:33:59 Перевод: Дубляж - [Лицензия / iTunes] Режиссер: Томм МурВ Ролях: Дэвид Роул (Ben, озвучка), Брендан Глисон (Conor / Mac Lir, озвучка), Лиза Хэннигэн (Bronach, озвучка), Финола Флэнаган (Granny / Macha, озвучка), Люси О’Коннелл (Saoirse, озвучка), Джон Кенни (Ferry Dan / The Great Seanachaí, озвучка), Пэт Шорт (Lug, озвучка), Колм О’Снодай (Mossy, озвучка), Лиам Хурикан (Spud / Bus Driver, озвучка), Кевин Щвершч (Young Ben, озвучка), Уилл Коллинз (дополнительные голоса, озвучка), Пол Янг (дополнительные голоса, озвучка)Описание: Невероятная история Бена и его сестренки Сирши. Вместе они пускаются в фантастическое путешествие сквозь исчезающий мир древних легенд и магии, пытаясь вернуться домой.
  • Мировая премьера:6 сентября 2014 ТЕХ.ДАННЫЕ: Качество: HDRip Формат: AVI Видео: XviD, 720x384 (1.875), 1735 kbps, 23,976 fps, 0,262 bpp Аудио: AC3 / 5.1 / 48 kHz / 384 kbps / 16 bitGeneralComplete name : D:\Торенты\pECh2a.M0P1a.2O14.D.HDRip.1.46Gb.aviFormat : AVIFormat/Info : Audio Video InterleaveFile size : 1.45 GiBDuration : 1h 33mnOverall bit rate : 2 216 KbpsWriting application : VirtualDubMod 1.5.10.3 | www.virtualdub-fr.org || (build 2550/release)Writing library : VirtualDubMod build 2550/release

    VideoID : 0Format : MPEG-4 VisualFormat profile : Advanced [email protected] settings, BVOP : 2Format settings, QPel : NoFormat settings, GMC : No warppointsFormat settings, Matrix : Default (MPEG)Codec ID : XVIDCodec ID/Hint : XviDDuration : 1h 33mnBit rate : 1 736 KbpsWidth : 720 pixelsHeight : 384 pixelsDisplay aspect ratio : 1.875Frame rate : 23.976 fpsColor space : YUVChroma subsampling : 4:2:0Bit depth : 8 bitsScan type : ProgressiveCompression mode : LossyBits/(Pixel*Frame) : 0.262Stream size : 1.14 GiB (78%)Writing library : XviD 1.2.1 (UTC 2008-12-04)

    AudioID : 1Format : AC-3Format/Info : Audio Coding 3Mode extension : CM (complete main)Codec ID : 2000Duration : 1h 33mnBit rate mode : ConstantBit rate : 384 KbpsChannel(s) : 6 channelsChannel positions : Front: L C R, Side: L R, LFESampling rate : 48.0 KHzBit depth : 16 bitsCompression mode : LossyStream size : 258 MiB (17%)Alignment : Split accross interleaves

    Скриншоты: © Оформление by Ворон
  • Скачать Песнь моря через торрент http://pic.pb.wtf/images/6/ordi9.jpg Скачать фильм Песнь моря через торрент бесплантно в хорошем качестве Описание: Невероятная история Бена и его сестренки Сирши. Вместе они пускаются в фантастическое путешествие сквозь исчезающий мир древних ... 2015-09-27 16:06 10 10 4

    Loading...

    Loading...

    Рекламный пират

    Дорогой пользователь! Огромная просьба, поблагодарите релизера, оцените раздачу и оставьте свои комментарий, если Вы скачали Песнь моря через торрент бесплатно! Внесите свою лепту в развитие PiratBit!

    Комментировать посты могут только пользователи прошедшие не сложную регистрацию

    Песнь моря через торрент Скачать бесплатно Песнь моря Песнь моря скачать торрент Песнь моря смотреть онлайн Cкачать фильм Песнь моря бесплатно Песнь моря скачать торрент в хорошем качестве Песнь моря смотреть онлайн бесплатно в хорошем качестве

    Вы не можете начинать темыВы не можете отвечать на сообщенияВы не можете редактировать свои сообщенияВы не можете удалять свои сообщенияВы не можете голосовать в опросахВы не можете прикреплять файлы к сообщениямВы можете скачивать файлы

    Скачать фильм Песнь моря через торрент в хорошем качестве бесплатно 720p от potroks] MVO

    GeneralUnique ID                                : 247175303356546532296883664506217147807 (0xB9F43B58DDB0991C9AC07B27B3D1AD9F)Complete name                            : Pesn'.Morya.2014.MVO.AVO.UKR.ENG.BDRip.720p.-HELLYWOOD.mkvFormat                                   : MatroskaFormat version                           : Version 4 / Version 2File size                                : 4.57 GiBDuration                                 : 1h 33mnOverall bit rate                         : 6 956 KbpsMovie name                               : Song of the Sea (2014) - HELLYWOODEncoded date                             : UTC 2015-08-22 05:47:15Writing application                      : mkvmerge v5.9.0 ('On The Loose') built on Dec 15 2012 16:39:58Writing library                          : libebml v1.3.0 + libmatroska v1.4.0

    VideoID                                       : 1Format                                   : AVCFormat/Info                              : Advanced Video CodecFormat profile                           : [email protected] settings, CABAC                   : YesFormat settings, ReFrames                : 9 framesCodec ID                                 : V_MPEG4/ISO/AVCDuration                                 : 1h 33mnBit rate                                 : 4 396 KbpsWidth                                    : 1 280 pixelsHeight                                   : 690 pixelsDisplay aspect ratio                     : 1.855Frame rate                               : 23.976 fpsColor space                              : YUVChroma subsampling                       : 4:2:0Bit depth                                : 8 bitsScan type                                : ProgressiveBits/(Pixel*Frame)                       : 0.208Stream size                              : 2.79 GiB (61%)Title                                    : potroksWriting library                          : x264 core 146 r2538 121396cEncoding settings                        : cabac=1 / ref=9 / deblock=1:-1:-1 / analyse=0x3:0x113 / me=umh / subme=11 / psy=1 / psy_rd=1.00:0.05 / mixed_ref=1 / me_range=32 / chroma_me=1 / trellis=2 / 8x8dct=1 / cqm=0 / deadzone=21,11 / fast_pskip=0 / chroma_qp_offset=-3 / threads=9 / lookahead_threads=2 / sliced_threads=0 / nr=0 / decimate=0 / interlaced=0 / bluray_compat=0 / constrained_intra=0 / bframes=10 / b_pyramid=2 / b_adapt=2 / b_bias=0 / direct=3 / weightb=1 / open_gop=0 / weightp=2 / keyint=250 / keyint_min=23 / scenecut=40 / intra_refresh=0 / rc_lookahead=60 / rc=2pass / mbtree=0 / bitrate=4396 / ratetol=1.0 / qcomp=0.70 / qpmin=0 / qpmax=69 / qpstep=4 / cplxblur=20.0 / qblur=0.5 / vbv_maxrate=14000 / vbv_bufsize=14000 / nal_hrd=none / filler=0 / ip_ratio=1.35 / pb_ratio=1.25 / aq=1:0.70Language                                 : EnglishDefault                                  : YesForced                                   : No

    Audio #1ID                                       : 2Format                                   : AC-3Format/Info                              : Audio Coding 3Mode extension                           : CM (complete main)Codec ID                                 : A_AC3Duration                                 : 1h 33mnBit rate mode                            : ConstantBit rate                                 : 640 KbpsChannel(s)                               : 6 channelsChannel positions                        : Front: L C R, Side: L R, LFESampling rate                            : 48.0 KHzBit depth                                : 16 bitsCompression mode                         : LossyStream size                              : 430 MiB (9%)Title                                    : MVO | DD 5.1 @ 640 kbps - CatBug TVLanguage                                 : RussianDefault                                  : YesForced                                   : No

    Audio #2ID                                       : 3Format                                   : AC-3Format/Info                              : Audio Coding 3Mode extension                           : CM (complete main)Codec ID                                 : A_AC3Duration                                 : 1h 33mnBit rate mode                            : ConstantBit rate                                 : 640 KbpsChannel(s)                               : 6 channelsChannel positions                        : Front: L C R, Side: L R, LFESampling rate                            : 48.0 KHzBit depth                                : 16 bitsCompression mode                         : LossyStream size                              : 430 MiB (9%)Title                                    : AVO | DD 5.1 @ 640 kbps - Y.SerbinLanguage                                 : RussianDefault                                  : NoForced                                   : No

    Audio #3ID                                       : 4Format                                   : AC-3Format/Info                              : Audio Coding 3Mode extension                           : CM (complete main)Codec ID                                 : A_AC3Duration                                 : 1h 33mnBit rate mode                            : ConstantBit rate                                 : 640 KbpsChannel(s)                               : 6 channelsChannel positions                        : Front: L C R, Side: L R, LFESampling rate                            : 48.0 KHzBit depth                                : 16 bitsCompression mode                         : LossyStream size                              : 430 MiB (9%)Title                                    : MVO | DD 5.1 @ 640 kbps - OmiсronLanguage                                 : UkrainianDefault                                  : NoForced                                   : No

    Audio #4ID                                       : 5Format                                   : AC-3Format/Info                              : Audio Coding 3Mode extension                           : CM (complete main)Codec ID                                 : A_AC3Duration                                 : 1h 33mnBit rate mode                            : ConstantBit rate                                 : 640 KbpsChannel(s)                               : 6 channelsChannel positions                        : Front: L C R, Side: L R, LFESampling rate                            : 48.0 KHzBit depth                                : 16 bitsCompression mode                         : LossyStream size                              : 430 MiB (9%)Title                                    : Original | DD 5.1 @ 640 kbpsLanguage                                 : EnglishDefault                                  : NoForced                                   : No

    Text #1ID                                       : 6Format                                   : UTF-8Codec ID                                 : S_TEXT/UTF8Codec ID/Info                            : UTF-8 Plain TextTitle                                    : SDHLanguage                                 : RussianDefault                                  : NoForced                                   : No

    Text #2ID                                       : 7Format                                   : UTF-8Codec ID                                 : S_TEXT/UTF8Codec ID/Info                            : UTF-8 Plain TextTitle                                    : Notabenoid (SDH)Language                                 : RussianDefault                                  : NoForced                                   : No

    Text #3ID                                       : 8Format                                   : UTF-8Codec ID                                 : S_TEXT/UTF8Codec ID/Info                            : UTF-8 Plain TextLanguage                                 : UkrainianDefault                                  : NoForced                                   : No

    Text #4ID                                       : 9Format                                   : UTF-8Codec ID                                 : S_TEXT/UTF8Codec ID/Info                            : UTF-8 Plain TextTitle                                    : FullLanguage                                 : EnglishDefault                                  : NoForced                                   : No

    Text #5ID                                       : 10Format                                   : UTF-8Codec ID                                 : S_TEXT/UTF8Codec ID/Info                            : UTF-8 Plain TextTitle                                    : SDHLanguage                                 : EnglishDefault                                  : NoForced                                   : No

    Text #6ID                                       : 11Format                                   : UTF-8Codec ID                                 : S_TEXT/UTF8Codec ID/Info                            : UTF-8 Plain TextTitle                                    : SDH-ColoredLanguage                                 : EnglishDefault                                  : NoForced                                   : No

    Menu00:00:00.000                             : en:(01)00:00:00:00000:04:26.057                             : en:(02)00:04:26:05700:09:28.943                             : en:(03)00:09:28:94300:13:23.761                             : en:(04)00:13:23:76100:18:49.586                             : en:(05)00:18:49:58600:23:29.741                             : en:(06)00:23:29:74100:26:30.338                             : en:(07)00:26:30:33800:31:07.156                             : en:(08)00:31:07:15600:35:10.399                             : en:(09)00:35:10:39900:39:53.307                             : en:(10)00:39:53:30700:44:19.114                             : en:(11)00:44:19:11400:48:53.055                             : en:(12)00:48:53:05500:52:21.346                             : en:(13)00:52:21:34600:56:24.672                             : en:(14)00:56:24:67200:59:58.094                             : en:(15)00:59:58:09401:04:53.222                             : en:(16)01:04:53:22201:08:52.461                             : en:(17)01:08:52:46101:12:59.708                             : en:(18)01:12:59:70801:17:48.288                             : en:(19)01:17:48:28801:26:46.993                             : en:(20)01:26:46:99301:33:58.841                             : en:(21)01:33:58:841

    piratbit.ru

    Скачать фильм Песнь моря через торрент в хорошем качестве бесплатно 1080p

    GeneralUnique ID                                : 220805139461947381188174444843935179222 (0xA61D85E3182E569EB78DB32FA837A1D6)Complete name                            : D:\Торенты\Song of the Sea 2014 BDRip 1080p.mkvFormat                                   : MatroskaFormat version                           : Version 4 / Version 2File size                                : 4.14 GiBDuration                                 : 1h 33mnOverall bit rate                         : 6 308 KbpsEncoded date                             : UTC 2015-03-24 11:57:10Writing application                      : mkvmerge v7.6.0 ('Garden of Dreams') 32bit built on Feb  8 2015 12:51:39Writing library                          : libebml v1.3.1 + libmatroska v1.4.2

    VideoID                                       : 1Format                                   : AVCFormat/Info                              : Advanced Video CodecFormat profile                           : [email protected] settings, CABAC                   : YesFormat settings, ReFrames                : 4 framesCodec ID                                 : V_MPEG4/ISO/AVCDuration                                 : 1h 33mnBit rate                                 : 4 417 KbpsWidth                                    : 1 920 pixelsHeight                                   : 1 036 pixelsDisplay aspect ratio                     : 1.853Frame rate                               : 23.976 fpsColor space                              : YUVChroma subsampling                       : 4:2:0Bit depth                                : 8 bitsScan type                                : ProgressiveBits/(Pixel*Frame)                       : 0.093Stream size                              : 2.90 GiB (70%)Writing library                          : x264 core 142 r2479 dd79a61Encoding settings                        : cabac=1 / ref=4 / deblock=1:-1:-1 / analyse=0x3:0x113 / me=umh / subme=11 / psy=1 / psy_rd=1.04:0.20 / mixed_ref=1 / me_range=32 / chroma_me=1 / trellis=2 / 8x8dct=1 / cqm=0 / deadzone=21,11 / fast_pskip=0 / chroma_qp_offset=-3 / threads=12 / lookahead_threads=2 / sliced_threads=0 / nr=0 / decimate=1 / interlaced=0 / bluray_compat=0 / constrained_intra=0 / bframes=7 / b_pyramid=0 / b_adapt=2 / b_bias=0 / direct=1 / weightb=1 / open_gop=0 / weightp=2 / keyint=240 / keyint_min=24 / scenecut=40 / intra_refresh=0 / rc_lookahead=80 / rc=crf / mbtree=1 / crf=23.0 / qcomp=0.70 / qpmin=0 / qpmax=69 / qpstep=4 / vbv_maxrate=20000 / vbv_bufsize=25000 / crf_max=0.0 / nal_hrd=none / filler=0 / ip_ratio=1.40 / aq=2:1.20Language                                 : EnglishDefault                                  : YesForced                                   : No

    Audio #1ID                                       : 2Format                                   : AC-3Format/Info                              : Audio Coding 3Mode extension                           : CM (complete main)Codec ID                                 : A_AC3Duration                                 : 1h 33mnBit rate mode                            : ConstantBit rate                                 : 256 KbpsChannel(s)                               : 2 channelsChannel positions                        : Front: L RSampling rate                            : 48.0 KHzBit depth                                : 16 bitsCompression mode                         : LossyStream size                              : 172 MiB (4%)Language                                 : RussianDefault                                  : YesForced                                   : No

    Audio #2ID                                       : 3Format                                   : DTSFormat/Info                              : Digital Theater SystemsCodec ID                                 : A_DTSDuration                                 : 1h 33mnBit rate mode                            : ConstantBit rate                                 : 1 510 KbpsChannel(s)                               : 6 channelsChannel positions                        : Front: L C R, Side: L R, LFESampling rate                            : 48.0 KHzBit depth                                : 24 bitsCompression mode                         : LossyStream size                              : 1 015 MiB (24%)Language                                 : EnglishDefault                                  : NoForced                                   : No

    TextID                                       : 4Format                                   : UTF-8Codec ID                                 : S_TEXT/UTF8Codec ID/Info                            : UTF-8 Plain TextLanguage                                 : EnglishDefault                                  : NoForced                                   : No

    Menu00:00:00.000                             : en:00:00:00.00000:04:26.057                             : en:00:04:26.05700:09:28.943                             : en:00:09:28.94300:13:23.761                             : en:00:13:23.76100:18:49.587                             : en:00:18:49.58700:23:29.742                             : en:00:23:29.74200:26:30.339                             : en:00:26:30.33900:31:07.157                             : en:00:31:07.15700:35:10.400                             : en:00:35:10.40000:39:53.308                             : en:00:39:53.30800:44:19.115                             : en:00:44:19.11500:48:53.055                             : en:00:48:53.05500:52:21.347                             : en:00:52:21.34700:56:24.673                             : en:00:56:24.67300:59:58.094                             : en:00:59:58.09401:04:53.223                             : en:01:04:53.22301:08:52.462                             : en:01:08:52.46201:12:59.709                             : en:01:12:59.70901:17:48.289                             : en:01:17:48.28901:26:47.244                             : en:01:26:47.244

    piratbit.ru


    Смотрите также