Пекло скачать торрент в хорошем качестве


Скачать фильм Пекло через торрент в хорошем качестве бесплатно BDRip

Размер: 1.46 GB | Добавлен: 6 лет 11 мес. назад | Торрент скачан:409 раз
Реклама Дарим 3000 рублей за регистрацию, не упусти свой шанс получить шикарный бонус!!!

11-11-2010 19:14 Пекло Скачать торрент  

Пекло / Sunshine

Год выпуска: 2007Страна: США, ВеликобританияЖанр: ФантастикаПродолжительность: 01:47:27Перевод: Профессиональный (полное дублирование)

Режиссер: Дэнни Бойл

Бюджет: $50 000 000

В ролях: Крис Эванс, Киллиан Мерфи, Роуз Бирн, Мишель Йео, Клифф Кертис, Трой Гэрити, Марк Стронг, Хироюки Санада, Бенедикт Вонг

Описание: 2057 год. Солнце погибает, и человечество встает перед лицом вымирания. Последняя надежда планеты Земля связана с «Икаром 2» – космическим кораблем, экипаж которого состоит из восьми мужчин и женщин во главе с капитаном Канедой. Их миссия – доставить ядерный заряд, с помощью которого предполагается повторно воспламенить гаснущее Солнце. Во время своего путешествия, находясь далеко в космическом безмолвии, в отсутствии какого-либо радиоконтакта с Землей, экипаж слышит слабые позывные сигналы с космического корабля «Икар 1», который пропал, выполняя семь лет назад ту же самую миссию, что и «Икар 2». Ужасная катастрофа ввергает миссию в очень опасную и рискованную ситуацию, и скоро команда обнаруживает, что вынуждена бороться не только за свои собственные жизни и душевное равновесие, но за будущее всех нас...

Качество: BDRipФормат: AVIВидео кодек: XviDАудио кодек: AC3Видео: 720x304 (2.37:1), 23.976 fps, XviD MPEG-4 ~1552 kbps avg, 0.29 bit/pixelАудио: 48 kHz, AC3 Dolby Digital, 3/2 (L,C,R,l,r) + LFE ch, ~384.00 kbps avg

Скачать Пекло через торрент http://piratbit.in.ua/a80cfb494d14ed3ac151dfcd8e2cd241.jpg Скачать фильм Пекло через торрент бесплантно в хорошем качестве Описание: 2057 год. Солнце погибает, и человечество встает перед лицом вымирания. Последняя надежда планеты Земля связана с «Икаром 2» – ... 2010-11-11 22:09 9.8 10 5

Loading...

Loading...

Последний раз редактировалось: alex-666 (2010-11-11 22:21), всего редактировалось 3 раз(а)

Рекламный пират

11-11-2010 19:53 Пекло Скачать торрент  

11-11-2010 20:03 Пекло Скачать торрент  

Фильм классный, а музыка вообще отпад.

12-11-2010 16:07 Пекло Скачать торрент  

спасибо, качаю

12-11-2010 21:07 Пекло Скачать торрент  

подскажите пожалуйста что такое AVILock?

22-04-2013 13:17 Пекло Скачать торрент  

Встаньте на раздачу плиз!!!

Дорогой пользователь! Огромная просьба, поблагодарите релизера, оцените раздачу и оставьте свои комментарий, если Вы скачали Пекло через торрент бесплатно! Внесите свою лепту в развитие PiratBit!

Комментировать посты могут только пользователи прошедшие не сложную регистрацию

Пекло через торрент Скачать бесплатно Пекло Пекло скачать торрент Пекло смотреть онлайн Cкачать фильм Пекло бесплатно Пекло скачать торрент в хорошем качестве Пекло смотреть онлайн бесплатно в хорошем качестве

Вы не можете начинать темыВы не можете отвечать на сообщенияВы не можете редактировать свои сообщенияВы не можете удалять свои сообщенияВы не можете голосовать в опросахВы не можете прикреплять файлы к сообщениямВы можете скачивать файлы

piratbit.ru

Скачать фильм Пекло через торрент в хорошем качестве бесплатно 720p

ОбщееУникальный идентификатор : 219252763500307924936188458437393216767 (0xA4F28BD7CB00D14A9EEAC2A0C9DF74FF)Полное имя : F:Пекло.2007.720p.BDRip.mkvФормат : MatroskaВерсия формата : Version 2Размер файла : 6,56 ГбайтПродолжительность : 1 ч. 47 м.Общий поток : 8735 Кбит/секНазвание фильма : Пекло(2007)Дата кодирования : UTC 2011-08-04 17:01:39Программа кодирования : mkvmerge v4.9.1 ('Ich will') built on Jul 11 2011 23:53:15Библиотека кодирования : libebml v1.2.1 + libmatroska v1.1.1

ВидеоИдентификатор : 1Формат : AVCФормат/Информация : Advanced Video CodecПрофиль формата : [email protected]Параметр CABAC формата : ДаПараметр ReFrames формата : 11 кадровИдентификатор кодека : V_MPEG4/ISO/AVCПродолжительность : 1 ч. 47 м.Битрейт : 6426 Кбит/секШирина : 1280 пикселейВысота : 538 пикселейСоотношение сторон : 2,40:1Режим частоты кадров : ПостоянныйЧастота кадров : 23,976 кадра/секЦветовое пространство : YUVСубдискретизация насыщенности : 4:2:0Битовая глубина : 8 битТип развёртки : ПрогрессивнаяБит/(Пиксели*Кадры) : 0.389Размер потока : 4,72 Гбайт (72%)Заголовок : AVC, 1280x538, 6417 kbps, 23.976 fpsБиблиотека кодирования : x264 core 116 r2044kMod 392e762Настройки программы : cabac=1 / ref=11 / deblock=1:-3:-3 / analyse=0x3:0x133 / me=umh / subme=10 / psy=1 / fade_compensate=0.00 / psy_rd=1.00:0.00 / mixed_ref=1 / me_range=32 / chroma_me=1 / trellis=2 / 8x8dct=1 / cqm=0 / deadzone=21,11 / fast_pskip=0 / chroma_qp_offset=-2 / threads=6 / sliced_threads=0 / nr=0 / decimate=0 / interlaced=0 / bluray_compat=0 / constrained_intra=0 / bframes=12 / b_pyramid=2 / b_adapt=2 / b_bias=0 / direct=3 / weightb=1 / open_gop=0 / weightp=2 / keyint=250 / keyint_min=23 / scenecut=40 / intra_refresh=0 / rc_lookahead=60 / rc=2pass / mbtree=0 / bitrate=6426 / ratetol=1.0 / qcomp=0.60 / qpmin=0 / qpmax=69 / qpstep=4 / cplxblur=20.0 / qblur=0.5 / vbv_maxrate=50000 / vbv_bufsize=62500 / nal_hrd=none / ip_ratio=1.40 / pb_ratio=1.30 / aq=2:1.15Язык : EnglishDefault : ДаForced : НетКоэффициенты матрицы : BT.709

Аудио #1Идентификатор : 2Формат : DTSФормат/Информация : Digital Theater SystemsРежим : 16Параметр Endianness формата : BigИдентификатор кодека : A_DTSПродолжительность : 1 ч. 47 м.Вид битрейта : ПостоянныйБитрейт : 768 Кбит/секКаналы : 6 каналовРасположение каналов : Front: L C R, Side: L R, LFEЧастота : 48,0 КГцБитовая глубина : 24 битМетод сжатия : С потерямиРазмер потока : 590 Мбайт (9%)Заголовок : DTS 5.1 768 kbps: Дубляж (BD CEE)Язык : RussianDefault : ДаForced : Нет

Аудио #2Идентификатор : 3Формат : DTSФормат/Информация : Digital Theater SystemsРежим : 16Параметр Endianness формата : BigИдентификатор кодека : A_DTSПродолжительность : 1 ч. 47 м.Вид битрейта : ПостоянныйБитрейт : 1509 Кбит/секКаналы : 6 каналовРасположение каналов : Front: L C R, Side: L R, LFEЧастота : 48,0 КГцБитовая глубина : 24 битМетод сжатия : С потерямиРазмер потока : 1,13 Гбайт (17%)Заголовок : DTS 5.1 1536 kbpsЯзык : EnglishDefault : НетForced : Нет

Текст #1Идентификатор : 4Формат : UTF-8Идентификатор кодека : S_TEXT/UTF8Идентификатор кодека/Информация : UTF-8 Plain TextЗаголовок : Полные, BD CEEЯзык : RussianDefault : НетForced : Нет

Текст #2Идентификатор : 5Формат : UTF-8Идентификатор кодека : S_TEXT/UTF8Идентификатор кодека/Информация : UTF-8 Plain TextЗаголовок : ПолныеЯзык : EnglishDefault : НетForced : Нет

Текст #3Идентификатор : 6Формат : PGSИдентификатор кодека : S_HDMV/PGSИдентификатор кодека/Информация : The same subtitle format used on BDs/HD-DVDsЗаголовок : SDHЯзык : EnglishDefault : НетForced : Нет

Меню00:00:00.000 : en:Dying Sun00:04:07.330 : en:Final Message00:08:10.573 : en:Psych Eval00:12:41.260 : en:Risk Assessment00:21:23.407 : en:Accuracy Unknown00:24:57.246 : en:New Trajectory00:35:15.238 : en:First Priority00:39:15.311 : en:Full Sunlight00:47:03.779 : en:Icarus I00:52:57.341 : en:Abandoned Mission00:56:25.299 : en:The Airlock01:04:05.550 : en:We Love You01:05:40.854 : en:Crew Vote01:11:22.945 : en:Identify Yourself01:17:05.663 : en:Sabotage01:24:36.988 : en:Manual Override01:30:36.598 : en:Payload01:34:21.364 : en:Into the Sun01:39:32.466 : en:A Beautiful Day01:40:52.421 : en:End Titles/Avenue of Hope

piratbit.ru

Скачать фильм Пекло через торрент в хорошем качестве бесплатно 1080p)

Раздают: 2 [ 0 KB/s ]
Размер: 1.39 GB | Добавлен: 5 лет 10 мес. назад | Торрент скачан:1800 раз
Реклама Дарим 3000 рублей за регистрацию, не упусти свой шанс получить шикарный бонус!!!

13-12-2011 10:07 Пекло Скачать торрент  

Пекло / Sunshine

Год выпуска: 2007Страна: США, ВеликобританияЖанр: катастрофа, приключения, триллер, фантастикаПродолжительность: 01:47:27Перевод: Профессиональный (полное дублирование) [Лицензия]

Режиссер: Дэнни БойлПродюссер: Эндрю МакДональд, Бернард Беллью

Бюджет: $50 000 000Премьера в мире: 23.03.2007

лицам до 17 лет обязательно присутствие взрослого

В ролях: Киллиан Мёрфи, Роуз Бирн, Клифф Кёртис, Мишель Йео, Крис Эванс, Хироюки Санада, Марк Стронг, Трой Гэрити, Бенедикт Вонг, Чипо Чанг ...

Описание: 2057 год. Солнце погибает, и человечество встает перед лицом вымирания. Последняя надежда планеты Земля связана с «Икаром 2» — космическим кораблем, экипаж которого состоит из восьми мужчин и женщин во главе с капитаном Канедой. Их миссия — доставить ядерный заряд, с помощью которого предполагается повторно воспламенить гаснущее Солнце.

Во время своего путешествия, находясь далеко в космическом безмолвии, в отсутствии какого-либо радиоконтакта с Землей, экипаж слышит слабые позывные сигналы с космического корабля «Икар 1», который пропал, выполняя семь лет назад ту же самую миссию, что и «Икар 2». Ужасная катастрофа ввергает миссию в очень опасную и рискованную ситуацию, и скоро команда обнаруживает, что вынуждена бороться не только за свои собственные жизни и душевное равновесие, но и за будущее всех нас…

Качество: BDRip (1080p)Формат: MKVВидео кодек: H.26xАудио кодек: AC3Видео: 1920 x 816 @ 1088x816 (анаморфное), 23.976 fps, 1600 kbpsАудио: Audio1: Рус: AAC,6ch,128 kbps; Audio2:Англ: AAC,6ch,128 kbpsРелиз от: Punisher

Скачать Пекло через торрент http://pic.pb.wtf/images/2011/ljv4pssz1r.jpg Скачать фильм Пекло через торрент бесплантно в хорошем качестве Описание: 2057 год. Солнце погибает, и человечество встает перед лицом вымирания. Последняя надежда планеты Земля связана с «Икаром 2» — ... 2011-12-13 10:07 9.9 10 22

Loading...

Loading...

Рекламный пират

13-12-2011 11:07 Пекло Скачать торрент  

Спасибо, я пропустил этот фильм в 2007-м...

13-12-2011 11:51 Пекло Скачать торрент  

очень прикольная кинуха......

13-12-2011 11:57 Пекло Скачать торрент  

красивый красочный фильм!!

13-12-2011 12:51 Пекло Скачать торрент  

Смотрел фильм батя,спасибо автору)

13-12-2011 13:41 Пекло Скачать торрент  

Их миссия — доставить ядерный заряд, с помощью которого предполагается повторно воспламенить гаснущее Солнцефеерично..

13-12-2011 16:32 Пекло Скачать торрент  

доставка дров на солнце

13-12-2011 17:32 Пекло Скачать торрент  

фильм супер! научная фантастика. рекомендую.

22-12-2011 13:06 Пекло Скачать торрент  

действительно ОЧЕНЬ хороший фильмец.9\10

Pекламный агент PB

01-06-2012 11:25 Пекло Скачать торрент  

Спасибо. Заценим

25-03-2013 18:25 Пекло Скачать торрент  

что за хрень на 49:20 выскакивает? это прикалюха такая, типа 25 кадр?

05-06-2015 23:39 Пекло Скачать торрент  

чет пропустил я такую плюху

15-04-2016 17:22 Пекло Скачать торрент  

а чего на скринах лица растянуты, т.е. на широкоикранке не пойдет?

Дорогой пользователь! Огромная просьба, поблагодарите релизера, оцените раздачу и оставьте свои комментарий, если Вы скачали Пекло через торрент бесплатно! Внесите свою лепту в развитие PiratBit!

Комментировать посты могут только пользователи прошедшие не сложную регистрацию

Пекло через торрент Скачать бесплатно Пекло Пекло скачать торрент Пекло смотреть онлайн Cкачать фильм Пекло бесплатно Пекло скачать торрент в хорошем качестве Пекло смотреть онлайн бесплатно в хорошем качестве

Вы не можете начинать темыВы не можете отвечать на сообщенияВы не можете редактировать свои сообщенияВы не можете удалять свои сообщенияВы не можете голосовать в опросахВы не можете прикреплять файлы к сообщениямВы можете скачивать файлы

piratbit.ru

Скачать фильм Пекло через торрент в хорошем качестве бесплатно 1080p

• Год выпуска: 2007• Страна: Великобритания, США• Жанр: фантастика, триллер, приключения• Продолжительность: 01:47:27

• Перевод: Дубляж, Лицензия + AVO Ю.Живов• Субтитры: Russian, English

• Режиссер: Дэнни Бойл

• В ролях: Клифф Кертис, Чипо Чанг, Киллиан Мерфи, Мишель Йео, Хироюки Санада, Роуз Бирн, Бенедикт Вонг, Крис Эванс, Трой Гэрити, Марк Стронг, Палома Баеза, Арчи МакДональд, Сильвия МакДональд.

• Описание: 2057 год. Солнце погибает, и человечество встает перед лицом вымирания. Последняя надежда планеты Земля связана с «Икаром 2» — космическим кораблем, экипаж которого состоит из восьми мужчин и женщин во главе с капитаном Канедой. Их миссия — доставить ядерный заряд, с помощью которого предполагается повторно воспламенить гаснущее Солнце.

Во время своего путешествия, находясь далеко в космическом безмолвии, в отсутствии какого-либо радиоконтакта с Землей, экипаж слышит слабые позывные сигналы с космического корабля «Икар 1», который пропал, выполняя семь назад ту же самую миссию, что и «Икар 2». Ужасная катастрофа ввергает миссию в очень опасную и рискованную ситуацию, и скоро команда обнаруживает, что вынуждена бороться не только за свои собственные жизни и душевное равновесие, но и за будущее всех нас…

• Качество: BDRip 1080p• Формат: MKV• Видео кодек: AVC• Аудио кодек: AC3• Видео: AVC, 1920x806 (2.35), 59.940 fps, 14.6 Mbps• Аудио 1: AC-3, 48.0 KHz, 6 ch, 448 Kbps, CBR (Дубляж)• Аудио 2: AC-3, 48.0 KHz, 6 ch, 448 Kbps, CBR (AVO Ю.Живов)• Аудио 3: AC-3, 48.0 KHz, 6 ch, 448 Kbps, CBR (English)

GeneralUnique ID : 174910290629739046325356096752023297346 (0x83967F232DA7A41DABE82D23C7B8DD42)Complete name : D:\Моя музыка\Peklo.(2007).BDRip.1080p.[envy].[60fps].mkvFormat : MatroskaFormat version : Version 2File size : 12.1 GiBDuration : 1h 47mnOverall bit rate : 16.1 MbpsMovie name : Пекло.(2007).BDRip.1080p.[envy].[60fps]Encoded date : UTC 2014-01-11 16:19:27Writing application : mkvmerge v5.8.0 ('No Sleep / Pillow') built on Sep 2 2012 15:37:04Writing library : libebml v1.2.3 + libmatroska v1.3.0

VideoID : 1Format : AVCFormat/Info : Advanced Video CodecFormat profile : [email protected] settings, CABAC : YesFormat settings, ReFrames : 5 framesCodec ID : V_MPEG4/ISO/AVCDuration : 1h 47mnBit rate : 14.6 MbpsWidth : 1 920 pixelsHeight : 806 pixelsDisplay aspect ratio : 2.40:1Frame rate mode : ConstantFrame rate : 59.880 fpsOriginal frame rate : 59.940 fpsColor space : YUVChroma subsampling : 4:2:0Bit depth : 8 bitsScan type : ProgressiveBits/(Pixel*Frame) : 0.158Stream size : 10.7 GiB (88%)Title : Пекло.(2007).BDRip.1080p.[envy].[60fps]Writing library : x264 core 140 r2377 1ca7bb9Encoding settings : cabac=1 / ref=5 / deblock=1:-1:-1 / analyse=0x3:0x133 / me=umh / subme=11 / psy=1 / psy_rd=1.00:0.00 / mixed_ref=1 / me_range=32 / chroma_me=1 / trellis=2 / 8x8dct=1 / cqm=0 / deadzone=21,11 / fast_pskip=0 / chroma_qp_offset=-2 / threads=12 / lookahead_threads=1 / sliced_threads=0 / nr=0 / decimate=1 / interlaced=0 / bluray_compat=0 / constrained_intra=0 / bframes=5 / b_pyramid=2 / b_adapt=2 / b_bias=0 / direct=3 / weightb=1 / open_gop=0 / weightp=2 / keyint=250 / keyint_min=25 / scenecut=40 / intra_refresh=0 / rc=2pass / mbtree=0 / bitrate=14640 / ratetol=2.0 / qcomp=0.60 / qpmin=0 / qpmax=69 / qpstep=4 / cplxblur=20.0 / qblur=0.5 / ip_ratio=1.40 / pb_ratio=1.30 / aq=1:1.00Language : EnglishDefault : YesForced : No

Audio #1ID : 2Format : AC-3Format/Info : Audio Coding 3Mode extension : CM (complete main)Format settings, Endianness : BigCodec ID : A_AC3Duration : 1h 47mnBit rate mode : ConstantBit rate : 448 KbpsChannel(s) : 6 channelsChannel positions : Front: L C R, Side: L R, LFESampling rate : 48.0 KHzBit depth : 16 bitsCompression mode : LossyStream size : 344 MiB (3%)Title : DubLanguage : RussianDefault : YesForced : No

Audio #2ID : 3Format : AC-3Format/Info : Audio Coding 3Mode extension : CM (complete main)Format settings, Endianness : BigCodec ID : A_AC3Duration : 1h 47mnBit rate mode : ConstantBit rate : 448 KbpsChannel(s) : 6 channelsChannel positions : Front: L C R, Side: L R, LFESampling rate : 48.0 KHzBit depth : 16 bitsCompression mode : LossyStream size : 344 MiB (3%)Title : ZhivovLanguage : RussianDefault : NoForced : No

Audio #3ID : 4Format : AC-3Format/Info : Audio Coding 3Mode extension : CM (complete main)Format settings, Endianness : BigCodec ID : A_AC3Duration : 1h 47mnBit rate mode : ConstantBit rate : 640 KbpsChannel(s) : 6 channelsChannel positions : Front: L C R, Side: L R, LFESampling rate : 48.0 KHzBit depth : 16 bitsCompression mode : LossyStream size : 492 MiB (4%)Title : EngLanguage : EnglishDefault : NoForced : No

Text #1ID : 5Format : UTF-8Codec ID : S_TEXT/UTF8Codec ID/Info : UTF-8 Plain TextTitle : rus fullLanguage : RussianDefault : NoForced : No

Text #2ID : 6Format : UTF-8Codec ID : S_TEXT/UTF8Codec ID/Info : UTF-8 Plain TextTitle : eng fullLanguage : EnglishDefault : NoForced : No

piratbit.ru

Скачать фильм Пекло через торрент в хорошем качестве бесплатно 1080p)

Размер: 10.87 GB | Добавлен: 5 лет 4 мес. назад | Торрент скачан:220 раз
Реклама Дарим 3000 рублей за регистрацию, не упусти свой шанс получить шикарный бонус!!!

01-06-2012 09:11 Пекло Скачать торрент  

Пекло / Sunshine«Грядут темные дни»Год выпуска: 2007Страна: США, ВеликобританияЖанр: фантастика, триллер, приключенияПродолжительность: 01:47:27Перевод: Дубляж + Оригинал

Режиссер: Дэнни Бойл

В ролях: Клифф Кертис, Чипо Чанг, Киллиан Мерфи, Мишель Йео, Хироюки Санада, Роуз Бирн, Бенедикт Вонг, Крис Эванс, Трой Гэрити, Марк Стронг, Палома Баеза, Арчи МакДональд, Сильвия МакДональд

Описание: 2057 год. Солнце погибает, и человечество встает перед лицом вымирания. Последняя надежда планеты Земля связана с «Икаром 2» - космическим кораблем, экипаж которого состоит из восьми мужчин и женщин во главе с капитаном Канедой. Их миссия - доставить ядерный заряд, с помощью которого предполагается повторно воспламенить гаснущее Солнце.

Во время своего путешествия, находясь далеко в космическом безмолвии, в отсутствии какого-либо радиоконтакта с Землей, экипаж слышит слабые позывные сигналы с космического корабля «Икар 1», который пропал, выполняя семь лет назад ту же самую миссию, что и «Икар 2». Ужасная катастрофа ввергает миссию в очень опасную и рискованную ситуацию, и скоро команда обнаруживает, что вынуждена бороться не только за свои собственные жизни и душевное равновесие, но и за будущее всех нас...

Качество: BDRip (1080p)Формат: MKVВидео кодек: Другой MPEG4-AVCАудио кодек: DTSВидео: AVC, 1920x806 (2.35:1), 23.976 fps, 11.8 Mbps (0.317 bit/pixel)Аудио#1: Russian: 48 kHz, DTS, 3/2 (L,C,R,l,r) + LFE ch, ~755.00 kbps avg |Дубляж|Аудио#2: English: 48 kHz, DTS, 3/2 (L,C,R,l,r) + LFE ch, ~1510.00 kbps avgАудио#3: Аудио #3: AC-3, 48.0 KHz, 2 ch, 224 Kbps, CBR (English)Субтитры: Russian, Russian, Russian, English, German

Релиз от: ОбщееУникальный идентификатор : 181917993447665970483142216143845017283 (0x88DC218FCB3A032AA5020FEB3C2146C3)Полное имя : E:\Пекло2007.Blu-ray.1080p.x264.Rus.Eng.mkvФормат : MatroskaВерсия формата : Version 2Размер файла : 10,9 ГбайтПродолжительность : 1 ч. 47 м.Общий поток : 14,5 Мбит/секНазвание фильма : Sunshine.2007.Blu-ray.1080p.x264-HNSДата кодирования : UTC 2010-11-24 20:13:30Программа кодирования : mkvmerge v3.4.0 ('Rapunzel') built on May 15 2010 09:38:20Библиотека кодирования : libebml v0.8.0 + libmatroska v0.9.0Attachment : Yes / Yes / Yes / Yes / Yes / Yes / Yes / Yes / Yes

ВидеоИдентификатор : 1Формат : AVCФормат/Информация : Advanced Video CodecПрофиль формата : [email protected]Параметр CABAC формата : ДаПараметр ReFrames формата : 5 кадровИдентификатор кодека : V_MPEG4/ISO/AVCПродолжительность : 1 ч. 47 м.Битрейт : 11,8 Мбит/секШирина : 1920 пикселейВысота : 806 пикселейСоотношение сторон : 2,40:1Частота кадров : 23,976 кадра/секЦветовое пространство : YUVСубдискретизация насыщенности : 4:2:0Битовая глубина : 8 битТип развёртки : ПрогрессивнаяБит/(Пиксели*Кадры) : 0.317Размер потока : 8,62 Гбайт (79%)Библиотека кодирования : x264 core 107 r1766 f9f0035Настройки программы : cabac=1 / ref=5 / deblock=1:-3:-3 / analyse=0x3:0x113 / me=esa / subme=10 / psy=1 / psy_rd=1.00:0.00 / mixed_ref=1 / me_range=24 / chroma_me=1 / trellis=2 / 8x8dct=1 / cqm=0 / deadzone=21,11 / fast_pskip=0 / chroma_qp_offset=-2 / threads=12 / sliced_threads=0 / nr=0 / decimate=0 / interlaced=0 / constrained_intra=0 / bframes=10 / b_pyramid=2 / b_adapt=2 / b_bias=0 / direct=3 / weightb=1 / open_gop=0 / weightp=2 / keyint=250 / keyint_min=23 / scenecut=40 / intra_refresh=0 / rc_lookahead=60 / rc=2pass / mbtree=0 / bitrate=11777 / ratetol=1.0 / qcomp=0.60 / qpmin=10 / qpmax=51 / qpstep=4 / cplxblur=20.0 / qblur=0.5 / vbv_maxrate=50000 / vbv_bufsize=62500 / ip_ratio=1.40 / pb_ratio=1.30 / aq=1:0.80 / nal_hrd=noneЯзык : EnglishDefault : НетForced : НетКоэффициенты матрицы : BT.709-5, BT.1361, IEC 61966-2-4 709, SMPTE RP177

Аудио #1Идентификатор : 2Формат : DTSФормат/Информация : Digital Theater SystemsИдентификатор кодека : A_DTSПродолжительность : 1 ч. 47 м.Вид битрейта : ПостоянныйБитрейт : 755 Кбит/секКаналы : 6 каналовРасположение каналов : Front: L C R, Side: L R, LFEЧастота : 48,0 КГцБитовая глубина : 24 битМетод сжатия : С потерямиРазмер потока : 580 Мбайт (5%)Заголовок : DubЯзык : RussianDefault : ДаForced : Нет

Аудио #2Идентификатор : 3Формат : DTSФормат/Информация : Digital Theater SystemsИдентификатор кодека : A_DTSПродолжительность : 1 ч. 47 м.Вид битрейта : ПостоянныйБитрейт : 1510 Кбит/секКаналы : 6 каналовРасположение каналов : Front: L C R, Side: L R, LFEЧастота : 48,0 КГцБитовая глубина : 24 битМетод сжатия : С потерямиРазмер потока : 1,13 Гбайт (10%)Язык : EnglishDefault : НетForced : Нет

Аудио #3Идентификатор : 4Формат : AC-3Формат/Информация : Audio Coding 3Расширение режима : CM (complete main)Параметр Endianness формата : BigИдентификатор кодека : A_AC3Продолжительность : 1 ч. 47 м.Вид битрейта : ПостоянныйБитрейт : 224 Кбит/секКаналы : 2 каналаРасположение каналов : Front: L RЧастота : 48,0 КГцБитовая глубина : 16 битМетод сжатия : С потерямиРазмер потока : 172 Мбайт (2%)Заголовок : Danny Boyle commentaryЯзык : EnglishDefault : НетForced : Нет

Аудио #4Идентификатор : 5Формат : AC-3Формат/Информация : Audio Coding 3Расширение режима : CM (complete main)Параметр Endianness формата : BigИдентификатор кодека : A_AC3Продолжительность : 1 ч. 47 м.Вид битрейта : ПостоянныйБитрейт : 224 Кбит/секКаналы : 2 каналаРасположение каналов : Front: L RЧастота : 48,0 КГцБитовая глубина : 16 битМетод сжатия : С потерямиРазмер потока : 172 Мбайт (2%)Заголовок : Dr. Brian Cox commentaryЯзык : EnglishDefault : НетForced : Нет

Текст #1Идентификатор : 6Формат : ASSИдентификатор кодека : S_TEXT/ASSИдентификатор кодека/Информация : Advanced Sub Station AlphaМетод сжатия : Без потерьЗаголовок : FullЯзык : RussianDefault : НетForced : Нет

Текст #2Идентификатор : 7Формат : ASSИдентификатор кодека : S_TEXT/ASSИдентификатор кодека/Информация : Advanced Sub Station AlphaМетод сжатия : Без потерьЗаголовок : Danny Boyle commentaryЯзык : RussianDefault : НетForced : Нет

Текст #3Идентификатор : 8Формат : ASSИдентификатор кодека : S_TEXT/ASSИдентификатор кодека/Информация : Advanced Sub Station AlphaМетод сжатия : Без потерьЗаголовок : Dr. Brian Cox commentaryЯзык : RussianDefault : НетForced : Нет

Текст #4Идентификатор : 9Формат : ASSИдентификатор кодека : S_TEXT/ASSИдентификатор кодека/Информация : Advanced Sub Station AlphaМетод сжатия : Без потерьЗаголовок : FullЯзык : EnglishDefault : НетForced : Нет

Текст #5Идентификатор : 10Формат : ASSИдентификатор кодека : S_TEXT/ASSИдентификатор кодека/Информация : Advanced Sub Station AlphaМетод сжатия : Без потерьЗаголовок : FullЯзык : GermanDefault : НетForced : Нет

Меню00:00:00.000 : en:Dying Sun00:04:07.330 : en:Final Message00:08:10.573 : en:Psych Eval00:12:41.260 : en:Risk Assessment00:21:23.407 : en:Accuracy Unknown00:24:57.245 : en:New Trajectory00:35:15.238 : en:First Priority00:39:15.311 : en:Full Sunlight00:47:03.779 : en:Icarus I00:52:57.340 : en:Abandoned Mission00:56:25.298 : en:The Airlock01:04:05.549 : en:We Love You01:05:40.853 : en:Crew Vote01:11:22.945 : en:Identify Yourself01:17:05.662 : en:Sabotage01:24:36.988 : en:Manual Override01:30:36.597 : en:Payload01:34:21.363 : en:Into the Sun01:39:32.466 : en:A Beautiful Day01:40:52.421 : en:End Titles/Avenue of Hope

Скачать Пекло через торрент http://lostpic.net/images/06122425226b0f14f50c852ca71e5c06.jpg Скачать фильм Пекло через торрент бесплантно в хорошем качестве Описание: 2057 год. Солнце погибает, и человечество встает перед лицом вымирания. Последняя надежда планеты Земля связана с «Икаром 2» - ... 2012-06-01 09:11 10 10 3

Loading...

Loading...

Рекламный пират

01-06-2012 09:19 Пекло Скачать торрент  

Релиз уменьшен на 3 гига пришлось чуть пожать)

01-06-2012 11:47 Пекло Скачать торрент  

на удивление путевый фильм

01-06-2012 11:49 Пекло Скачать торрент  

Фильм хороший!!!Тем кто не смотрел обязателен к просмотру!!!

01-06-2012 13:40 Пекло Скачать торрент  

Фильм можно посмотреть. Из 5 на 4 )

15-12-2015 20:59 Пекло Скачать торрент  

И как это я пропустил такое кино..?Хорошую космическую фантастику всегда приятно посмотреть.Красивые эффекты, интересный сюжет. Конечно слегка наивное или глупое поведение персонажей иногда проскальзывает. Финального злыдня, я даже сразу не признал-всех имен-то не упомнишь ).Тем не менее такие космические драмы, невзирая на мелкие огрехи, всегда (или почти всегда) имеют моменты, ради которых я лично смотрю такое кино, которые заставляют задуматься, сопережить-а как бы я поступил в такой ситуации.Обязательно посмотрите это кино!

13-03-2016 11:22 Пекло Скачать торрент  

Ого, я что-то пропустил. Качну завтра. Спасибо!

Дорогой пользователь! Огромная просьба, поблагодарите релизера, оцените раздачу и оставьте свои комментарий, если Вы скачали Пекло через торрент бесплатно! Внесите свою лепту в развитие PiratBit!

Комментировать посты могут только пользователи прошедшие не сложную регистрацию

Пекло через торрент Скачать бесплатно Пекло Пекло скачать торрент Пекло смотреть онлайн Cкачать фильм Пекло бесплатно Пекло скачать торрент в хорошем качестве Пекло смотреть онлайн бесплатно в хорошем качестве

Вы не можете начинать темыВы не можете отвечать на сообщенияВы не можете редактировать свои сообщенияВы не можете удалять свои сообщенияВы не можете голосовать в опросахВы не можете прикреплять файлы к сообщениямВы можете скачивать файлы

piratbit.ru


Смотрите также