Париж город мертвых 2014 скачать через торрент в хорошем качестве


Город мёртвых (2014) через торрент

gig-torrent.net

20 февраля 2016 09:58 Париж: Город Мертвых / As Above, So Below (2014) BDRip 720p | дополнительные материалы .torrent   [Информация о файле (нажмите для просмотра)] Качество: BDRipВидео: 1280x720 (16:9), 23,976 fps, h364, ~5000 kbps avg, ~0.230 bit/pixelАудио: 48 kHz, AC3 Dolby Digital, 2/0 (L,R), ~192.00 kbps avgПеревод: СубтитрыСубтитры: Русские субтитры: есть 135,75 Mb 4 5
20 февраля 2016 09:58 Париж: Город мёртвых / As Above, So Below (2014) HDRip-AVC | D | Лицензия .torrent   [Информация о файле (нажмите для просмотра)] Перевод: ДубляжКодек: x264Качество: HDRip-AVC [Исходник: BDRip 109=80p]Видео: 768x416 (1.85:1), 23.976 fps, x264 ~1045 kbps avg, 0.136 bit/pixelЗвук: 48 kHz, AAC-HE, 2 ch, Front: L R ~72 kbps avg 744,02 Mb 78 2
20 февраля 2016 09:58 Париж: Город мёртвых / As Above, So Below (2014) BDRip-AVC от HELLYWOOD | Лицензия .torrent   [Информация о файле (нажмите для просмотра)] Перевод: Профессиональный (полное дублирование) [лицензия BD CEE]Субтитры: Русские (полные + форс.), украинcкие, английские (Full + SDH + SDH-Colored)Качество: BDRip-AVCФормат: MKVВидео: x.264, 1056x572 (1,85:1), 23,976 fps, 2464 kbps, 0.170 bit/pixelАудио#1: 48 kHz, AC3 Dolby Digital, 3/2 (L,C,R,l,r) + LFE ch, 448.00 kbps |RUSАудио#2: 48 kHz, AC3 Dolby Digital, 3/2 (L,C,R,l,r) + LFE ch, 448.00 kbps |ENG 2,18 Gb 18 4
20 февраля 2016 09:58 Париж: Город мёртвых / As Above, So Below (2014) BDRip 1080p от NNNB | D, A .torrent   [Информация о файле (нажмите для просмотра)] Перевод: Дублированный, Авторский (одноголосый)Качество: BDRip 1080p (исходник Blu-ray)Формат: AVC (библиотека кодирования x.264)Видео: 1920x1040 (16:9), 10020 Кбит/сек, 23,976 кадр/сек, 0,209 Бит/[Пиксели*Кадры]Аудио №1: русский / AC3 / 5.1 / 48 kHz / 640 kbps / 16 bit|Дублированный| Аудио №2: русский / AC3 / 5.1 / 48 kHz / 640 kbps / 16 bit|Авторский одноголосый (Д.Есарев)| Аудио №3: английский / AC3 / 5.1 / 48 kHz / 640 kbps / 16 bitСубтитры: русские (Russian), русские (Forced), английские (English), английские (SDH) 7,76 Gb 12 3
20 февраля 2016 09:58 Париж: Город мёртвых / As Above, So Below (2014) HDRip от Scarabey | D | Лицензия .torrent   [Информация о файле (нажмите для просмотра)] Перевод: Профессиональный (полное дублирование) - ЛицензияКонтейнер: AVIВидео: 704x384 (1.83:1), 23.976 fps, XviD build 73 ~1832 kbps avg, 0.28 bit/pixelАудио: 48 kHz, AC3 Dolby Digital, 3/2 (L,C,R,l,r) + LFE ch, ~448.00 kbps avg 1,49 Gb 37 6
20 февраля 2016 09:58 Париж: Город мёртвых / As Above, So Below (2014) HDRip от Scarabey | D | Лицензия .torrent   [Информация о файле (нажмите для просмотра)] Перевод: Профессиональный (полное дублирование) - ЛицензияКонтейнер: AVIВидео: 624x336 (1.86:1), 23.976 fps, XviD build 73 ~983 kbps avg, 0.20 bit/pixelАудио: 48 kHz, MPEG Layer 3, 2 ch, ~128.00 kbps avg 746,47 Mb 20 1
20 февраля 2016 09:58 Париж: Город мёртвых / As Above, So Below (2014) BDRip от HQCLUB | Лицензия .torrent   [Информация о файле (нажмите для просмотра)] Перевод: профессиональный (полное дублирование)СЕЕСубтитры: русские (полные, форсированные), английские (полные, SDH), украинскиеФормат: AVIКачество: BDRip (источник:Видео: 704x384 (1.83:1), 23,976 fps, XviD build 65 ~1777 kbps avg, 0.27 bit/pixelАудио #1: 48 kHz, AC3 Dolby Digital, 3/2 (L,C,R,l,r) + LFE ch, ~448 kbps avg (DUB)Аудио #2: 48 kHz, AC3 Dolby Digital, 3/2 (L,C,R,l,r) + LFE ch, ~448 kbps avg (AVO.ESAREV)(отдельно)Аудио #3: 48 kHz, AC3 Dolby Digital, 3/2 (L,C,R,l,r) + LFE ch, ~448 kbps avg (ENG)(отдельно) 1,45 Gb 32 1
20 февраля 2016 09:58 Париж: Город мёртвых / As Above, So Below (2014) BDRip 720p от Leonardo and Scarabey | Лицензия .torrent   [Информация о файле (нажмите для просмотра)] Перевод: Профессиональный (полное дублирование) ЛицензияФормат: MKVВидео кодек: MPEG-4 AVC Аудио кодек: AC3Видео: AVC, 1280x694 (1.85:1) at 23.976 fps, AVC at 4704 kbps avg, 0.221 bit/pixelАудио: Russian; AC3; 640 Kbps; CBR; 6 ch; 16 bitСубтитры: Русские, английские 3,54 Gb 25 2
20 февраля 2016 09:58 Париж: Город мёртвых / As Above, So Below (2014) BDRemux 1080p от ExKinoRay | D, A | Лицензия .torrent   [Информация о файле (нажмите для просмотра)] Качество: Blu-Ray Remux (1080p)Видео: MPEG-4 AVC, 30921 Кбит/с, 1920x1080Аудио: Русский (AC3, 6 ch, 640 Кбит/с), (DTS, 6 ch, 768 Кбит/c), (DTS-HD MA, 8 ch, 4504 Кбит/c), английский (DTS-HD MA, 8 ch, 4412 Кбит/c)Субтитры: Русские, латышские, литовские, эстонские, украинские, английские 28,53 Gb 3 5
20 февраля 2016 09:58 Париж: Город мёртвых / As Above, So Below (2014) BDRip 1080p | D, A | Лицензия .torrent   [Информация о файле (нажмите для просмотра)] Перевод: Перевод: Профессиональный (дублированный) Перевод 2: Авторский одноголосый закадровый Д. ЕсаревКодек: mkvКачество: BDRip 1080pВидео: MPEG-4 AVC, 14.3 Mбит/с, 1920x1040, 23,976 fpsЗвук: Аудио: Rus, DTS, 768 kb/s (6 ch), 48 kHz - Дубляж Аудио 2: Rus, DTS, 1510 kb/s (6 ch), 48 kHz - Д. Есарев Аудио 3: Eng, DTS, 1510 kb/s (6 ch), 48 kHzСубтитры: Rus, Ukr, Eng 12,01 Gb 11 2
20 февраля 2016 09:57 Париж: Город мёртвых / As Above, So Below (2014) BDRip от Twi7ter | D | Лицензия .torrent   [Информация о файле (нажмите для просмотра)] Перевод: Дублированный [Лицензия BD CEE]Субтитры: НетКачество: BDRip/исх.: As Above So Below 2014 1080p BluRay AVC DTS-HD MA 7 1-HDA/Формат: AVIВидео: 720x384 (1.88:1), 23.976 fps, XviD build 73 ~1804 kbps avg, 0.27 bit/pixelАудио: 48 kHz, AC3 Dolby Digital, 3/2 (L,C,R,l,r) + LFE ch, ~448 kbps 1,47 Gb 54 2
20 февраля 2016 09:57 Париж: Город мёртвых / As Above, So Below (2014) BDRip 720p | Лицензия .torrent   [Информация о файле (нажмите для просмотра)] Перевод: Перевод: Профессиональный (дублированный) Перевод 2: Одноголосый закадровый Д. ЕсаревКодек: mkvКачество: BDRip 720pВидео: MPEG-4 AVC, 7285 Кбит/с, 1280x694, 23,976 fpsЗвук: Аудио: Rus, AC3, 640 kb/s (6 ch), 48 kHz - Дубляж Аудио 2: Rus, AC3, 640 kb/s (6 ch), 48 kHz - Д. Есарев Аудио 3: Eng, AC3, 640 kb/s (6 ch), 48 kHzСубтитры: Rus, Ukr, Eng 6,11 Gb 6 2
20 февраля 2016 09:57 Париж: Город мёртвых / As Above, So Below (2014) BDRip-AVC от MediaClub | D, A | Лицензия .torrent   [Информация о файле (нажмите для просмотра)] Перевод: Дублированный, авторскийКачество: BDRip (AVC)Видео: MPEG-4 AVC, 2700 Кбит/с, 1024x554, 23.976 кадр/сАудио #1: Русский (AC3, 6 ch, 448 Кбит/с) / Дублированный (BD CEE)Аудио #2: Русский (AC3, 6 ch, 448 Кбит/с) / Авторский одноголосый (Есарев)Аудио #3: Английский (AC3, 6 ch, 448 Кбит/с)Субтитры: Английские (Full, SDH, Colored)Видео: Идентификатор : 1 Формат : AVC Формат/Информация : Advanced Video Codec Профиль формата : [email protected] Параметр CABAC формата : Да Параметр ReFrames формата : 10 кадров Идентификатор кодека : V_MPEG4/ISO/AVC Продолжительность : 1 ч. 33 м. Битрейт : 2700 Кбит/сек Ширина : 1024 пикселя Высота : 554 пикселя Соотношение сторон : 1,85:1 Режим частоты кадров : Постоянный Частота кадров : 23,976 кадра/сек Цветовое пространство : YUV Субдискретизация насыщенности : 4:2:0 Битовая глубина : 8 бит Тип развёртки : Прогрессивная Бит/(Пиксели*Кадры) : 0.199 Размер потока : 1,71 Гбайт (65%) Заголовок : -=MediaClub-kaspr=- Библиотека кодирования : x264 core 142 r2431+42 c69a006 tMod [[email protected]:2:0 X86_64] Настройки программы : cabac=1 / ref=10 / deblock=1:-3:-3 / analyse=0x3:0x113 / me=umh / subme=11 / psy=1 / fade_compensate=0.00 / psy_rd=1.00:0.20 / mixed_ref=1 / me_range=32 / chroma_me=1 / trellis=2 / 8x8dct=1 / cqm=0 / deadzone=21,11 / fast_pskip=0 / chroma_qp_offset=-3 / threads=12 / lookahead_threads=3 / sliced_threads=0 / nr=0 / decimate=0 / interlaced=0 / bluray_compat=0 / constrained_intra=0 / fgo=0 / bframes=14 / b_pyramid=2 / b_adapt=2 / b_bias=0 / direct=3 / weightb=1 / open_gop=0 / weightp=2 / keyint=240 / keyint_min=23 / scenecut=40 / intra_refresh=0 / rc=2pass / mbtree=0 / bitrate=2700 / ratetol=1.0 / qcomp=0.60 / qpmin=0:0:0 / qpmax=69:69:69 / qpstep=4 / cplxblur=20.0 / qblur=0.5 / ip_ratio=1.40 / pb_ratio=1.30 / aq=4:0.80 / aq-sensitivity=10.00 / aq-factor=1.00:1.00:1.00 / aq2=0 / aq3=0 Default : Да Forced : Нет DURATION : 01:33:08.542000000 NUMBER_OF_FRAMES : 133991 NUMBER_OF_BYTES : 1885656901 _STATISTICS_WRITING_APP : mkvmerge v7.0.0 ('Where We Going') 64bit built on Jun 9 2014 15:16:27 _STATISTICS_WRITING_DATE_UTC : 2014-11-27 05:49:32 _STATISTICS_TAGS : BPS DURATION NUMBER_OF_FRAMES NUMBER_OF_BYTESАудио #1: Идентификатор : 2 Формат : AC-3 Формат/Информация : Audio Coding 3 Расширение режима : CM (complete main) Параметр Endianness формата : Big Идентификатор кодека : A_AC3 Продолжительность : 1 ч. 33 м. Вид битрейта : Постоянный Битрейт : 448 Кбит/сек Каналы : 6 каналов Расположение каналов : Front: L C R, Side: L R, LFE Частота : 48,0 КГц Битовая глубина : 16 бит Метод сжатия : С потерями Размер потока : 298 Мбайт (11%) Заголовок : Dub Язык : Russian Default : Да Forced : НетАудио #2: Идентификатор : 3 Формат : AC-3 Формат/Информация : Audio Coding 3 Расширение режима : CM (complete main) Параметр Endianness формата : Big Идентификатор кодека : A_AC3 Продолжительность : 1 ч. 33 м. Вид битрейта : Постоянный Битрейт : 448 Кбит/сек Каналы : 6 каналов Расположение каналов : Front: L C R, Side: L R, LFE Частота : 48,0 КГц Битовая глубина : 16 бит Метод сжатия : С потерями Размер потока : 298 Мбайт (11%) Заголовок : Есарев Язык : Russian Default : Нет Forced : НетАудио #3: Идентификатор : 4 Формат : AC-3 Формат/Информация : Audio Coding 3 Расширение режима : CM (complete main) Параметр Endianness формата : Big Идентификатор кодека : A_AC3 Продолжительность : 1 ч. 33 м. Вид битрейта : Постоянный Битрейт : 448 Кбит/сек Каналы : 6 каналов Расположение каналов : Front: L C R, Side: L R, LFE Частота : 48,0 КГц Битовая глубина : 16 бит Метод сжатия : С потерями Размер потока : 298 Мбайт (11%) Язык : English Default : Нет Forced : Нет 2,63 Gb 5 1
20 февраля 2016 09:57 Париж: Город мёртвых / As Above, So Below (2014) BDRip 1080p | iTunes, Есарев .torrent   [Информация о файле (нажмите для просмотра)] Перевод: Профессиональный (полное дублирование) - iTunes, Авторский (одноголосый, закадровый) - Д.ЕсаревКачество: BDRip 1080pФормат: MKVВидео: MPEG/ AVC, 1920x1040 (1.85:1), 10.7 Мбит/сек, 23.976 кадра/секАудио 1: AC3, 6 каналов, 384 Кбит/сек |iTunesАудио 2: AC3, 6 каналов, 640 Кбит/сек |Д.ЕсаревАудио 3: DTS, 6 каналов, 1509 Кбит/сек |Д.ЕсаревАудио 4: DTS, 6 каналов, 1509 Кбит/сек |АнглийскийСубтитры: Английские (Full, SDH, SDH-Colored)Видео: Идентификатор : 1 Формат : AVC Формат/Информация : Advanced Video Codec Профиль формата : [email protected] Параметр CABAC формата : Да Параметр ReFrames формата : 4 кадра Идентификатор кодека : V_MPEG4/ISO/AVC Продолжительность : 1 ч. 33 м. Битрейт : 10,7 Мбит/сек Ширина : 1920 пикселей Высота : 1040 пикселей Соотношение сторон : 1,85:1 Режим частоты кадров : Постоянный Частота кадров : 23,976 кадра/сек Цветовое пространство : YUV Субдискретизация насыщенности : 4:2:0 Битовая глубина : 8 бит Тип развёртки : Прогрессивная Бит/(Пиксели*Кадры) : 0.223 Размер потока : 6,75 Гбайт (71%) Заголовок : CHD Библиотека кодирования : x264 core 142 r2431 ac76440 Настройки программы : cabac=1 / ref=4 / deblock=1:-3:-3 / analyse=0x3:0x113 / me=umh / subme=10 / psy=1 / psy_rd=1.00:0.05 / mixed_ref=1 / me_range=32 / chroma_me=1 / trellis=2 / 8x8dct=1 / cqm=0 / deadzone=21,11 / fast_pskip=0 / chroma_qp_offset=-2 / threads=18 / lookahead_threads=1 / sliced_threads=0 / nr=0 / decimate=1 / interlaced=0 / bluray_compat=0 / constrained_intra=0 / bframes=4 / b_pyramid=2 / b_adapt=2 / b_bias=0 / direct=3 / weightb=1 / open_gop=0 / weightp=2 / keyint=250 / keyint_min=23 / scenecut=40 / intra_refresh=0 / rc=2pass / mbtree=0 / bitrate=10661 / ratetol=1.0 / qcomp=0.70 / qpmin=0 / qpmax=69 / qpstep=4 / cplxblur=20.0 / qblur=0.5 / ip_ratio=1.40 / pb_ratio=1.30 / aq=2:1.00 Язык : English Default : Да Forced : Нет Аудио #1: Идентификатор : 2 Формат : AC-3 Формат/Информация : Audio Coding 3 Расширение режима : CM (complete main) Параметр Endianness формата : Big Идентификатор кодека : A_AC3 Продолжительность : 1 ч. 33 м. Вид битрейта : Постоянный Битрейт : 384 Кбит/сек Каналы : 6 каналов Расположение каналов : Front: L C R, Side: L R, LFE Частота : 48,0 КГц Битовая глубина : 16 бит Метод сжатия : С потерями Размер потока : 256 Мбайт (3%) Заголовок : D | iTunes Язык : Russian Default : Да Forced : Нет Аудио #2: Идентификатор : 3 Формат : AC-3 Формат/Информация : Audio Coding 3 Расширение режима : CM (complete main) Параметр Endianness формата : Big Идентификатор кодека : A_AC3 Продолжительность : 1 ч. 33 м. Вид битрейта : Постоянный Битрейт : 640 Кбит/сек Каналы : 6 каналов Расположение каналов : Front: L C R, Side: L R, LFE Частота : 48,0 КГц Битовая глубина : 16 бит Метод сжатия : С потерями Размер потока : 426 Мбайт (4%) Заголовок : A | Д.Есарев Язык : Russian Default : Нет Forced : Нет Аудио #3: Идентификатор : 4 Формат : DTS Формат/Информация : Digital Theater Systems Режим : 16 Параметр Endianness формата : Big Идентификатор кодека : A_DTS Продолжительность : 1 ч. 33 м. Вид битрейта : Постоянный Битрейт : 1510 Кбит/сек Каналы : 6 каналов Расположение каналов : Front: L C R, Side: L R, LFE Частота : 48,0 КГц Битовая глубина : 24 бит Метод сжатия : С потерями Размер потока : 1006 Мбайт (10%) Заголовок : A | Д.Есарев Язык : Russian Default : Нет Forced : Нет Аудио #4: Идентификатор : 5 Формат : DTS Формат/Информация : Digital Theater Systems Режим : 16 Параметр Endianness формата : Big Идентификатор кодека : A_DTS Продолжительность : 1 ч. 33 м. Вид битрейта : Постоянный Битрейт : 1509 Кбит/сек Каналы : 6 каналов Расположение каналов : Front: L C R, Side: L R, LFE Частота : 48,0 КГц Битовая глубина : 24 бит Метод сжатия : С потерями Размер потока : 1005 Мбайт (10%) Заголовок : Original Язык : English Default : Нет Forced : Нет 9,57 Gb 3 5
20 февраля 2016 09:57 Париж: Город мёртвых / As Above, So Below (2014) BDRip-AVC | iTunes, Есарев .torrent   [Информация о файле (нажмите для просмотра)] Перевод: Дублированный / Авторский одноголосыйСубтитры: АнглийскиеКодек: H.264Формат: MKVКачество: BDRip-AVC (Blu-Ray Remux (1080р))Видео: MPEG-4 AVC, 3189 Кбит/с, 1024х552Звук: Русский (АС3, 6 ch, 384 Кбит/с), (АС3, 6 ch, 448 Кбит/с), английский (АС3, 6 ch, 448 Кбит/с)Перевод: AC3, 6 ch, 384 Кбит/с - 2,91 Gb 6 2
20 февраля 2016 09:57 Париж: Город мёртвых / As Above, So Below (2014) BDRip 720p от KinoRay | iTunes .torrent   [Информация о файле (нажмите для просмотра)] Формат: MKV (H.264)Качество: BDRip 720pВидео: 7286 Kb/s, 1280x694Аудио: Russian: AC3, 384 kb/s (6 ch) / English: DTS, 1510 kb/s (6 ch)Субтитры: English 6,09 Gb 9 1
20 февраля 2016 09:57 Париж: Город мёртвых / As Above, So Below (2014) HDRip | iTunes .torrent   [Информация о файле (нажмите для просмотра)] Формат: AVI (XviD)Качество: HDRip [рип с BDRip 720p]Видео: 1708 kb/s, 720x384Аудио: AC3, 384 kb/s (6 ch) 1,37 Gb 47 1
20 февраля 2016 09:57 Париж: Город мёртвых / As Above, So Below (2014) BDRip-AVC от Leo.pard and Scarabey | Чистый звук .torrent   [Информация о файле (нажмите для просмотра)] Перевод: Профессиональный (дублированный) чистый звукФормат: MKVВидео: x264, 768x416 (1.85:1), 1545 Kbps, 23.976 fpsАудио: AC3, 384 Kbps, 48 KHz, 2 channelsСубтитры: Английские (Full, SDH, SDH-Colored) 1,26 Gb 15 1
20 февраля 2016 09:57 Париж: Город мёртвых / As Above, So Below (2014) BDRip 1080p | Чистый Звук .torrent   [Информация о файле (нажмите для просмотра)] Перевод: Профессиональный (полное дублирование) Чистый ЗвукКодек: AVC MPEG-4(H.264)Качество: BDRip 1080pВидео: 1920x1040p (16:9), 23.976 fps, AVC MPEG-4(H.264), [email protected], ~ 10,4 Мбит/сек, 0.217 Bits/(Pixel*Frame)Звук: Русский 48 kHz, (AC3), 2ch, ~ 384 kbps, Английский 48 kHz, (DTS), 6ch, ~ 1510 kbpsСубтитры: Английские (SDH), английские (полные), английские (SDH, Colored) 8,17 Gb 15 5

Город мёртвых через торрент в хорошем качестве бесплатно BDRip-AVC

GeneralUnique ID : 230101405667142125658916618129866314957 (0xAD1BEB32ACE3564FBDF1F020228554CD)Complete name : D:\Users\_KaisiK_\uTorrent\КИНО\Parizh.Gorod.mertvyh.2014.BDRip.(AVC)-MediaClub.mkvFormat : MatroskaFormat version : Version 4 / Version 2File size : 2.30 GiBDuration : 1h 33mnOverall bit rate : 3 533 KbpsMovie name : -=MediaClub-kaspr=-Encoded date : UTC 2014-11-27 05:49:32Writing application : mkvmerge v7.0.0 ('Where We Going') 64bit built on Jun 9 2014 15:16:27Writing library : libebml v1.3.0 + libmatroska v1.4.1DURATION : 01:33:03.104000000NUMBER_OF_FRAMES : 174472NUMBER_OF_BYTES : 267988992_STATISTICS_WRITING_APP : mkvmerge v7.0.0 ('Where We Going') 64bit built on Jun 9 2014 15:16:27_STATISTICS_WRITING_DATE_UTC : 2014-11-27 05:49:32_STATISTICS_TAGS : BPS DURATION NUMBER_OF_FRAMES NUMBER_OF_BYTES

VideoID : 1Format : AVCFormat/Info : Advanced Video CodecFormat profile : [email protected] settings, CABAC : YesFormat settings, ReFrames : 10 framesCodec ID : V_MPEG4/ISO/AVCDuration : 1h 33mnBit rate : 2 700 KbpsWidth : 1 024 pixelsHeight : 554 pixelsDisplay aspect ratio : 16:9Frame rate : 23.976 fpsColor space : YUVChroma subsampling : 4:2:0Bit depth : 8 bitsScan type : ProgressiveBits/(Pixel*Frame) : 0.199Stream size : 1.71 GiB (74%)Title : -=MediaClub-kaspr=-Writing library : x264 core 142 r2431+42 c69a006 tMod [[email protected]:2:0 X86_64]Encoding settings : cabac=1 / ref=10 / deblock=1:-3:-3 / analyse=0x3:0x113 / me=umh / subme=11 / psy=1 / fade_compensate=0.00 / psy_rd=1.00:0.20 / mixed_ref=1 / me_range=32 / chroma_me=1 / trellis=2 / 8x8dct=1 / cqm=0 / deadzone=21,11 / fast_pskip=0 / chroma_qp_offset=-3 / threads=12 / lookahead_threads=3 / sliced_threads=0 / nr=0 / decimate=0 / interlaced=0 / bluray_compat=0 / constrained_intra=0 / fgo=0 / bframes=14 / b_pyramid=2 / b_adapt=2 / b_bias=0 / direct=3 / weightb=1 / open_gop=0 / weightp=2 / keyint=240 / keyint_min=23 / scenecut=40 / intra_refresh=0 / rc=2pass / mbtree=0 / bitrate=2700 / ratetol=1.0 / qcomp=0.60 / qpmin=0:0:0 / qpmax=69:69:69 / qpstep=4 / cplxblur=20.0 / qblur=0.5 / ip_ratio=1.40 / pb_ratio=1.30 / aq=4:0.80 / aq-sensitivity=10.00 / aq-factor=1.00:1.00:1.00 / aq2=0 / aq3=0Default : YesForced : NoDURATION : 01:33:08.542000000NUMBER_OF_FRAMES : 133991NUMBER_OF_BYTES : 1885656901_STATISTICS_WRITING_APP : mkvmerge v7.0.0 ('Where We Going') 64bit built on Jun 9 2014 15:16:27_STATISTICS_WRITING_DATE_UTC : 2014-11-27 05:49:32_STATISTICS_TAGS : BPS DURATION NUMBER_OF_FRAMES NUMBER_OF_BYTES

Audio #1ID : 2Format : AC-3Format/Info : Audio Coding 3Mode extension : CM (complete main)Codec ID : A_AC3Duration : 1h 33mnBit rate mode : ConstantBit rate : 384 KbpsChannel(s) : 6 channelsChannel positions : Front: L C R, Side: L R, LFESampling rate : 48.0 KHzBit depth : 16 bitsCompression mode : LossyStream size : 256 MiB (11%)Title : DubLanguage : RussianDefault : YesForced : No

Audio #2ID : 3Format : AC-3Format/Info : Audio Coding 3Mode extension : CM (complete main)Codec ID : A_AC3Duration : 1h 33mnBit rate mode : ConstantBit rate : 448 KbpsChannel(s) : 6 channelsChannel positions : Front: L C R, Side: L R, LFESampling rate : 48.0 KHzBit depth : 16 bitsCompression mode : LossyStream size : 298 MiB (13%)Language : EnglishDefault : NoForced : No

Text #1ID : 4Format : UTF-8Codec ID : S_TEXT/UTF8Codec ID/Info : UTF-8 Plain TextTitle : FullLanguage : EnglishDefault : NoForced : No

Text #2ID : 5Format : UTF-8Codec ID : S_TEXT/UTF8Codec ID/Info : UTF-8 Plain TextTitle : SDHLanguage : EnglishDefault : NoForced : No

Text #3ID : 6Format : UTF-8Codec ID : S_TEXT/UTF8Codec ID/Info : UTF-8 Plain TextTitle : ColoredLanguage : EnglishDefault : NoForced : No

Menu00:00:00.000 : en:00:00:00.00000:07:00.045 : en:00:07:00.04500:09:42.749 : en:00:09:42.74900:13:18.673 : en:00:13:18.67300:18:37.074 : en:00:18:37.07400:22:33.352 : en:00:22:33.35200:24:42.815 : en:00:24:42.81500:29:38.777 : en:00:29:38.77700:33:03.857 : en:00:33:03.85700:37:17.777 : en:00:37:17.77700:43:05.333 : en:00:43:05.33300:47:07.491 : en:00:47:07.49100:53:20.739 : en:00:53:20.73900:59:00.328 : en:00:59:00.32801:05:33.555 : en:01:05:33.55501:11:40.213 : en:01:11:40.21301:16:05.603 : en:01:16:05.60301:20:20.733 : en:01:20:20.73301:26:02.616 : en:01:26:02.61601:27:57.189 : en:01:27:57.189

[/code]

piratbit.ru

Город мёртвых через торрент в хорошем качестве бесплатно 1080p

Format                                   : MatroskaFormat version                           : Version 2File size                                : 7.76 GiBDuration                                 : 1h 33mnOverall bit rate                         : 11.9 MbpsMovie name                               : Parizh: Gorod mjortvyh.(2014).BDRip.1080p.[denis100]Encoded date                             : UTC 2014-12-16 09:21:02Writing application                      : mkvmerge v5.8.0 ('No Sleep / Pillow') built on Sep  2 2012 15:37:04Writing library                          : libebml v1.2.3 + libmatroska v1.3.0

VideoID                                       : 1Format                                   : AVCFormat/Info                              : Advanced Video CodecFormat profile                           : [email protected] settings, CABAC                   : YesFormat settings, ReFrames                : 4 framesCodec ID                                 : V_MPEG4/ISO/AVCDuration                                 : 1h 33mnBit rate                                 : 10.0 MbpsWidth                                    : 1 920 pixelsHeight                                   : 1 040 pixelsDisplay aspect ratio                     : 16:9Frame rate                               : 23.976 fpsColor space                              : YUVChroma subsampling                       : 4:2:0Bit depth                                : 8 bitsScan type                                : ProgressiveBits/(Pixel*Frame)                       : 0.209Stream size                              : 6.36 GiB (82%)Title                                    : Parizh: Gorod mjortvyh.(2014).BDRip.1080p.[denis100]Writing library                          : x264 core 142 r2491 24e4fedEncoding settings                        : cabac=1 / ref=4 / deblock=1:-3:-3 / analyse=0x3:0x133 / me=umh / subme=11 / psy=1 / psy_rd=1.00:0.10 / mixed_ref=1 / me_range=32 / chroma_me=1 / trellis=2 / 8x8dct=1 / cqm=0 / deadzone=21,11 / fast_pskip=0 / chroma_qp_offset=-3 / threads=6 / lookahead_threads=1 / sliced_threads=0 / nr=0 / decimate=1 / interlaced=0 / bluray_compat=0 / constrained_intra=0 / bframes=7 / b_pyramid=2 / b_adapt=2 / b_bias=0 / direct=3 / weightb=1 / open_gop=0 / weightp=2 / keyint=240 / keyint_min=23 / scenecut=40 / intra_refresh=0 / rc=2pass / mbtree=0 / bitrate=10020 / ratetol=1.0 / qcomp=0.60 / qpmin=0 / qpmax=69 / qpstep=4 / cplxblur=20.0 / qblur=0.5 / ip_ratio=1.40 / pb_ratio=1.30 / aq=1:1.00Language                                 : EnglishDefault                                  : YesForced                                   : No

Audio #1ID                                       : 2Format                                   : AC-3Format/Info                              : Audio Coding 3Mode extension                           : CM (complete main)Codec ID                                 : A_AC3Duration                                 : 1h 33mnBit rate mode                            : ConstantBit rate                                 : 640 KbpsChannel(s)                               : 6 channelsChannel positions                        : Front: L C R, Side: L R, LFESampling rate                            : 48.0 KHzBit depth                                : 16 bitsCompression mode                         : LossyStream size                              : 426 MiB (5%)Title                                    : ДублированныйLanguage                                 : RussianDefault                                  : YesForced                                   : No

Audio #2ID                                       : 3Format                                   : AC-3Format/Info                              : Audio Coding 3Mode extension                           : CM (complete main)Codec ID                                 : A_AC3Duration                                 : 1h 33mnBit rate mode                            : ConstantBit rate                                 : 640 KbpsChannel(s)                               : 6 channelsChannel positions                        : Front: L C R, Side: L R, LFESampling rate                            : 48.0 KHzBit depth                                : 16 bitsCompression mode                         : LossyStream size                              : 426 MiB (5%)Title                                    : Авторский одноголосый (Д.Есарев)Language                                 : RussianDefault                                  : NoForced                                   : No

Audio #3ID                                       : 4Format                                   : AC-3Format/Info                              : Audio Coding 3Mode extension                           : CM (complete main)Codec ID                                 : A_AC3Duration                                 : 1h 33mnBit rate mode                            : ConstantBit rate                                 : 640 KbpsChannel(s)                               : 6 channelsChannel positions                        : Front: L C R, Side: L R, LFESampling rate                            : 48.0 KHzBit depth                                : 16 bitsCompression mode                         : LossyStream size                              : 426 MiB (5%)Title                                    : EnglishLanguage                                 : EnglishDefault                                  : NoForced                                   : No

Text #1ID                                       : 5Format                                   : UTF-8Codec ID                                 : S_TEXT/UTF8Codec ID/Info                            : UTF-8 Plain TextTitle                                    : RussianLanguage                                 : RussianDefault                                  : NoForced                                   : No

Text #2ID                                       : 6Format                                   : UTF-8Codec ID                                 : S_TEXT/UTF8Codec ID/Info                            : UTF-8 Plain TextTitle                                    : ForcedLanguage                                 : RussianDefault                                  : YesForced                                   : No

Text #3ID                                       : 7Format                                   : UTF-8Codec ID                                 : S_TEXT/UTF8Codec ID/Info                            : UTF-8 Plain TextTitle                                    : EnglishLanguage                                 : EnglishDefault                                  : NoForced                                   : No

Text #4ID                                       : 8Format                                   : UTF-8Codec ID                                 : S_TEXT/UTF8Codec ID/Info                            : UTF-8 Plain TextTitle                                    : SDHLanguage                                 : EnglishDefault                                  : NoForced                                   : No

Menu00:00:00.000                             : en:00:00:00.00000:07:00.044                             : en:00:07:00.04400:09:42.748                             : en:00:09:42.74800:13:18.672                             : en:00:13:18.67200:18:37.074                             : en:00:18:37.07400:22:33.352                             : en:00:22:33.35200:24:42.814                             : en:00:24:42.81400:29:38.777                             : en:00:29:38.77700:33:03.856                             : en:00:33:03.85600:37:17.777                             : en:00:37:17.77700:43:05.332                             : en:00:43:05.33200:47:07.491                             : en:00:47:07.49100:53:20.739                             : en:00:53:20.73900:59:00.328                             : en:00:59:00.32801:05:33.554                             : en:01:05:33.55401:11:40.212                             : en:01:11:40.21201:16:05.602                             : en:01:16:05.60201:20:20.732                             : en:01:20:20.73201:26:02.615                             : en:01:26:02.61501:27:57.188                             : en:01:27:57.188

piratbit.ru

Город мёртвых через торрент в хорошем качестве бесплатно BDRip

piratbit.ru

Качают: 1 [ 0 KB/s ]
Размер: 1.45 GB | Добавлен: 2 года 10 мес. назад | Торрент скачан:1712 раз
Реклама Дарим 3000 рублей за регистрацию, не упусти свой шанс получить шикарный бонус!!!

16-12-2014 13:49 Париж: Город мёртвых Скачать торрент  

Париж: Город мёртвых / As Above, So Below«Увидеть Париж и умереть» Год выпуска: 2014 Страна:США Жанр:ужасы, триллер Продолжительность: 01:33:08 Перевод:Дубляж - [Лицензия] Режиссер:Джон Эрик Даудл В ролях: Пердита Викс (Scarlett), Бен Фельдман (George), Эдвин Ходж (Benji), Франсуа Сивиль (Papillon), Мэрион Ламберт (Souxie), Али Мархьяр (Zed), Косме Кастро (La Taupe), Хамид Джавадан (Reza), Тео Чолби (Gloomy Teenager), Эми Леви (Tour Guide), Рогер Ван Хол (Scarlett's Father), Оливия Чики Трнка (Strange Young Woman)
  • Описание:Величие Эйфелевой башни и роскошь бутиков, ароматы изысканной кухни и краски Елисейских полей - это лишь саван, под которым скрывается настоящий Париж. Здесь, в бесконечных катакомбах живут истинные владыки этого мира. Заблудшая душа, добро пожаловать в Город мертвых... Качество:BDRip [исх. Blu-ray] Формат:AVI Видео кодек: XviD Аудио кодек:AC3 Видео: 704x384 (1.83:1), 23,976 fps, XviD build 65 ~1777 kbps avg, 0.27 bit/pixel Аудио: 48 kHz, AC3 Dolby Digital, 3/2 (L,C,R,l,r) + LFE ch, ~448 kbps avgСкриншоты: Каталог Новинок (Фильмы-трейлеры, Игры, Сериалы, Мультфильмы) © Оформление by Raven
  • Скачать Париж: Город мёртвых через торрент http://pic.pb.wtf/images/6/ordi9.jpg Скачать фильм Париж: Город мёртвых через торрент бесплантно в хорошем качестве Описание:Величие Эйфелевой башни и роскошь бутиков, ароматы изысканной кухни и краски Елисейских полей - это лишь саван, под которым ... 2014-12-16 13:49 9.6 10 43

    Loading...

    Loading...

    % Раздел Тема Автор DL S | L
    Фильмы (BDRip, HDrip-AVC) (48-60 fps) [ 3.54 GB ] Париж: Город мёртвых / As Above So Below [2014 BDRip-AVC 60fps ] Tiberiumsun69 Скачать
    Фильмы с авторской озвучкой [ 1.46 GB ] Париж: Город мёртвых / As Above So Below [2014 HDRip Авторский одноголосый "Д. Есарев "] coc900 Скачать
    Фильмы [HD 720p, 1080p] (Хороший звук DUB, MVO) [ 7.76 GB ] Париж: Город мёртвых / As Above So Below [2014 BDRip 1080p +Авторский ] _denis_100 Скачать
    Фильмы 2014 [DVDrip, WEB-DLRip, HDrip] [ 1.37 GB ] Париж: Город мёртвых / As Above So Below [2014 HDRip ] Ворон Скачать
    Фильмы (Blu-ray, BD-Remux, HDDVD) [ 25.82 GB ] Париж: Город мёртвых / As Above So Below [2014 BDRemux 1080p] DUB AVO [Есарев] Ворон Скачать
    Фильмы (Blu-ray, BD-Remux, HDDVD) [ 29.67 GB ] Париж: Город мёртвых / As Above So Below [2014 Blu-ray ] Wollishofen Скачать
    Фильмы [HD 720p, 1080p] (Хороший звук DUB, MVO) [ 14.73 GB ] Париж: Город мёртвых / As Above So Below [2014 BDRip 1080p] 2xDub + AVO + Original + Sub Seedtank Скачать

    Рекламный пират

    17-12-2014 01:38 Париж: Город мёртвых Скачать торрент  

    17-12-2014 10:08 Париж: Город мёртвых Скачать торрент  

    как фильмец то ?

    17-12-2014 15:48 Париж: Город мёртвых Скачать торрент  

    Хорош Фильмец. Смотреть можно! На 1ном дыхании....

    17-12-2014 18:20 Париж: Город мёртвых Скачать торрент  

    Фильм отличный, советую посмотреть

    18-12-2014 21:17 Париж: Город мёртвых Скачать торрент  

    Фильм хороший, смотреть однозначно стоит. Спасибо за релиз.

    29-12-2014 15:44 Париж: Город мёртвых Скачать торрент  

    дешевое во всех отношениях кино. рекомендуется перемотка

    30-12-2014 05:10 Париж: Город мёртвых Скачать торрент  

    искал хот что то хорошее в фильме.увы не понравился кинчик.

    03-01-2015 18:52 Париж: Город мёртвых Скачать торрент  

    ничего хорошего не увидел

    Pекламный агент PB

    03-01-2015 21:31 Париж: Город мёртвых Скачать торрент  

    Ну имя Пердита конечно чутка подбодрило - хотя всё равно не рискнул посмотреть данный кинец!

    09-01-2015 12:34 Париж: Город мёртвых Скачать торрент  

    09-01-2015 20:13 Париж: Город мёртвых Скачать торрент  

    Нормальный фильмец , Пердита хорошо отыграла :pleasantry: :pleasantry: :pleasantry:

    11-03-2015 15:24 Париж: Город мёртвых Скачать торрент  

    Хорошо кино, посмотрел понравилось

    12-03-2015 13:58 Париж: Город мёртвых Скачать торрент  

    Дорогой пользователь! Огромная просьба, поблагодарите релизера, оцените раздачу и оставьте свои комментарий, если Вы скачали Париж: Город мёртвых через торрент бесплатно! Внесите свою лепту в развитие PiratBit!

    Комментировать посты могут только пользователи прошедшие не сложную регистрацию

    Париж: Город мёртвых через торрент Скачать бесплатно Париж: Город мёртвых Париж: Город мёртвых скачать торрент Париж: Город мёртвых смотреть онлайн Cкачать фильм Париж: Город мёртвых бесплатно Париж: Город мёртвых скачать торрент в хорошем качестве Париж: Город мёртвых смотреть онлайн бесплатно в хорошем качестве

    Вы не можете начинать темыВы не можете отвечать на сообщенияВы не можете редактировать свои сообщенияВы не можете удалять свои сообщенияВы не можете голосовать в опросахВы не можете прикреплять файлы к сообщениямВы можете скачивать файлы

    Город мёртвых через торрент в хорошем качестве бесплатно 1080p] DUB

    General

    Complete name : As.Above.So.Below.2014.1080p.BluRay.Remux.ExKinoRay.mkv

    Format : Matroska

    Format version : Version 2

    File size : 25.8 GiB

    Duration : 1h 33mn

    Overall bit rate mode : Variable

    Overall bit rate : 39.7 Mbps

    Encoded date : UTC 2014-11-27 18:16:40

    Writing application : mkvmerge v5.8.0 ('No Sleep / Pillow') built on Sep 2 2012 15:37:04

    Writing library : libebml v1.2.3 + libmatroska v1.3.0

    Video

    ID : 1

    Format : AVC

    Format/Info : Advanced Video Codec

    Format profile : [email protected]

    Format settings, CABAC : Yes

    Format settings, ReFrames : 4 frames

    Format settings, GOP : M=3, N=12

    Codec ID : V_MPEG4/ISO/AVC

    Duration : 1h 33mn

    Bit rate mode : Variable

    Maximum bit rate : 33.0 Mbps

    Width : 1 920 pixels

    Height : 1 080 pixels

    Display aspect ratio : 16:9

    Frame rate mode : Constant

    Frame rate : 23.976 fps

    Color space : YUV

    Chroma subsampling : 4:2:0

    Bit depth : 8 bits

    Scan type : Progressive

    Language : English

    Default : Yes

    Forced : Yes

    Audio #1

    ID : 2

    Format : AC-3

    Format/Info : Audio Coding 3

    Mode extension : CM (complete main)

    Format settings, Endianness : Big

    Codec ID : A_AC3

    Duration : 1h 33mn

    Bit rate mode : Constant

    Bit rate : 384 Kbps

    Channel(s) : 6 channels

    Channel positions : Front: L C R, Side: L R, LFE

    Sampling rate : 48.0 KHz

    Bit depth : 16 bits

    Compression mode : Lossy

    Stream size : 256 MiB (1%)

    Title : Dub

    Language : Russian

    Default : Yes

    Forced : Yes

    Audio #2

    ID : 3

    Format : DTS

    Format/Info : Digital Theater Systems

    Format profile : MA / Core

    Mode : 16

    Format settings, Endianness : Big

    Codec ID : A_DTS

    Duration : 1h 33mn

    Bit rate mode : Variable

    Bit rate : Unknown / 1 509 Kbps

    Channel(s) : 8 channels / 6 channels

    Channel positions : Front: L C R, Side: L R, Back: L R, LFE / Front: L C R, Side: L R, LFE

    Sampling rate : 48.0 KHz

    Bit depth : 24 bits

    Compression mode : Lossless / Lossy

    Title : Esarev

    Language : Russian

    Default : No

    Forced : No

    Audio #3

    ID : 4

    Format : DTS

    Format/Info : Digital Theater Systems

    Format profile : MA / Core

    Mode : 16

    Format settings, Endianness : Big

    Codec ID : A_DTS

    Duration : 1h 33mn

    Bit rate mode : Variable

    Bit rate : Unknown / 1 509 Kbps

    Channel(s) : 8 channels / 6 channels

    Channel positions : Front: L C R, Side: L R, Back: L R, LFE / Front: L C R, Side: L R, LFE

    Sampling rate : 48.0 KHz

    Bit depth : 24 bits

    Compression mode : Lossless / Lossy

    Language : English

    Default : No

    Forced : No

    Text

    ID : 5

    Format : UTF-8

    Codec ID : S_TEXT/UTF8

    Codec ID/Info : UTF-8 Plain Text

    Language : English

    Default : No

    Forced : No

    Menu

    00:00:00.000 : en:00:00:00.000

    00:07:00.045 : en:00:07:00.045

    00:09:42.749 : en:00:09:42.749

    00:13:18.673 : en:00:13:18.673

    00:18:37.074 : en:00:18:37.074

    00:22:33.352 : en:00:22:33.352

    00:24:42.815 : en:00:24:42.815

    00:29:38.777 : en:00:29:38.777

    00:33:03.857 : en:00:33:03.857

    00:37:17.777 : en:00:37:17.777

    00:43:05.333 : en:00:43:05.333

    00:47:07.491 : en:00:47:07.491

    00:53:20.739 : en:00:53:20.739

    00:59:00.328 : en:00:59:00.328

    01:05:33.555 : en:01:05:33.555

    01:11:40.213 : en:01:11:40.213

    01:16:05.603 : en:01:16:05.603

    01:20:20.733 : en:01:20:20.733

    01:26:02.616 : en:01:26:02.616

    01:27:57.189 : en:01:27:57.189

    piratbit.ru

    Город мёртвых через торрент в хорошем качестве бесплатно BDRip-AVC 60fps

    GeneralUnique ID : 186829462533666181818828835525878685998 (0x8C8E0BAEFAEEED17B657233D9FE1212E)Complete name : B:\Париж город Мертвых BDRip-AVC 60fps.mkvFormat : MatroskaFormat version : Version 4 / Version 2File size : 3.54 GiBDuration : 1h 33mnOverall bit rate : 5 452 KbpsMovie name : R.G HD-Films by Tiberiumsun69Encoded date : UTC 2015-05-19 10:54:50Writing application : mkvmerge v7.8.0 ('River Man') 64bit built on Mar 27 2015 16:31:37Writing library : libebml v1.3.1 + libmatroska v1.4.2Attachment : Yes

    VideoID : 1Format : AVCFormat/Info : Advanced Video CodecFormat profile : [email protected] settings, CABAC : YesFormat settings, ReFrames : 4 framesCodec ID : V_MPEG4/ISO/AVCDuration : 1h 33mnBit rate : 5 000 KbpsWidth : 1 024 pixelsHeight : 552 pixelsDisplay aspect ratio : 1.855Frame rate : 59.940 fpsColor space : YUVChroma subsampling : 4:2:0Bit depth : 8 bitsScan type : ProgressiveBits/(Pixel*Frame) : 0.148Stream size : 3.18 GiB (90%)Title : R.G HD-Films by Tiberiumsun69Writing library : x264 core 146 r2538 121396cEncoding settings : cabac=1 / ref=4 / deblock=1:-2:-1 / analyse=0x3:0x113 / me=umh / subme=11 / psy=1 / psy_rd=1.00:0.20 / mixed_ref=1 / me_range=32 / chroma_me=1 / trellis=2 / 8x8dct=1 / cqm=0 / deadzone=21,11 / fast_pskip=0 / chroma_qp_offset=-3 / threads=12 / lookahead_threads=1 / sliced_threads=0 / nr=0 / decimate=0 / interlaced=0 / bluray_compat=0 / constrained_intra=0 / bframes=3 / b_pyramid=2 / b_adapt=2 / b_bias=0 / direct=3 / weightb=1 / open_gop=0 / weightp=2 / keyint=600 / keyint_min=59 / scenecut=40 / intra_refresh=0 / rc_lookahead=60 / rc=2pass / mbtree=1 / bitrate=5000 / ratetol=1.0 / qcomp=0.60 / qpmin=0 / qpmax=69 / qpstep=4 / cplxblur=20.0 / qblur=0.5 / vbv_maxrate=50000 / vbv_bufsize=62500 / nal_hrd=none / filler=0 / ip_ratio=1.40 / aq=1:1.00Language : EnglishDefault : YesForced : No

    AudioID : 2Format : AC-3Format/Info : Audio Coding 3Mode extension : CM (complete main)Codec ID : A_AC3Duration : 1h 33mnBit rate mode : ConstantBit rate : 448 KbpsChannel(s) : 6 channelsChannel positions : Front: L C R, Side: L R, LFESampling rate : 48.0 KHzBit depth : 16 bitsCompression mode : LossyStream size : 298 MiB (8%)Title : ДубляжLanguage : RussianDefault : YesForced : No

    Text #1ID : 3Format : UTF-8Codec ID : S_TEXT/UTF8Codec ID/Info : UTF-8 Plain TextTitle : ФорсированныеLanguage : RussianDefault : YesForced : No

    Text #2ID : 4Format : UTF-8Codec ID : S_TEXT/UTF8Codec ID/Info : UTF-8 Plain TextTitle : ПолныеLanguage : RussianDefault : NoForced : No

    Menu00:00:00.000 : en:Chapter 100:07:00.044 : en:Chapter 200:09:42.748 : en:Chapter 300:13:18.672 : en:Chapter 400:18:37.074 : en:Chapter 500:22:33.352 : en:Chapter 600:24:42.814 : en:Chapter 700:29:38.777 : en:Chapter 800:33:03.856 : en:Chapter 900:37:17.777 : en:Chapter 1000:43:05.332 : en:Chapter 1100:47:07.491 : en:Chapter 1200:53:20.739 : en:Chapter 1300:59:00.328 : en:Chapter 1401:05:33.554 : en:Chapter 1501:11:40.212 : en:Chapter 1601:16:05.602 : en:Chapter 1701:20:20.732 : en:Chapter 1801:26:02.615 : en:Chapter 1901:27:57.188 : en:Chapter 20

    piratbit.ru


    Смотрите также