Отцы скачать торрент в хорошем качестве hd 1080


Отцы скачать сериал торрент 2016 -

hokit.ru

Коротко о сериале "Отцы" - Кипр, сборы женских молодежных команд по волейболу. Российские старшеклассницы одерживают победу в товарищеском матче и вылетают в Москву на частном самолете своего состоятельного спонсора. Вскоре после взлета связь с экипажем теряется, а само судно пропадает с радаров. Через несколько часов напряженных поисков самолет находят на территории Ливии. Девушки оказались в руках радикальных исламистов - часть пленниц готовят к продаже на черном рынке трансплантологов, а оставшихся ждет незавидное будущее в гаремах и борделях. Среди похищенных россиянок оказалась Катя, дочь бывшего сотрудника спецслужб по имени Олег. Он незамедлительно приступает к спасению дочери, объединяя усилия с отцами других девочек из команды. Ради спасения дочерей совершенно обыкновенным мужчинам придётся совершить невозможное.

Добавлена 12 серия из 12.

Отцы

Сериал выпущен: 2016
Страна (кинокомпания): Россия
Режиссер: Аршо Арутюнян
Сценарий сериала: Михаил Погосов
Продюсер сериала: Михаил Погосов, Владимир Тюлин, Юрий Шалимов
Оператор: Артур Караян
Композитор: Станислав Егиянц
Художники: Давид Зограбян
Монтаж: Сурен Саргсян
Жанр сериала: боевик, драма, криминал
Премьера (мир):
премьера (Pоссия): 23 апреля 2017 (Рен-ТВ)
продолжительность-
В главных ролях:
Иван Оганесян
Анастасия Уколова
Маруся Климова
Владимир Стеклов
Максим Дахненко
Константин Адаев
Василий Шлыков
Сергей Губанов
Петар Зекавица
и другие ...

Трейлер фильма:

 

Сериал Отцы скачать торрент - новинка кино 2016

Скачать файлы .torrent Отцы (сериал)

на сайте Вы можете получить ссылку на торрент файлы или скачать сами торрент файлы, в которых находится информация о местонахождении фильмов, сериалов у пользователей.

В сериале "Отцы" - женская волейбольная команда оказывается в руках исламистов, отцы девочек объединяют усилия, чтобы совершить невозможное и освободить своих дочерей

Параметры: 28 апреля 2017, ], 7,92 Гб -

Формат: HDTVRip (AVC), MKV, AVC, AC3, размер файла: 7,92 Гб Видео: 1024x576, AVC - ~ 2000 Кбит/с Аудио: AC3, 2 канала, 192 Кбит/с Перевод (озвучивание):

Параметры: 23.04.2017 SATRip, 6,45 Гб

Формат: XviD, AC3, размер файла: 6,45 Гб Видео: 720x400, XviD - ~ 1510 Кбит/с Аудио: AC3, 2 канала, 192 Кбит/с Перевод (озвучивание): Оригинал

Параметры: 24.04.2017 HDTVRip, 6,44 Гб

Формат: XviD, AC3, размер файла: 6,44 Гб Видео: 720x400, XviD - ~ 1650 Кбит/с Аудио: AC3, 2 канала, 192 Кбит/с Перевод (озвучивание): Оригинал

Параметры: 24.04.2017 HDTV 1080i, 16,78 Гб

Формат: MKV, AVC, MP2, размер файла: 16,78 Гб Видео: 1920x1080, AVC - ~ 4500 Кбит/с Аудио: MP2, 2 канала, 192 Кбит/с Перевод (озвучивание): оригинал

Отцы [2017, Боевик, SATRip]

Параметры:

Формат: SATRip, AVI, XviD, MPEG Layer 3 Видео: 720x400, XviD - build 50 ~1800 Кбит/с Аудио: MPEG Layer 3, 2 канала, 128 Кбит/с Перевод (озвучивание):

Смотрите сериал Отцы онлайн:

Скачать Отцы, сериал бесплатно скачать торрент, боевик, драма, криминал, новинка кино

 

2014 hd 720, 1080

vtorrents.net

!

: : Fathers & Daughters : 2014: : : , , , , , , , , ,

IMDB: 7.1/10 (16 534 ) : 6.9/10 (6 943 )

:. , . , , . 25 , .

: , : 1 56 : | iTunes

: AVI: BDRip

1437

616

udp://shubt.net:2710

232 1 43

udp://bt.megapeer.org:6969

428 3 1654

udp://kaztorka.org:2710

34 13 58

http://tracker.filetracker.pl:8089/announce

74 62 35

http://tracker2.wasabii.com.tw:6969/announce

26 66 20

http://tracker.grepler.com:6969/announce

59 15 13

http://80.246.243.18:6969/announce

73 41 57

http://125.227.35.196:6969/announce

25 16 64

http://tracker.tiny-vps.com:6969/announce

29 47 40

http://87.248.186.252:8080/announce

19 95 46

http://www.torrentheaven.de/announce.php

79 100 37

http://tracker.mp3-es.com/announce.php

60 64 28

http://tracker.calculate.ru:6969/announce

68 22 19

http://210.244.71.25:6969/announce

200 4 489

http://46.4.109.148:6969/announce

12 42 34

http://tracker.dler.org:6969/announce

19 25 32

1,41 Gb

463

Fathers.and.Daughters.2015.BDRip.1.41Gb.MegaPeer.avi (1,41 Gb)

880

909

udp://shubt.net:2710

32 2 6

udp://tracker.openbittorrent.com:80/announce

30 99 93

udp://tracker.publicbt.com:80/announce

90 32 82

http://tracker.filetracker.pl:8089/announce

93 21 10

http://tracker2.wasabii.com.tw:6969/announce

77 91 78

http://tracker.grepler.com:6969/announce

87 99 30

http://80.246.243.18:6969/announce

48 37 92

http://125.227.35.196:6969/announce

14 76 73

http://tracker.tiny-vps.com:6969/announce

95 76 28

http://87.248.186.252:8080/announce

15 22 20

http://www.torrentheaven.de/announce.php

96 73 64

http://tracker.mp3-es.com/announce.php

56 19 99

http://tracker.calculate.ru:6969/announce

72 62 16

http://210.244.71.25:6969/announce

20 41 77

http://46.4.109.148:6969/announce

20 77 21

http://tracker.dler.org:6969/announce

35 82 58

5,88 Gb

29

Fathers.and.Daughters.2015.BDRip.720p.ExKinoRay.mkv (5,88 Gb)

830

788

udp://shubt.net:2710

27 1 4

udp://tracker.openbittorrent.com:80/announce

12 24 43

udp://tracker.publicbt.com:80/announce

26 98 52

http://tracker.filetracker.pl:8089/announce

27 62 98

http://tracker2.wasabii.com.tw:6969/announce

47 25 50

http://tracker.grepler.com:6969/announce

51 20 96

http://80.246.243.18:6969/announce

30 81 100

http://125.227.35.196:6969/announce

51 74 62

http://tracker.tiny-vps.com:6969/announce

79 89 93

http://87.248.186.252:8080/announce

99 53 61

http://www.torrentheaven.de/announce.php

29 81 59

http://tracker.mp3-es.com/announce.php

77 24 76

http://tracker.calculate.ru:6969/announce

52 74 84

http://210.244.71.25:6969/announce

49 30 185

http://46.4.109.148:6969/announce

79 23 37

http://tracker.dler.org:6969/announce

95 29 48

8,68 Gb

16

Fathers.and.Daughters.2015.BDRip.1080p.ExKinoRay.mkv (8,68 Gb)

Скачать фильм Отцы и дочери через торрент в хорошем качестве бесплатно 1080p

GeneralUnique ID : 197982359135372926202948719706168029916 (0x94F203F0B9A34AABBC50EFA13D36F2DC)Complete name : E:\Fathers.and.Daughters.2015.BDRip.1080p.ExKinoRay.mkvFormat : MatroskaFormat version : Version 4 / Version 2File size : 8.68 GiBDuration : 1 h 56 minOverall bit rate : 10.7 Mb/sEncoded date : UTC 2017-04-08 23:37:20Writing application : mkvmerge v10.0.0 ('To Drown In You') 64bitWriting library : libebml v1.3.4 + libmatroska v1.4.5

VideoID : 1Format : AVCFormat/Info : Advanced Video CodecFormat profile : [email protected] settings, CABAC : YesFormat settings, ReFrames : 5 framesCodec ID : V_MPEG4/ISO/AVCDuration : 1 h 56 minBit rate : 8 561 kb/sWidth : 1 920 pixelsHeight : 800 pixelsDisplay aspect ratio : 2.40:1Frame rate mode : ConstantFrame rate : 24.000 FPSColor space : YUVChroma subsampling : 4:2:0Bit depth : 8 bitsScan type : ProgressiveBits/(Pixel*Frame) : 0.232Stream size : 6.97 GiB (80%)Writing library : x264 core 142 r2431+42 c69a006 tMod [[email protected] X86_64]Encoding settings : cabac=1 / ref=5 / deblock=1:-3:-3 / analyse=0x3:0x133 / me=umh / subme=11 / psy=1 / fade_compensate=0.00 / psy_rd=1.00:1.00 / mixed_ref=1 / me_range=48 / chroma_me=1 / trellis=2 / 8x8dct=1 / cqm=0 / deadzone=21,11 / fast_pskip=0 / chroma_qp_offset=-4 / threads=16 / lookahead_threads=2 / sliced_threads=0 / nr=0 / decimate=0 / interlaced=0 / bluray_compat=0 / constrained_intra=0 / fgo=0 / bframes=8 / b_pyramid=2 / b_adapt=2 / b_bias=0 / direct=3 / weightb=1 / open_gop=0 / weightp=2 / keyint=240 / keyint_min=24 / scenecut=40 / intra_refresh=0 / rc_lookahead=150 / rc=crf / mbtree=1 / crf=16.3000 / qcomp=0.60 / qpmin=0:0:0 / qpmax=69:69:69 / qpstep=4 / vbv_maxrate=40000 / vbv_bufsize=30000 / crf_max=0.0 / nal_hrd=none / filler=0 / ip_ratio=1.20 / aq=2:0.68 / aq-sensitivity=10.00 / aq-factor=1.00:1.00:1.00 / aq2=0 / aq3=0Language : EnglishDefault : YesForced : NoColor range : LimitedColor primaries : BT.709Transfer characteristics : BT.709Matrix coefficients : BT.709

Audio #1ID : 2Format : AC-3Format/Info : Audio Coding 3Mode extension : CM (complete main)Format settings, Endianness : BigCodec ID : A_AC3Duration : 1 h 56 minBit rate mode : ConstantBit rate : 384 kb/sChannel(s) : 6 channelsChannel positions : Front: L C R, Side: L R, LFESampling rate : 48.0 kHzFrame rate : 31.250 FPS (1536 spf)Compression mode : LossyStream size : 320 MiB (4%)Title : iTunesLanguage : RussianDefault : YesForced : No

Audio #2ID : 3Format : DTSFormat/Info : Digital Theater SystemsMode : 16Format settings, Endianness : BigCodec ID : A_DTSDuration : 1 h 56 minBit rate mode : ConstantBit rate : 1 509 kb/sChannel(s) : 6 channelsChannel positions : Front: L C R, Side: L R, LFESampling rate : 48.0 kHzFrame rate : 93.750 FPS (512 spf)Bit depth : 24 bitsCompression mode : LossyStream size : 1.23 GiB (14%)Title : OriginalLanguage : EnglishDefault : NoForced : No

TextID : 4Format : UTF-8Codec ID : S_TEXT/UTF8Codec ID/Info : UTF-8 Plain TextTitle : FullLanguage : EnglishDefault : NoForced : No

Menu00:00:00.000 : en:Chapter 0100:07:24.375 : en:Chapter 0200:16:56.166 : en:Chapter 0300:22:22.250 : en:Chapter 0400:27:17.375 : en:Chapter 0500:32:08.083 : en:Chapter 0600:38:12.458 : en:Chapter 0700:45:13.125 : en:Chapter 0800:57:18.750 : en:Chapter 0901:02:31.958 : en:Chapter 1001:14:24.708 : en:Chapter 1101:22:30.125 : en:Chapter 1201:29:07.708 : en:Chapter 1301:37:38.500 : en:Chapter 1401:42:55.791 : en:Chapter 1501:50:05.458 : en:Chapter 16

piratbit.ru

Отцы и дочери (2015) HD 1080p скачать торрент в хорошем качестве

Год выпуска: 2015Страна: США, ИталияЖанр: драмаПродолжительность: 01:56:33Перевод: Дублированный [iTunes]Субтитры: английские

В ролях: Аманда Сайфред, Джейн Фонда, Аарон Пол, Дайан Крюгер, Расселл Кроу, Райан Игголд, Брюс Гринвуд, Куавенжане Уоллис, Джанет МакТир, Октавия СпенсерРежиссёр: Габриэле Муччино

Описание: История отца и дочери, живущих на Манхэттене. В прошлом персонаж Кроу — знаменитый писатель, вдовец и страдающий от психических расстройств человек — пытается вырастить 5-летнюю дочь и буквально не сойти с ума, ну а в настоящем, героиня Сейфрид, уже повзрослевшая дочка сражается с собственными демонами.

Качество: BDRip 1080pФормат: MKVВидео кодек: [email protected]Аудио кодек: AC3, DTSВидео: 1920x800, 24,000 fps, HEVC, ~3343 kbps, 10bitАудио: Rus, 48 kHz/16-bit, AC3 5.1, ~384 kbps | ДубляжАудио: Eng, 48 kHz/24-bit, DTS 5.1, ~1509 kbps | ОригиналНавигация по главам: Присутствует

- H.265/HEVC (High Efficiency Video Coding) - это новый стандарт кодирования видео.- Стандарт H.265/HEVC является логическим продолжением стандарта H.264/AVC (Advanced Video Coding), и характеризуется более эффективными алгоритмами сжатия, а также поддержкой высокого разрешения вплоть до 8K UHD (8192x4320). Первая версия стандарта H.265 была опубликована в начале 2013 года. - Рипы в фомате HEVC поддерживается не всеми аппаратными проигрывателями.- Для корректного воспроизведения может потребоваться обновление ПО.- Владельцам несовместимого железа просьба не беспокоить, есть альтернативные релизы.

ОбщееУникальный идентификатор : 205574104876416102196375328087373185231 (0x9AA821E767AA399A95B98740866B00CF)Полное имя : E:HEVCFathers and Daughters (2015)Fathers.and.Daughters.2015.1080p_HEVCCLUB.mkvФормат : MatroskaВерсия формата : Version 4 / Version 2Размер файла : 4,27 ГбайтПродолжительность : 1 ч. 56 м.Общий поток : 5239 Кбит/секНазвание фильма : Fathers and Daughters (2015) - HEVC.CLUBДата кодирования : UTC 2017-04-09 17:48:56Программа кодирования : mkvmerge v10.0.0 ('To Drown In You') 64bitБиблиотека кодирования : libebml v1.3.4 + libmatroska v1.4.5Обложка : YesAttachments : cover.jpg

ВидеоИдентификатор : 1Формат : HEVCФормат/Информация : High Efficiency Video CodingПрофиль формата : Main [email protected]@HighИдентификатор кодека : V_MPEGH/ISO/HEVCПродолжительность : 1 ч. 56 м.Битрейт : 3343 Кбит/секШирина : 1920 пикселейВысота : 800 пикселейСоотношение сторон : 2,40:1Режим частоты кадров : ПостоянныйЧастота кадров : 24,000 кадра/секЦветовое пространство : YUVСубдискретизация насыщенности : 4:2:0Битовая глубина : 10 битБит/(Пиксели*Кадры) : 0.091Размер потока : 2,72 Гбайт (64%)Заголовок : HEVC.CLUBБиблиотека кодирования : x265 2.3+24-a0eee4b41185:[Windows][GCC 6.3.0][64 bit] 10bitНастройки программы : cpuid=1173503 / frame-threads=3 / numa-pools=8 / wpp / no-pmode / no-pme / no-psnr / ssim / log-level=2 / input-csp=1 / input-res=1920x800 / interlace=0 / total-frames=0 / level-idc=41 / high-tier=1 / uhd-bd=0 / ref=6 / no-allow-non-conformance / repeat-headers / annexb / aud / hrd / info / hash=0 / no-temporal-layers / open-gop / min-keyint=23 / keyint=250 / bframes=10 / b-adapt=2 / b-pyramid / bframe-bias=0 / rc-lookahead=60 / lookahead-slices=1 / scenecut=40 / no-intra-refresh / ctu=64 / min-cu-size=8 / no-rect / no-amp / max-tu-size=32 / tu-inter-depth=3 / tu-intra-depth=3 / limit-tu=0 / rdoq-level=1 / dynamic-rd=2.00 / signhide / no-tskip / nr-intra=0 / nr-inter=0 / no-constrained-intra / no-strong-intra-smoothing / max-merge=2 / limit-refs=3 / no-limit-modes / me=1 / subme=7 / merange=64 / temporal-mvp / weightp / weightb / no-analyze-src-pics / deblock=-3:-3 / no-sao / no-sao-non-deblock / rd=4 / no-early-skip / no-rskip / no-fast-intra / no-tskip-fast / no-cu-lossless / no-b-intra / rdpenalty=0 / psy-rd=3.00 / psy-rdoq=2.00 / no-rd-refine / analysis-mode=0 / no-lossless / cbqpoffs=0 / crqpoffs=0 / rc=crf / crf=22.0 / qcomp=0.80 / qpstep=6 / stats-write=0 / stats-read=0 / vbv-maxrate=50000 / vbv-bufsize=50000 / vbv-init=0.9 / crf-max=0.0 / crf-min=0.0 / ipratio=1.50 / pbratio=1.00 / aq-mode=1 / aq-strength=0.20 / no-cutree / zone-count=0 / no-strict-cbr / qg-size=32 / no-rc-grain / qpmax=69 / qpmin=0 / sar=1 / overscan=0 / videoformat=5 / range=0 / colorprim=2 / transfer=2 / colormatrix=1 / chromaloc=0 / display-window=0 / max-cll=0,0 / min-luma=0 / max-luma=1023 / log2-max-poc-lsb=8 / vui-timing-info / vui-hrd-info / slices=1 / opt-qp-pps / opt-ref-list-length-pps / no-multi-pass-opt-rps / scenecut-bias=0.05 / no-opt-cu-delta-qp / aq-motion / no-hdr / no-hdr-opt / refine-level=5Default : ДаForced : ДаЦветовой диапазон : LimitedКоэффициенты матрицы : BT.709

Аудио #1Идентификатор : 2Формат : AC-3Формат/Информация : Audio Coding 3Расширение режима : CM (complete main)Параметр Endianness формата : BigИдентификатор кодека : A_AC3Продолжительность : 1 ч. 56 м.Вид битрейта : ПостоянныйБитрейт : 384 Кбит/секКаналы : 6 каналовРасположение каналов : Front: L C R, Side: L R, LFEЧастота : 48,0 КГцЧастота кадров : 31,250 кадров/сек (1536 spf)Битовая глубина : 16 битМетод сжатия : С потерямиРазмер потока : 320 Мбайт (7%)Заголовок : Dub [iTunes]Язык : RussianDefault : НетForced : Нет

Аудио #2Идентификатор : 3Формат : DTSФормат/Информация : Digital Theater SystemsРежим : 16Параметр Endianness формата : BigИдентификатор кодека : A_DTSПродолжительность : 1 ч. 56 м.Вид битрейта : ПостоянныйБитрейт : 1509 Кбит/секКаналы : 6 каналовРасположение каналов : Front: L C R, Side: L R, LFEЧастота : 48,0 КГцЧастота кадров : 93,750 кадра/сек (512 spf)Битовая глубина : 24 битМетод сжатия : С потерямиРазмер потока : 1,23 Гбайт (29%)Заголовок : OriginalЯзык : EnglishDefault : НетForced : Нет

ТекстИдентификатор : 4Формат : UTF-8Идентификатор кодека : S_TEXT/UTF8Идентификатор кодека/Информация : UTF-8 Plain TextПродолжительность : 1 ч. 49 м.Битрейт : 53 бит/секCount of elements : 1424Размер потока : 42,6 Кбайт (0%)Заголовок : FullЯзык : EnglishDefault : НетForced : Нет

Меню00:00:00.000 : en:Chapter 0100:07:24.375 : en:Chapter 0200:16:56.166 : en:Chapter 0300:22:22.250 : en:Chapter 0400:27:17.375 : en:Chapter 0500:32:08.083 : en:Chapter 0600:38:12.458 : en:Chapter 0700:45:13.125 : en:Chapter 0800:57:18.750 : en:Chapter 0901:02:31.958 : en:Chapter 1001:14:24.708 : en:Chapter 1101:22:30.125 : en:Chapter 1201:29:07.708 : en:Chapter 1301:37:38.500 : en:Chapter 1401:42:55.791 : en:Chapter 1501:50:05.458 : en:Chapter 16

rutorg2.ru


Смотрите также