Несносные леди скачать торрент в хорошем качестве


Скачать фильм Несносные леди через торрент в хорошем качестве бесплатно WEB-DLRip

Размер: 1.46 GB | Добавлен: 1 год 3 мес. назад | Торрент скачан:243 раза
Реклама Дарим 3000 рублей за регистрацию, не упусти свой шанс получить шикарный бонус!!!

18-07-2016 14:35 Несносные леди Скачать торрент  

Несносные леди / Mother's Day

Год выпуска: 2016Страна: СШАЖанр: драма, комедияПродолжительность: 01:53:01Перевод: Дублированное [iTunes]Субтитры: нет

Режиссер: Гэрри Маршалл / Garry Marshall

В ролях: Дженнифер Энистон, Джулия Робертс, Кейт Хадсон, Джейсон Судейкис, Тимоти Олифант, Шэй Митчелл, Калеб Браун, Брэндон Спинк, Сэм Маршалл, Сиена ЛаГамбина, Джозеф Лео Бвари, Мэттью Уолкер, Сюзанн Хэйринг, Марти Надлер, Роб Нэгл, Лили Маршалл-Фрикер

Описание: Фитнес и шопинг, капризные предки и непослушные дети, завистливые подружки и надоевшие бывшие — милые составляющие настоящего женского счастья. А также мужского, если ты — отец-одиночка. И неважно, где и как сведет вас жизнь, если ты встретишь настоящую любовь. Главное — не сдаваться! Ведь судьба — это большой супермаркет, а не магазин на диване.

Качество: WEB-DLRipФормат: AVIВидео кодек: XviDАудио кодек: AC3Видео: 704x384 (1.83:1), 25 fps, XviD build 67 ~1456 kbps avg, 0.22 bit/pixelАудио#1: 48 kHz, AC3 Dolby Digital, 3/2 (L,C,R,l,r) + LFE ch, ~384 kbps

ОбщееПолное имя : D:\Nesnosnye_ledy_2016_WEB-DLRip_by_Dalemake.aviФормат : AVIФормат/Информация : Audio Video InterleaveРазмер файла : 1,46 ГбайтПродолжительность : 1 ч. 53 м.Общий поток : 1850 Кбит/секПрограмма кодирования : VirtualDubMod 1.5.10.3 | www.virtualdub-fr.org || (build 2550/release)Библиотека кодирования : VirtualDubMod build 2550/release

ВидеоИдентификатор : 0Формат : MPEG-4 VisualПрофиль формата : Advanced [email protected]Параметр BVOP формата : 1Параметр QPel формата : НетПараметр GMC формата : Без точки переходаПараметр матрицы формата : ВыборочнаяИдентификатор кодека : XVIDИдентификатор кодека/Подсказка : XviDПродолжительность : 1 ч. 53 м.Битрейт : 1456 Кбит/секШирина : 704 пикселяВысота : 384 пикселяСоотношение сторон : 1,85:1Частота кадров : 25,000 кадров/секЦветовое пространство : YUVСубдискретизация насыщенности : 4:2:0Битовая глубина : 8 битТип развёртки : ПрогрессивнаяМетод сжатия : С потерямиБит/(Пиксели*Кадры) : 0.215Размер потока : 1,15 Гбайт (79%)Библиотека кодирования : XviD 67

АудиоИдентификатор : 1Формат : AC-3Формат/Информация : Audio Coding 3Расширение режима : CM (complete main)Параметр Endianness формата : BigИдентификатор кодека : 2000Продолжительность : 1 ч. 53 м.Вид битрейта : ПостоянныйБитрейт : 384 Кбит/секКаналы : 6 каналовРасположение каналов : Front: L C R, Side: L R, LFEЧастота : 48,0 КГцБитовая глубина : 16 битМетод сжатия : С потерямиРазмер потока : 310 Мбайт (21%)Выравнивание : Разделение по промежуткамПродолжительность промежутка : 40 мс. (1,00 видеокадр)Время предзагрузки промежутка : 500 мс.

Скачать Несносные леди через торрент http://i74.fastpic.ru/big/2016/0615/1d/98f9956db8a340380ccf63ca34244b1d.png Скачать фильм Несносные леди через торрент бесплантно в хорошем качестве Описание: Фитнес и шопинг, капризные предки и непослушные дети, завистливые подружки и надоевшие бывшие — милые составляющие настоящего ... 2016-07-18 14:35 8.8 10 9

Loading...

Loading...

Последний раз редактировалось: ev5 (2016-07-18 18:12), всего редактировалось 4 раз(а)

Рекламный пират

18-07-2016 19:15 Несносные леди Скачать торрент  

Терпения хватило на 20 минут :angry: С самого начала бла-бла-бла

Дорогой пользователь! Огромная просьба, поблагодарите релизера, оцените раздачу и оставьте свои комментарий, если Вы скачали Несносные леди через торрент бесплатно! Внесите свою лепту в развитие PiratBit!

Комментировать посты могут только пользователи прошедшие не сложную регистрацию

Несносные леди через торрент Скачать бесплатно Несносные леди Несносные леди скачать торрент Несносные леди смотреть онлайн Cкачать фильм Несносные леди бесплатно Несносные леди скачать торрент в хорошем качестве Несносные леди смотреть онлайн бесплатно в хорошем качестве

Вы не можете начинать темыВы не можете отвечать на сообщенияВы не можете редактировать свои сообщенияВы не можете удалять свои сообщенияВы не можете голосовать в опросахВы не можете прикреплять файлы к сообщениямВы можете скачивать файлы

piratbit.ru

Скачать фильм Несносные леди через торрент в хорошем качестве бесплатно BDRip

Размер: 1.48 GB | Добавлен: 1 год 2 мес. назад | Торрент скачан:276 раз
Реклама Дарим 3000 рублей за регистрацию, не упусти свой шанс получить шикарный бонус!!!

21-08-2016 17:24 Несносные леди Скачать торрент  

Несносные леди / Mother's Day

Год выпуска: 2016 Страна: США Жанр: Драма, Комедия Продолжительность: 01:57:52 Перевод: Дублированный [Лицензия] Тип релиза: Лицензия

Режиссер: Гэрри Маршалл Выпущено:США / Aperture Media Partner, Beatnik Films,Capacity Pictures, Gulfstream Pictures, May Day Movies

В ролях: Дженнифер Энистон, Джулия Робертс, Кейт Хадсон, Джейсон Судейкис, Шэй Митчелл, Брэндон Спинк, Мэттью Уолкер, Роб Нэгл

Описание: Фитнес и шопинг, капризные предки и непослушные дети, завистливые подружки и надоевшие бывшие — милые составляющие настоящего женского счастья.А также мужского, если ты — отец-одиночка. И неважно, где и как сведет вас жизнь, если ты встретишь настоящую любовь. Главное — не сдаваться! Ведь судьба — это большой супермаркет, а не магазин на диване.(Реклама отсутствует)

Качество: BDRipФормат: AVIВидео кодек: XviDАудио кодек: AC3Видео: Xvid, 704x384, 23.976fps, 1338 Кбит/секАудио#1: Dolby AC3, 48000Hz, 6ch, 448kbps ОбщееПолное имя : D:\релиз кино\Несносные леди.2016.BDRip.D.1.46Gb.aviФормат : AVIФормат/Информация : Audio Video InterleaveРазмер файла : 1,48 ГбайтПродолжительность : 1 ч. 57 м.Общий поток : 1794 Кбит/сек

ВидеоИдентификатор : 0Формат : MPEG-4 VisualПрофиль формата : Advanced [email protected]Параметр BVOP формата : 1Параметр QPel формата : НетПараметр GMC формата : Без точки переходаПараметр матрицы формата : ВыборочнаяИдентификатор кодека : XVIDИдентификатор кодека/Подсказка : XviDПродолжительность : 1 ч. 57 м.Битрейт : 1338 Кбит/секШирина : 704 пикселяВысота : 384 пикселяСоотношение сторон : 1,85:1Частота кадров : 23,976 (24000/1001) кадра/секЦветовое пространство : YUVСубдискретизация насыщенности : 4:2:0Битовая глубина : 8 битТип развёртки : ПрогрессивнаяМетод сжатия : С потерямиБит/(Пиксели*Кадры) : 0.206Размер потока : 1,10 Гбайт (75%)Библиотека кодирования : XviD 73

АудиоИдентификатор : 1Формат : AC-3Формат/Информация : Audio Coding 3Расширение режима : CM (complete main)Параметр Endianness формата : BigИдентификатор кодека : 2000Продолжительность : 1 ч. 57 м.Вид битрейта : ПостоянныйБитрейт : 448 Кбит/секКаналы : 6 каналовРасположение каналов : Front: L C R, Side: L R, LFEЧастота : 48,0 КГцЧастота кадров : 31,250 кадров/сек (1536 spf)Метод сжатия : С потерямиРазмер потока : 378 Мбайт (25%)Выравнивание : Соединение по промежуткамПродолжительность промежутка : 64 мс. (1,53 видеокадра)Время предзагрузки промежутка : 192 мс.Заголовок : BD RUS

Скачать Несносные леди через торрент http://pic1.pb.wtf/images/10/2eepv.jpg Скачать фильм Несносные леди через торрент бесплантно в хорошем качестве Описание: Фитнес и шопинг, капризные предки и непослушные дети, завистливые подружки и надоевшие бывшие — милые составляющие настоящего ... 2016-08-21 17:24 9.8 10 13

Loading...

Loading...

Последний раз редактировалось: DJASFUL (2016-08-21 20:07), всего редактировалось 1 раз

Рекламный пират

21-08-2016 18:56 Несносные леди Скачать торрент  

ExpertMBC! Благодарю за Золото !

21-08-2016 20:36 Несносные леди Скачать торрент  

Телки огонь, а фильм так себе)автору респект всё ровно)

21-08-2016 20:43 Несносные леди Скачать торрент  

bober100,

22-08-2016 12:58 Несносные леди Скачать торрент  

bober100 писал(а):

Телки огонь, а фильм так себе)автору респект всё ровно) ты хотел сказать тетки или бабки

Дорогой пользователь! Огромная просьба, поблагодарите релизера, оцените раздачу и оставьте свои комментарий, если Вы скачали Несносные леди через торрент бесплатно! Внесите свою лепту в развитие PiratBit!

Комментировать посты могут только пользователи прошедшие не сложную регистрацию

Несносные леди через торрент Скачать бесплатно Несносные леди Несносные леди скачать торрент Несносные леди смотреть онлайн Cкачать фильм Несносные леди бесплатно Несносные леди скачать торрент в хорошем качестве Несносные леди смотреть онлайн бесплатно в хорошем качестве

Вы не можете начинать темыВы не можете отвечать на сообщенияВы не можете редактировать свои сообщенияВы не можете удалять свои сообщенияВы не можете голосовать в опросахВы не можете прикреплять файлы к сообщениямВы можете скачивать файлы

piratbit.ru

Скачать фильм Несносные леди через торрент в хорошем качестве бесплатно BDRip от Twi7ter

Раздают: 1 [ 0 KB/s ]
Размер: 1.41 GB | Добавлен: 1 год 3 мес. назад | Торрент скачан:815 раз
Реклама Дарим 3000 рублей за регистрацию, не упусти свой шанс получить шикарный бонус!!!

23-07-2016 20:53 Несносные леди Скачать торрент  

Несносные леди / Mother's Day

«Не угадаешь, что они выкинут завтра»

Год выпуска: 2016Страна: СШАЖанр: драма, комедияПродолжительность: 01:58:50Перевод: Профессиональный (полное дублирование) [iTunes]Субтитры: НетРежиссер: Гэрри Маршалл / Garry MarshallВ ролях: Дженнифер Энистон (Sandy), Джулия Робертс (Miranda), Кейт Хадсон (Jesse), Джейсон Судейкис (Bradley), Тимоти Олифант (Henry), Шэй Митчелл (Tina), Калеб Браун (Mikey), Брэндон Спинк (Peter), Сэм Маршалл (Peter's Friend Sam), Сиена ЛаГамбина (Paige), Джозеф Лео Бвари (Principal Bobby Lee), Мэттью Уолкер (Randy the Clown)Описание: Фитнес и шопинг, капризные предки и непослушные дети, завистливые подружки и надоевшие бывшие - милые составляющие настоящего женского счастья. А также мужского, если ты - отец-одиночка. И неважно, где и как сведет вас жизнь, если ты встретишь настоящую любовь. Главное - не сдаваться! Ведь судьба - это большой супермаркет, а не магазин на диване.Рейтинг:

MPAA: PG-13 - Детям до 13 лет просмотр не желателен

Качество: BDRip | исх. MOTHERS_DAY_REMUX_HDCLUB |Формат: AVIВидео кодек: XviDАудио кодек: AC3Видео: 704x384 (1.83:1), 23.976 fps, XviD build 73 ~1306 kbps avg, 0.20 bit/pixelАудио: 48 kHz, AC3 Dolby Digital, 3/2 (L,C,R,l,r) + LFE ch, ~384 kbps

Релиз: &

Скачать Несносные леди через торрент http://s018.radikal.ru/i517/1607/19/53c3709728f5.png Скачать фильм Несносные леди через торрент бесплантно в хорошем качестве Описание: Фитнес и шопинг, капризные предки и непослушные дети, завистливые подружки и надоевшие бывшие - милые составляющие настоящего ... 2016-07-23 20:53 8.9 10 18

Loading...

Loading...

Рекламный пират

24-07-2016 06:17 Несносные леди Скачать торрент  

Как фильм господа?

Дорогой пользователь! Огромная просьба, поблагодарите релизера, оцените раздачу и оставьте свои комментарий, если Вы скачали Несносные леди через торрент бесплатно! Внесите свою лепту в развитие PiratBit!

Комментировать посты могут только пользователи прошедшие не сложную регистрацию

Несносные леди через торрент Скачать бесплатно Несносные леди Несносные леди скачать торрент Несносные леди смотреть онлайн Cкачать фильм Несносные леди бесплатно Несносные леди скачать торрент в хорошем качестве Несносные леди смотреть онлайн бесплатно в хорошем качестве

Вы не можете начинать темыВы не можете отвечать на сообщенияВы не можете редактировать свои сообщенияВы не можете удалять свои сообщенияВы не можете голосовать в опросахВы не можете прикреплять файлы к сообщениямВы можете скачивать файлы

piratbit.ru

Скачать фильм Несносные леди (2016) через торрент

22 сентября 2016 10:00 Несносные леди / Mothers Day (2016) BDRip-AVC от HELLYWOOD | iTunes .torrent   [Информация о файле (нажмите для просмотра)] Перевод: Дубляж [iTunes]Качество: BDRip-AVCФормат: MKVВидео: AVC, 864x468 (16:9), 1563 kbps, 23,976 fps, 0,161 bppАудио: русский / AC3 / 2.0 / 48 kHz / 192 kbps / 16 bit 1,46 Gb 41 9 22 сентября 2016 10:00 Несносные леди / Mothers Day (2016) BDRip-AVC от HELLYWOOD | iTunes .torrent   [Информация о файле (нажмите для просмотра)] Перевод: Дубляж [iTunes]Субтитры: английские (Full), английские (SDH)Качество: BDRip-AVCФормат: MKVВидео: AVC, 1024x554 (1.852), 2673 kbps, 23,976 fps, 0.197 bppАудио#1: AC3 / 5.1 / 48 kHz / 384 kbps / 16 bit |RUSАудио#2: AC3 / 5.1 / 48 kHz / 448 kbps / 16 bit |ENG 2,91 Gb 19 5 22 сентября 2016 09:59 Несносные леди / Mothers Day (2016) HDRip от Scarabey | iTunes .torrent   [Информация о файле (нажмите для просмотра)] Перевод: Профессиональный (полное дублирование) [iTunes]Субтитры: нетВидео: 704x384 (1.83:1), 23.976 fps, XviD build 73 ~1357 kbps avg, 0.21 bit/pixelАудио: 48 kHz, AC3 Dolby Digital, 3/2 (L,C,R,l,r) + LFE ch, ~384 kbps 1,45 Gb 28 13 22 сентября 2016 09:59 Несносные леди / Mothers Day (2016) BDRip от ExKinoRay | Лицензия .torrent   [Информация о файле (нажмите для просмотра)] Перевод: Профессиональный (полное дублирование)[Лицензия Blu-Ray RUS]Субтитры: НетКачество: BDRip| исх. Mother's Day (2016) Blu-ray RUS 1080p AVC DTS-HD 5.1 |Формат: AVIВидео: 688x368 (1.87:1), 23.976 fps, XviD build 73 ~1317 kbps avg, 0.22 bit/pixelАудио: 48 kHz, AC3 Dolby Digital, 3/2 (L,C,R,l,r) + LFE ch, ~448 kbps 1,46 Gb 353 13 22 сентября 2016 09:59 Несносные леди / Mothers Day (2016) Blu-Ray RUS | Лицензия .torrent   [Информация о файле (нажмите для просмотра)] Перевод: Профессиональный (полное дублирование)Качество: Blu-ray RUS 1080pФормат: BDMVКодек: MPEG-4 AVC VideoВидео: 1920x1080 (16:9), 23,976 fps, MPEG-4 AVC Video ~19161 kbps avg, High Profile 4.0Аудио: DTS-HD Master Audio Russian 3617 kbps 5.1 / 48 kHz / 3617 kbps / 24-bit (DTS Core: 5.1 / 48 kHz / 1509 kbps / 24-bit) /Профессиональный (полное дублирование)Субтитры: Отсутствуют 21,85 Gb 4 11 22 сентября 2016 09:59 Несносные леди / Mothers Day (2016) BDRip от MegaPeer | Лицензия .torrent   [Информация о файле (нажмите для просмотра)] Перевод: Дублированный |BD RUSФормат: AVIКачество: BDRip |исх. Mother's Day (2016) Blu-ray RUS 1080p AVC DTS-HD 5.1|Видео: XviD, 624x336, 23.976 fps, 755 kbpsЗвук: MP3, 2 ch, 128 kbpsСубтитры: Нет 749,57 Mb 13 9 22 сентября 2016 09:59 Несносные леди / Mothers Day (2016) BDRip от MegaPeer | Лицензия .torrent   [Информация о файле (нажмите для просмотра)] Перевод: Дублированный |BD RUSФормат: AVIКачество: BDRip | исх. Mother's Day (2016) Blu-ray RUS 1080p AVC DTS-HD 5.1 |Видео: XviD, 704x384, 23.976 fps, 1337 kbpsЗвук: AC3, 6 ch, 448 kbpsСубтитры: Нет 1,48 Gb 60 4 22 сентября 2016 09:59 Несносные леди / Mothers Day (2016) BDRip от ExKinoRay | iTunes .torrent   [Информация о файле (нажмите для просмотра)] Перевод: Профессиональный (полное дублирование)[iTunes]Субтитры: НетКачество: BDRip| исх. MOTHERS_DAY_REMUX_HDCLUB |Формат: AVIВидео: 704x384 (1.83:1), 23.976 fps, XviD build 73 ~1306 kbps avg, 0.20 bit/pixelАудио: 48 kHz, AC3 Dolby Digital, 3/2 (L,C,R,l,r) + LFE ch, ~384 kbps 1,41 Gb 68 9 22 сентября 2016 09:59 Несносные леди / Mothers Day (2016) BDRip 720p от ExKinoRay | iTunes .torrent   [Информация о файле (нажмите для просмотра)] Перевод: Дублированный | iTunesКодек: x264Качество: BDRip 720pВидео: 1280x696, 7029 Kbit/s, 23.976 fpsЗвук: Аудио #01: 48 kHz, AC3, 5.1, 384 Kbps | Дублированный, iTunes |Аудио #02: 48 kHz, DTS, 5.1, 1510 kbps | Оригинал |Субтитры: Английские 7,41 Gb 15 10 22 сентября 2016 09:59 Несносные леди / Mothers Day (2016) BDRemux 1080p от ExKinoRay | iTunes .torrent   [Информация о файле (нажмите для просмотра)] Перевод: Дублированный | iTunesКодек: MPEG-4Качество: BDRemux 1080pВидео: 1920x1080, 32.2 Mbit/s, 23.976 fpsЗвук: Аудио #01: 48 kHz, AC3, 5.1, 384 Kbps | Дублированный, iTunes |Аудио #02: 48 kHz, DTS-HD MA, 5.1, 3613 kbps | Оригинал |Субтитры: Английские 30,02 Gb 6 3 22 сентября 2016 09:59 Несносные леди / Mothers Day (2016) BDRip 1080p от ExKinoRay | iTunes .torrent   [Информация о файле (нажмите для просмотра)] Перевод: Дублированный | iTunesКодек: x264Качество: BDRip 1080pВидео: 1920x1040, 13.8 Mbit/s, 23.976 fpsЗвук: Аудио #01: 48 kHz, AC3, 5.1, 384 Kbps | Дублированный, iTunes |Аудио #02: 48 kHz, DTS, 5.1, 1510 kbps | Оригинал |Субтитры: Английские 12,99 Gb 13 8 22 сентября 2016 09:59 Несносные леди / Mothers Day (2016) BDRip-AVC от New-Team | iTunes .torrent   [Информация о файле (нажмите для просмотра)] Перевод: Профессиональный (полное дублирование) [iTunes]Видео: 2675 Кбит/сек, 1008*546 (1,85:1), в 23,976 (24000/1001) кадра/сек, AVCАудио #1: русский, 384 Кбит/сек, 48,0 КГц, 6 каналов, AC-3Аудио #2: английский, 384 Кбит/сек, 48,0 КГц, 6 каналов, AC-3Видео: Идентификатор : 1 Формат : AVC Формат/Информация : Advanced Video Codec Профиль формата : [email protected] Параметр CABAC формата : Да Параметр ReFrames формата : 13 кадров Идентификатор кодека : V_MPEG4/ISO/AVC Продолжительность : 1 ч. 58 м. Битрейт : 2675 Кбит/сек Ширина : 1008 пикселей Высота : 546 пикселей Соотношение сторон : 1,85:1 Режим частоты кадров : Постоянный Частота кадров : 23,976 (24000/1001) кадра/сек Цветовое пространство : YUV Субдискретизация насыщенности : 4:2:0 Битовая глубина : 8 бит Тип развёртки : Прогрессивная Бит/(Пиксели*Кадры) : 0.203 Размер потока : 2,22 Гбайт (78%) Заголовок : Mother's Day (2016) (Rip by stalkerok) Библиотека кодирования : x264 core 148 r2705+54 9f484c1 t_mod_Custom [[email protected] X86_64] Настройки программы : cabac=1 / ref=13 / deblock=1:-3:-2 / analyse=0x3:0x133 / me=umh / subme=10 / psy=1 / fade_compensate=0.00 / psy_rd=1.00:0.00 / mixed_ref=1 / me_range=32 / chroma_me=1 / trellis=2 / 8x8dct=1 / cqm=0 / deadzone=21,11 / fast_pskip=0 / chroma_qp_offset=-2 / threads=12 / lookahead_threads=3 / sliced_threads=0 / nr=0 / decimate=0 / interlaced=0 / bluray_compat=0 / constrained_intra=0 / fgo=0 / bframes=14 / b_pyramid=2 / b_adapt=2 / b_bias=0 / direct=3 / weightb=1 / open_gop=0 / weightp=2 / keyint=240 / keyint_min=23 / scenecut=40 / intra_refresh=0 / rc_lookahead=60 / rc=2pass / mbtree=0 / bitrate=2675 / ratetol=1.0 / qcomp=0.65 / qpmin=0:0:0 / qpmax=69:69:69 / qpstep=4 / cplxblur=20.0 / qblur=0.5 / vbv_maxrate=50000 / vbv_bufsize=62500 / nal_hrd=none / filler=0 / ip_ratio=1.40 / pb_ratio=1.30 / aq=3:0.85 / aq-sensitivity=10.00 / aq-factor=1.00:1.00:1.00 / aq2=0 / aq3=0 Default : Да Forced : НетАудио #1: Идентификатор : 2 Формат : AC-3 Формат/Информация : Audio Coding 3 Расширение режима : CM (complete main) Параметр Endianness формата : Big Идентификатор кодека : A_AC3 Продолжительность : 1 ч. 58 м. Вид битрейта : Постоянный Битрейт : 384 Кбит/сек Каналы : 6 каналов Расположение каналов : Front: L C R, Side: L R, LFE Частота : 48,0 КГц Частота кадров : 31,250 кадров/сек (1536 spf) Метод сжатия : С потерями Размер потока : 326 Мбайт (11%) Язык : Russian Default : Да Forced : НетАудио #2: Идентификатор : 3 Формат : AC-3 Формат/Информация : Audio Coding 3 Расширение режима : CM (complete main) Параметр Endianness формата : Big Идентификатор кодека : A_AC3 Продолжительность : 1 ч. 58 м. Вид битрейта : Постоянный Битрейт : 384 Кбит/сек Каналы : 6 каналов Расположение каналов : Front: L C R, Side: L R, LFE Частота : 48,0 КГц Частота кадров : 31,250 кадров/сек (1536 spf) Метод сжатия : С потерями Размер потока : 326 Мбайт (11%) Язык : English Default : Нет Forced : Нет 2,86 Gb 157 13 22 сентября 2016 09:59 Несносные леди / Mothers Day (2016) BDRip-AVC от New-Team | iTunes .torrent   [Информация о файле (нажмите для просмотра)] Перевод: Профессиональный (полное дублирование) [iTunes]Видео: 1563 Кбит/сек, 816x442 (16:9), 23,976 кадр/сек, AVCАудио: русский, 192 Кбит/сек, 48 КГц, 16 бит, 2.0, AC3Видео: Идентификатор : 1 Формат : AVC Формат/Информация : Advanced Video Codec Профиль формата : [email protected] Параметр CABAC формата : Да Параметр ReFrames формата : 15 кадров Идентификатор кодека : V_MPEG4/ISO/AVC Продолжительность : 1 ч. 58 м. Битрейт : 1563 Кбит/сек Ширина : 816 пикселей Высота : 442 пикселя Соотношение сторон : 1,85:1 Режим частоты кадров : Постоянный Частота кадров : 23,976 (24000/1001) кадра/сек Цветовое пространство : YUV Субдискретизация насыщенности : 4:2:0 Битовая глубина : 8 бит Тип развёртки : Прогрессивная Бит/(Пиксели*Кадры) : 0.181 Размер потока : 1,30 Гбайт (89%) Заголовок : Mother's Day (2016) (Rip by stalkerok) Библиотека кодирования : x264 core 148 r2705+54 9f484c1 t_mod_Custom [[email protected] X86_64] Настройки программы : cabac=1 / ref=15 / deblock=1:-3:-2 / analyse=0x3:0x133 / me=umh / subme=10 / psy=1 / fade_compensate=0.00 / psy_rd=1.00:0.00 / mixed_ref=1 / me_range=32 / chroma_me=1 / trellis=2 / 8x8dct=1 / cqm=0 / deadzone=21,11 / fast_pskip=0 / chroma_qp_offset=-2 / threads=12 / lookahead_threads=3 / sliced_threads=0 / nr=0 / decimate=0 / interlaced=0 / bluray_compat=0 / constrained_intra=0 / fgo=0 / bframes=15 / b_pyramid=2 / b_adapt=2 / b_bias=0 / direct=3 / weightb=1 / open_gop=0 / weightp=2 / keyint=240 / keyint_min=23 / scenecut=40 / intra_refresh=0 / rc_lookahead=60 / rc=2pass / mbtree=0 / bitrate=1563 / ratetol=1.0 / qcomp=0.65 / qpmin=0:0:0 / qpmax=69:69:69 / qpstep=4 / cplxblur=20.0 / qblur=0.5 / vbv_maxrate=50000 / vbv_bufsize=62500 / nal_hrd=none / filler=0 / ip_ratio=1.40 / pb_ratio=1.30 / aq=3:0.90 / aq-sensitivity=10.00 / aq-factor=1.00:1.00:1.00 / aq2=0 / aq3=0 Default : Да Forced : НетАудио: Идентификатор : 2 Формат : AC-3 Формат/Информация : Audio Coding 3 Расширение режима : CM (complete main) Параметр Endianness формата : Big Идентификатор кодека : A_AC3 Продолжительность : 1 ч. 58 м. Вид битрейта : Постоянный Битрейт : 192 Кбит/сек Каналы : 2 канала Расположение каналов : Front: L R Частота : 48,0 КГц Частота кадров : 31,250 кадров/сек (1536 spf) Метод сжатия : С потерями Размер потока : 163 Мбайт (11%) Язык : Russian Default : Да Forced : Нет 1,46 Gb 121 13 22 сентября 2016 09:59 Несносные леди / Mothers Day (2016) HDRip от AleksSin | iTunes .torrent   [Информация о файле (нажмите для просмотра)] Перевод: Профессиональный (полное дублирование) [iTunes]Кодек: AVI (XviD)Качество: 624x336 (1.86:1), 23.976 fps, XviD build 73 ~746 kbps avg, 0.15 bit/pixelЗвук: 48 kHz, MPEG Layer 3, 2 ch, ~128.00 kbps avgСубтитры: нет 751,22 Mb 5 4 22 сентября 2016 09:59 Несносные леди / Mothers Day (2016) HDRip от AleksSin | iTunes .torrent   [Информация о файле (нажмите для просмотра)] Перевод: Профессиональный (полное дублирование) [iTunes]Кодек: AVI (XviD)Качество: HDRipВидео: 704x384 (1.83:1), 23.976 fps, XviD build 73 ~1374 kbps avg, 0.21 bit/pixelЗвук: 48 kHz, AC3 Dolby Digital, 3/2 (L,C,R,l,r) + LFE ch, ~384 kbpsСубтитры: нет 1,47 Gb 18 12 22 сентября 2016 09:59 Несносные леди / Mothers Day (2016) WEB-DLRip от torrentfilm | iTunes .torrent   [Информация о файле (нажмите для просмотра)] Перевод: Профессиональный (полное дублирование)iTunesКодек: XviD (AVI)Качество: WEB-DLRipВидео: 640x352 (1.82:1), 25 fps, XviD build 73 ~798 kbps avg, 0.14 bit/pixelЗвук: 48 kHz, MPEG Layer 3, 2 ch, ~128.00 kbps avg 757,25 Mb 17 7 22 сентября 2016 09:59 Несносные леди / Mothers Day (2016) WEB-DLRip от Generalfilm | КПК | iTunes .torrent   [Информация о файле (нажмите для просмотра)] Перевод: Дублированный [iTunes]Качество: WEB-DLRip | КПКВидео: Н.264, 640x344 (1.860), 25.000 fps, 453 Kbps (0.082 bit/pixel)Звук: AAC LC, 48.0 KHz, 2 ch, 128 Kbps 471,81 Mb 33 3 22 сентября 2016 09:59 Несносные леди / Mothers Day (2016) WEB-DL 720p | iTunes .torrent   [Информация о файле (нажмите для просмотра)] Формат: MKVКачество: WEB-DL 720pВидео: MPEG-4 AVC, 3936 Kb/s, [email protected]Аудио: AC3, 384 kb/s (6 ch) 3,48 Gb 104 9 22 сентября 2016 09:59 Несносные леди / Mothers Day (2016) WEB-DLRip | iTunes .torrent   [Информация о файле (нажмите для просмотра)] Формат: AVI (XviD)Качество: WEB-DLRip [Рип с WEB-DL 720p]Видео: 1349 kb/s, 720x384Аудио: AC3, 384 kb/s (6 ch) 1,36 Gb 507 11

gig-torrent.net

Скачать фильм Несносные леди через торрент в хорошем качестве бесплатно BDRip от Twi7ter

Раздают: 2 [ 6 KB/s ]
Размер: 1.46 GB | Добавлен: 1 год 2 мес. назад | Торрент скачан:729 раз
Реклама Дарим 3000 рублей за регистрацию, не упусти свой шанс получить шикарный бонус!!!

23-08-2016 16:56 Несносные леди Скачать торрент  

Несносные леди / Mother's Day

«Не угадаешь, что они выкинут завтра»

Год выпуска: 2016Страна: СШАЖанр: драма, комедияПродолжительность: 01:57:51Перевод: Профессиональный (полное дублирование) [Лицензия Blu-Ray RUS]Субтитры: НетРежиссер: Гэрри Маршалл / Garry MarshallВ ролях: Дженнифер Энистон (Sandy), Джулия Робертс (Miranda), Кейт Хадсон (Jesse), Джейсон Судейкис (Bradley), Тимоти Олифант (Henry), Шэй Митчелл (Tina), Калеб Браун (Mikey), Брэндон Спинк (Peter), Сэм Маршалл (Peter's Friend Sam), Сиена ЛаГамбина (Paige), Джозеф Лео Бвари (Principal Bobby Lee), Мэттью Уолкер (Randy the Clown)Описание: Фитнес и шопинг, капризные предки и непослушные дети, завистливые подружки и надоевшие бывшие - милые составляющие настоящего женского счастья. А также мужского, если ты - отец-одиночка. И неважно, где и как сведет вас жизнь, если ты встретишь настоящую любовь. Главное - не сдаваться! Ведь судьба - это большой супермаркет, а не магазин на диване.Рейтинг:

MPAA: PG-13 - Детям до 13 лет просмотр не желателен

Качество: BDRip | исх. Mother's Day (2016) Blu-ray RUS 1080p AVC DTS-HD 5.1 |Формат: AVIВидео кодек: XviDАудио кодек: AC3Видео: 688x368 (1.87:1), 23.976 fps, XviD build 73 ~1317 kbps avg, 0.22 bit/pixelАудио: 48 kHz, AC3 Dolby Digital, 3/2 (L,C,R,l,r) + LFE ch, ~448 kbps

Релиз: &

Скачать Несносные леди через торрент http://s018.radikal.ru/i517/1607/19/53c3709728f5.png Скачать фильм Несносные леди через торрент бесплантно в хорошем качестве Описание: Фитнес и шопинг, капризные предки и непослушные дети, завистливые подружки и надоевшие бывшие - милые составляющие настоящего ... 2016-08-23 16:56 8.5 10 15

Loading...

Loading...

Рекламный пират

23-08-2016 20:17 Несносные леди Скачать торрент  

кто смотрел - аналогия "несносные боссы" ?

24-08-2016 04:24 Несносные леди Скачать торрент  

Телочки огонь)

Дорогой пользователь! Огромная просьба, поблагодарите релизера, оцените раздачу и оставьте свои комментарий, если Вы скачали Несносные леди через торрент бесплатно! Внесите свою лепту в развитие PiratBit!

Комментировать посты могут только пользователи прошедшие не сложную регистрацию

Несносные леди через торрент Скачать бесплатно Несносные леди Несносные леди скачать торрент Несносные леди смотреть онлайн Cкачать фильм Несносные леди бесплатно Несносные леди скачать торрент в хорошем качестве Несносные леди смотреть онлайн бесплатно в хорошем качестве

Вы не можете начинать темыВы не можете отвечать на сообщенияВы не можете редактировать свои сообщенияВы не можете удалять свои сообщенияВы не можете голосовать в опросахВы не можете прикреплять файлы к сообщениямВы можете скачивать файлы

piratbit.ru

Несносные леди (2016) HD 1080p скачать торрент в хорошем качестве

Информация о фильмеНазвание: Несносные ледиОригинальное название: Mother's DayГод выхода: 2016Жанр: драма, комедияРежиссер: Гэрри МаршаллВ ролях: Дженнифер Энистон, Джулия Робертс, Кейт Хадсон, Джейсон Судейкис, Тимоти Олифант, Шэй Митчелл, Калеб Браун, Брэндон Спинк, Сэм Маршалл, Сиена ЛаГамбина

О фильме: Фитнес и шопинг, капризные предки и непослушные дети, завистливые подружки и надоевшие бывшие — милые составляющие настоящего женского счастья. А также мужского, если ты — отец-одиночка. И неважно, где и как сведет вас жизнь, если ты встретишь настоящую любовь. Главное — не сдаваться! Ведь судьба — это большой супермаркет, а не магазин на диване.

Страна: СШАСтудия: Aperture Media Partners, Beatnik Films, Capacity Pictures, Gulfstream PicturesПродолжительность: 01:58:50Перевод: Дублированный | iTunes

ФайлКодек: x264Качество: BDRip 1080pВидео: 1920x1040, 13.8 Mbit/s, 23.976 fpsЗвук: Аудио #01: 48 kHz, AC3, 5.1, 384 Kbps | Дублированный, iTunes | Аудио #02: 48 kHz, DTS, 5.1, 1510 kbps | Оригинал | Субтитры: Английские

GeneralUnique ID : 190882222457796434737766417569216829210 (0x8F9A942CC74B59C8A665987288ED971A)Complete name : G:VideoMothers.Day.2016.BDRip.1080p.ExKinoRay.mkvFormat : MatroskaFormat version : Version 4 / Version 2File size : 13.0 GiBDuration : 1h 58mnOverall bit rate : 15.7 MbpsMovie name : Mothers.Day.2016.BDRip.1080p.ExKinoRayEncoded date : UTC 2016-07-23 07:07:15Writing application : mkvmerge v8.3.0 ('Over the Horizon') 64bitWriting library : libebml v1.3.1 + libmatroska v1.4.2

VideoID : 1Format : AVCFormat/Info : Advanced Video CodecFormat profile : [email protected] settings, CABAC : YesFormat settings, ReFrames : 4 framesCodec ID : V_MPEG4/ISO/AVCDuration : 1h 58mnBit rate : 13.8 MbpsWidth : 1 920 pixelsHeight : 1 040 pixelsDisplay aspect ratio : 1.85:1Frame rate mode : ConstantFrame rate : 23.976 (24000/1001) fpsColor space : YUVChroma subsampling : 4:2:0Bit depth : 8 bitsScan type : ProgressiveBits/(Pixel*Frame) : 0.287Stream size : 11.4 GiB (88%)Writing library : x264 core 146 r2538 121396cEncoding settings : cabac=1 / ref=4 / deblock=1:-3:-3 / analyse=0x3:0x133 / me=umh / subme=11 / psy=1 / psy_rd=1.04:0.00 / mixed_ref=1 / me_range=32 / chroma_me=1 / trellis=2 / 8x8dct=1 / cqm=0 / deadzone=21,11 / fast_pskip=0 / chroma_qp_offset=-2 / threads=60 / lookahead_threads=8 / sliced_threads=0 / nr=0 / decimate=0 / interlaced=0 / bluray_compat=0 / constrained_intra=0 / bframes=10 / b_pyramid=2 / b_adapt=2 / b_bias=0 / direct=3 / weightb=1 / open_gop=0 / weightp=2 / keyint=240 / keyint_min=23 / scenecut=40 / intra_refresh=0 / rc_lookahead=150 / rc=crf / mbtree=0 / crf=17.5 / qcomp=0.60 / qpmin=0 / qpmax=69 / qpstep=4 / vbv_maxrate=62500 / vbv_bufsize=78125 / crf_max=0.0 / nal_hrd=none / filler=0 / ip_ratio=1.40 / pb_ratio=1.30 / aq=1:0.80Language : EnglishDefault : YesForced : No

Audio #1ID : 2Format : AC-3Format/Info : Audio Coding 3Mode extension : CM (complete main)Format settings, Endianness : BigCodec ID : A_AC3Duration : 1h 58mnBit rate mode : ConstantBit rate : 384 KbpsChannel(s) : 6 channelsChannel positions : Front: L C R, Side: L R, LFESampling rate : 48.0 KHzFrame rate : 31.250 fps (1536 spf)Compression mode : LossyStream size : 326 MiB (2%)Title : DUB [iTunes]Language : RussianDefault : YesForced : No

Audio #2ID : 3Format : DTSFormat/Info : Digital Theater SystemsMode : 16Format settings, Endianness : BigCodec ID : A_DTSDuration : 1h 58mnBit rate mode : ConstantBit rate : 1 509 KbpsChannel(s) : 6 channelsChannel positions : Front: L C R, Side: L R, LFESampling rate : 48.0 KHzFrame rate : 93.750 fps (512 spf)Bit depth : 24 bitsCompression mode : LossyStream size : 1.25 GiB (10%)Title : OriginalLanguage : EnglishDefault : NoForced : No

Text #1ID : 4Format : UTF-8Codec ID : S_TEXT/UTF8Codec ID/Info : UTF-8 Plain TextDuration : 1h 57mnBit rate : 85 bpsCount of elements : 2467Stream size : 74.1 KiB (0%)Title : FullLanguage : EnglishDefault : NoForced : No

Text #2ID : 5Format : UTF-8Codec ID : S_TEXT/UTF8Codec ID/Info : UTF-8 Plain TextDuration : 1h 58mnBit rate : 91 bpsCount of elements : 2621Stream size : 79.1 KiB (0%)Title : SDHLanguage : EnglishDefault : NoForced : No

Menu00:00:00.000 : en:Chapter 100:05:50.891 : en:Chapter 200:08:50.111 : en:Chapter 300:15:32.389 : en:Chapter 400:22:11.413 : en:Chapter 500:28:43.721 : en:Chapter 600:35:48.646 : en:Chapter 700:43:12.297 : en:Chapter 800:48:07.717 : en:Chapter 900:55:35.248 : en:Chapter 1000:59:36.155 : en:Chapter 1101:05:33.179 : en:Chapter 1201:10:23.636 : en:Chapter 1301:18:21.697 : en:Chapter 1401:23:46.979 : en:Chapter 1501:29:07.591 : en:Chapter 1601:34:27.828 : en:Chapter 1701:38:48.421 : en:Chapter 1801:44:50.324 : en:Chapter 1901:49:32.064 : en:Chapter 20

rutorg2.ru

Скачать фильм Несносные леди через торрент в хорошем качестве бесплатно BDRip-AVC от potroks

GeneralUnique ID                                : 176118083311505599526282977009495681702 (0x847F1BEA07CC5CD1A8CED4844B6FAAA6)Complete name                            : N:\Драма\Nesnosnyie.Ledi.2016.RUS.BDRip.x264.-HELLYWOOD.mkvFormat                                   : MatroskaFormat version                           : Version 4 / Version 2File size                                : 1.46 GiBDuration                                 : 1 h 58 minOverall bit rate                         : 1 756 kb/sMovie name                               : Mother's Day (2016)Encoded date                             : UTC 2016-07-23 06:30:00Writing application                      : mkvmerge v5.9.0 ('On The Loose') built on Dec 15 2012 16:39:58Writing library                          : libebml v1.3.0 + libmatroska v1.4.0

VideoID                                       : 1Format                                   : AVCFormat/Info                              : Advanced Video CodecFormat profile                           : [email protected] settings, CABAC                   : YesFormat settings, ReFrames                : 12 framesCodec ID                                 : V_MPEG4/ISO/AVCDuration                                 : 1 h 58 minBit rate                                 : 1 563 kb/sWidth                                    : 864 pixelsHeight                                   : 468 pixelsDisplay aspect ratio                     : 1.85:1Frame rate mode                          : ConstantFrame rate                               : 23.976 FPSColor space                              : YUVChroma subsampling                       : 4:2:0Bit depth                                : 8 bitsScan type                                : ProgressiveBits/(Pixel*Frame)                       : 0.161Stream size                              : 1.27 GiB (87%)Title                                    : potroksWriting library                          : x264 core 146 r2538 121396cEncoding settings                        : cabac=1 / ref=12 / deblock=1:-2:-2 / analyse=0x3:0x113 / me=umh / subme=11 / psy=1 / psy_rd=1.00:0.05 / mixed_ref=1 / me_range=48 / chroma_me=1 / trellis=2 / 8x8dct=1 / cqm=0 / deadzone=21,11 / fast_pskip=0 / chroma_qp_offset=-3 / threads=9 / lookahead_threads=2 / sliced_threads=0 / nr=0 / decimate=0 / interlaced=0 / bluray_compat=0 / constrained_intra=0 / bframes=13 / b_pyramid=2 / b_adapt=2 / b_bias=0 / direct=3 / weightb=1 / open_gop=0 / weightp=2 / keyint=240 / keyint_min=23 / scenecut=40 / intra_refresh=0 / rc_lookahead=60 / rc=2pass / mbtree=0 / bitrate=1563 / ratetol=1.0 / qcomp=0.70 / qpmin=0 / qpmax=69 / qpstep=4 / cplxblur=20.0 / qblur=0.5 / vbv_maxrate=14000 / vbv_bufsize=14000 / nal_hrd=none / filler=0 / ip_ratio=1.35 / pb_ratio=1.25 / aq=1:0.80Language                                 : EnglishDefault                                  : YesForced                                   : No

AudioID                                       : 2Format                                   : AC-3Format/Info                              : Audio Coding 3Mode extension                           : CM (complete main)Format settings, Endianness              : BigCodec ID                                 : A_AC3Duration                                 : 1 h 58 minBit rate mode                            : ConstantBit rate                                 : 192 kb/sChannel(s)                               : 2 channelsChannel positions                        : Front: L RSampling rate                            : 48.0 kHzFrame rate                               : 31.250 FPS (1536 spf)Compression mode                         : LossyStream size                              : 163 MiB (11%)Title                                    : Dub | DD 2.0 @ 192 kbps - iTunesLanguage                                 : RussianDefault                                  : YesForced                                   : No

Menu00:00:00.000                             : en:(01)00:00:00:00000:05:50.891                             : en:(02)00:05:50:89100:08:50.111                             : en:(03)00:08:50:11100:15:32.389                             : en:(04)00:15:32:38900:22:11.413                             : en:(05)00:22:11:41300:28:43.721                             : en:(06)00:28:43:72100:35:48.646                             : en:(07)00:35:48:64600:43:12.297                             : en:(08)00:43:12:29700:48:07.717                             : en:(09)00:48:07:71700:55:35.248                             : en:(10)00:55:35:24800:59:36.155                             : en:(11)00:59:36:15501:05:33.179                             : en:(12)01:05:33:17901:10:23.636                             : en:(13)01:10:23:63601:18:21.697                             : en:(14)01:18:21:69701:23:46.979                             : en:(15)01:23:46:97901:29:07.591                             : en:(16)01:29:07:59101:34:27.828                             : en:(17)01:34:27:82801:38:48.421                             : en:(18)01:38:48:42101:44:50.324                             : en:(19)01:44:50:32401:49:32.064                             : en:(20)01:49:32:06401:58:49.913                             : en:(21)01:58:49:913

piratbit.ru


Смотрите также