Молодая кровь скачать торрент в хорошем качестве


Молодая кровь 2014 - скачать бесплатно через торрент в хорошем качестве. Без регистрации

www.kinovit.net

Название: Молодая кровь / Son of a Gun (2014) BDRip-AVC | iTunes
Качество видео: BDRip-AVC
Перевод: Профессиональный многоголосый [iTunes]
Формат видео: MKV
Видео: AVC, 1024x426 (2.40:1), 1533 kbps, 24 fps, 0,146 bpp
Аудио: русский / AC3 / 5.1 / 48 kHz / 384 kbps / 16 bit
Скачать

Загрузка начнется в течение 5 сек.

1.45 GB

Название: Молодая кровь / Son of a gun (2014) BDRip от MediaClub | КПК
Качество видео: BDRip
Видео: MPEG-4 AVC, 500 Кбит/с, 480x208, 24.000 кадр/с
Аудио: Русский (AAC, 2 ch, 128 Кбит/с) / Профессиональный многоголосый
Скачать

Загрузка начнется в течение 5 сек.

493.06 MB

Название: Молодая кровь / Son of a gun (2014) HDRip от Scarabey | iTunes
Качество видео: WEB-DLRip
Перевод: Профессиональный (многоголосый, закадровый) [iTunes]
Видео: 720x304 (2.37:1), 24 fps, XviD build 73 ~1508 kbps avg, 0.29 bit/pixel
Аудио: 48 kHz, AC3 Dolby Digital, 3/2 (L,C,R,l,r) + LFE ch, ~384.00 kbps avg
Скачать

Загрузка начнется в течение 5 сек.

1.45 GB

Название: Молодая кровь / Son of a gun (2014) HDRip от Scarabey | iTunes
Качество видео: WEB-DLRip
Перевод: Профессиональный (многоголосый, закадровый) [iTunes]
Видео: 688x288 (2.39:1), 24 fps, XviD build 73 ~820 kbps avg, 0.17 bit/pixel
Аудио: 48 kHz, MPEG Layer 3, 2 ch, ~128.00 kbps avg
Скачать

Загрузка начнется в течение 5 сек.

746.09 MB

Название: Молодая кровь / Son of a gun (2014) BDRemux 1080p от NovaLan
Качество видео: Blu-Ray Remux 1080p
Перевод: Профессиональный многоголосый (iTunes) / Любительский двухголосый (Пиратская студия) / Любительский одноголосый (den904)
Видео: H.264 MPEG-4 AVC, 24986 Кбит/с, 1920x1080, 24.000 кадр/с
Аудио: Русский (AC3, 6 ch, 384 Кбит/с), (AC3, 6 ch, 320 Кбит/с), (DTS-HD MA, 6 ch, 3470 Кбит/с), (AC3, 2 ch, 224 Кбит/с)
Скачать

Загрузка начнется в течение 5 сек.

24.00 GB

Название: Молодая кровь / Son of a Gun (2014) BDRip 720p | iTunes
Качество видео: BDRip 720p
Перевод: Профессиональный (многоголосый, закадровый) - iTunes
Формат видео: MKV
Видео: MPEG4/AVC, 5683 Кбит/сек, 1280х536 (2.40:1), 24.000 кадра/сек
Аудио: AC3, 6 каналов, 384 Кбит/сек | РусскийDTS, 6 каналов, 1509 Кбит/сек | Английский
Скачать

Загрузка начнется в течение 5 сек.

5.76 GB

Название: Молодая кровь / Son of a Gun (2014) BDRip 1080p | iTunes
Качество видео: BDRip 1080p
Перевод: Профессиональный (многоголосый, закадровый) - iTunes
Формат видео: MKV
Видео: MPEG4/AVC, 9999 Кбит/сек, 1920х800 (2.40:1), 24.000 кадра/сек
Аудио: AC3, 6 каналов, 384 Кбит/сек | РусскийDTS, 6 каналов, 1509 Кбит/сек | Английский
Скачать

Загрузка начнется в течение 5 сек.

9.03 GB

Название: Молодая кровь / Son of a Gun (2014) HDRip | iTunes
Качество видео: HDRip
Видео: XviD, 827 Кбит/с, 720x304
Аудио: MP3, 2 ch, 128 Кбит/с
Скачать

Загрузка начнется в течение 5 сек.

751.19 MB

Название: Молодая кровь / Son of a Gun (2014) HDRip | iTunes
Качество видео: HDRip [Рип с BDRip 720p]
Перевод: Профессиональное (многоголосное) [iTunes]
Формат видео: AVI (XviD)
Видео: 1405 Kb/s, 720x304
Аудио: AC3, 384 Kb/s (6 ch)
Скачать

Загрузка начнется в течение 5 сек.

1.37 GB

Название: Молодая кровь / Son of a Gun (2014) HDRip | iTunes
Качество видео: HDRip [Рип с BDRip 720p]
Перевод: Профессиональное (многоголосное) [iTunes]
Формат видео: AVI (XviD)
Видео: 1826 Kb/s, 720x304
Аудио: Russian / English: AC3, 384 Kb/s (6 ch)
Скачать

Загрузка начнется в течение 5 сек.

2.05 GB

Название: Молодая кровь / Son of a Gun (2014) HDRip | L2
Качество видео: HDRip [Рип с BDRip 720p]
Перевод: Любительское (двухголосое) [Студия Пиратского Дубляжа]
Формат видео: AVI (XviD)
Видео: 1826 kb/s, 720x304
Аудио: Russian / English AC3, 384 Kb/s (6 ch)
Скачать

Загрузка начнется в течение 5 сек.

2.05 GB

Название: Молодая кровь / Son of a Gun (2014) HDRip | L2
Качество видео: HDRip [Рип с BDRip 720p]
Перевод: Любительское (двухголосое) [Студия Пиратского Дубляжа]
Формат видео: AVI (XviD)
Видео: 1405 kb/s, 720x304
Аудио: AC3, 384 Kb/s (6 ch)
Скачать

Загрузка начнется в течение 5 сек.

1.37 GB

Название: Молодая кровь / Son of a gun (2014) WEB-DLRip от Scarabey | L2
Качество видео: WEB-DLRip
Перевод: Любительский (двухголосый, закадровый) [Студия Пиратского Дубляжа]
Видео: 720x304 (2.37:1), 24 fps, XviD build 73 ~2036 kbps avg, 0.39 bit/pixel
Аудио: 48 kHz, AC3 Dolby Digital, 3/2 (L,C,R,l,r) + LFE ch, ~384.00 kbps avg48 kHz, AC3 Dolby Digital, 3/2 (L,C,R,l,r) + LFE ch, ~384.00 kbps avg - оригинал
Скачать

Загрузка начнется в течение 5 сек.

2.14 GB

Название: Молодая кровь / Son of a gun (2014) WEB-DLRip от Scarabey | L2
Качество видео: WEB-DLRip
Перевод: Любительский (двухголосый, закадровый) [Студия Пиратского Дубляжа]
Видео: 720x304 (2.37:1), 24 fps, XviD build 73 ~1511 kbps avg, 0.29 bit/pixel
Аудио: 48 kHz, AC3 Dolby Digital, 3/2 (L,C,R,l,r) + LFE ch, ~384.00 kbps avg
Скачать

Загрузка начнется в течение 5 сек.

1.45 GB

Название: Молодая кровь / Son of a gun (2014) WEB-DLRip от Scarabey | L2
Качество видео: WEB-DLRip
Перевод: Любительский (двухголосый, закадровый) [Студия Пиратского Дубляжа]
Видео: 688x288 (2.39:1), 24 fps, XviD build 73 ~822 kbps avg, 0.17 bit/pixel
Аудио: 48 kHz, MPEG Layer 3, 2 ch, ~128.00 kbps avg
Скачать

Загрузка начнется в течение 5 сек.

746.88 MB

Название: Молодая кровь / Son of a Gun (2014) WEB-DL 720p | L2
Качество видео: WEB-DL 720p
Перевод: Любительское (двухголосое) [Студия Пиратского Дубляжа]
Формат видео: MKV
Видео: 3976 Kb/s, 1280x528
Аудио: Russian / English: AC3, 384 Kb/s (6 ch)
Скачать

Загрузка начнется в течение 5 сек.

3.68 GB

Название: Молодая кровь / Son of a Gun (2014) WEB-DLRip | L2
Качество видео: WEB-DLRip
Перевод: Любительское (двухголосое) [Студия Пиратского Дубляжа]
Формат видео: AVI (XviD)
Видео: 1524 Kb/s, 720x304
Аудио: AC3, 384 Kb/s (6 ch)
Скачать

Загрузка начнется в течение 5 сек.

1.46 GB

Название: Молодая кровь / Son of a Gun (2014) WEB-DLRip | L1
Качество видео: WEB-DLRip
Формат видео: AVI
Видео: 1541 Kb/s, 720x304
Аудио: Russian/English: AC3, 192 Kb/s (2 ch)
Скачать

Загрузка начнется в течение 5 сек.

1.48 GB

Фильм Молодая кровь (2014) скачать торрент

Страна: Австралия, Великобритания, Канада 

Жанр: боевик, триллер, драма, криминал 

Год выпуска: 2014 

Продолжительность: 01:48:37 

Перевод: Профессиональный (многоголосый, закадровый) [Лицензия iTunes] озвучено студией "Марафон" 

Cубтитры: русские (полные, 2 вида), английские (полные) 

Оригинальная аудиодорожка: нет 

Режиссер: Джулиус Эйвери / Julius Avery 

В ролях: Юэн МакГрегор, Brendan Kerkvliet, Брентон Туэйтс, Алисия Викандер, Джофф Келсо, Яцек Коман, Мэтью Нэйбл, Питер Нивс, Том Бадж, Эдди Бару, Нэш Эдгертон, Дэймон Херриман 

Криминальные драмы из далекой Австралии нечасто попадают на наши экраны. Тем больше у нас поводов посмотреть фильм «Молодая кровь». Это лаконичная, довольно жесткая, но очень сильная история. Ее герой – молодой парень, который попал в руки правосудия после совершенного им преступления. Получив свой первый срок, юноша быстро учится разбираться в иерархии тюремной жизни и жить по законам преступного мира. Его желание завоевать свое место под солнцем привлекает внимание самого известного преступника континента, некоего Брендана Линча. Он берется защищать нашего героя от акул криминального мира. Однако такая защита имеет цену, и немалую. Линч собирает целую команду, и у него есть особые планы в отношении своего юного протеже…

Фильм снят режиссером-дебютантом, который пока известен только своими короткометражными работами. Однако «Молодая кровь» - лента, скорее, актерская. Недаром на роль Брендана Линча был приглашен Юэн МакГрегор, актер столь масштабного драматического дарования, отмеченного многочисленными наградами престижных МКФ. Впрочем, его более юный коллега по съемочной площадке хотя и не может похвастаться такой внушительной фильмографией, однако составляет прекрасный дуэт со своим более опытным партнером. Прекрасный фильм, сильный, с очень интересными, убедительными и опасными персонажами может похвастаться динамикой, увлекательным сюжетом и непредсказуемым развитием событий.

Качество видео: BDRip-AVC [ Blu-ray Remux / 1080p] 

Формат видео: MKV 

Видео кодек: AVC 

Аудио кодек: AC3 

Видео: 1536 Кбит/сек, 960x400 (2.40:1), 24 кадр/сек, AVC 

Аудио: русский, 384 Кбит/сек, 48 КГц, 16 бит, 5.1, AC3 

Навигация по главам: есть 

Поиск торрент раздач, пожалуйста подождите!

Информация о торрент файле

Скачать торрент Торрент: Зарегистрирован Статус: v Проверено Просмотров: 1 151 Категория: боевики Общий размер: 1.45 GB

Поделитесь ссылкой на наш сайт с друзьями в соц.сетях ↓

mega-torrent.co

Скачать фильм Молодая кровь (2013) через торрент

gig-torrent.net

7 сентября 2016 07:42 Молодая кровь / Son of a Gun (2014) BDRip-AVC от New-Team | iTunes .torrent   [Информация о файле (нажмите для просмотра)] Перевод: Профессиональный (многоголосый, закадровый) [Лицензия iTunes] озвучено студией "Марафон"Видео: 2043 Кбит/сек, 1104*460 (2,40:1), в 24,000 кадра/сек, AVCАудио #1: русский, 384 Кбит/сек, 48,0 КГц, 6 каналов, AC-3Аудио #2: английский, 448 Кбит/сек, 48,0 КГц, 6 каналов, AC-3Видео: Идентификатор : 1 Формат : AVC Формат/Информация : Advanced Video Codec Профиль формата : [email protected] Параметр CABAC формата : Да Параметр ReFrames формата : 14 кадров Идентификатор кодека : V_MPEG4/ISO/AVC Продолжительность : 1 ч. 48 м. Битрейт : 2043 Кбит/сек Ширина : 1104 пикселя Высота : 460 пикселей Соотношение сторон : 2,40:1 Режим частоты кадров : Постоянный Частота кадров : 24,000 кадра/сек Цветовое пространство : YUV Субдискретизация насыщенности : 4:2:0 Битовая глубина : 8 бит Тип развёртки : Прогрессивная Бит/(Пиксели*Кадры) : 0.168 Размер потока : 1,55 Гбайт (71%) Заголовок : Son of a Gun (2014) (New-Team) (Rip by Stalker oK) Библиотека кодирования : x264 core 148 r2638kMod 7599210 Настройки программы : cabac=1 / ref=14 / deblock=1:-3:-3 / analyse=0x3:0x133 / me=umh / subme=11 / psy=1 / fade_compensate=0.00 / psy_rd=1.00:0.10 / mixed_ref=1 / me_range=48 / chroma_me=1 / trellis=2 / 8x8dct=1 / cqm=0 / deadzone=21,11 / fast_pskip=0 / chroma_qp_offset=-3 / threads=12 / lookahead_threads=3 / sliced_threads=0 / nr=0 / decimate=0 / interlaced=0 / bluray_compat=0 / constrained_intra=0 / fgo=0 / bframes=15 / b_pyramid=2 / b_adapt=2 / b_bias=0 / direct=3 / weightb=1 / open_gop=0 / weightp=2 / keyint=240 / keyint_min=24 / scenecut=40 / intra_refresh=0 / rc_lookahead=60 / rc=2pass / mbtree=0 / bitrate=2043 / ratetol=1.0 / qcomp=0.70 / qpmin=0 / qpmax=69 / qpstep=4 / cplxblur=20.0 / qblur=0.5 / vbv_maxrate=50000 / vbv_bufsize=62500 / nal_hrd=none / filler=0 / ip_ratio=1.40 / pb_ratio=1.30 / aq=3:0.90 Default : Да Forced : НетАудио #1: Идентификатор : 2 Формат : AC-3 Формат/Информация : Audio Coding 3 Расширение режима : CM (complete main) Параметр Endianness формата : Big Идентификатор кодека : A_AC3 Продолжительность : 1 ч. 48 м. Вид битрейта : Постоянный Битрейт : 384 Кбит/сек Каналы : 6 каналов Расположение каналов : Front: L C R, Side: L R, LFE Частота : 48,0 КГц Частота кадров : 31,250 кадров/сек (1536 spf) Метод сжатия : С потерями Размер потока : 298 Мбайт (13%) Заголовок : P, MVO [студия "Марафон"] Язык : Russian Default : Да Forced : НетАудио #2: Идентификатор : 3 Формат : AC-3 Формат/Информация : Audio Coding 3 Расширение режима : CM (complete main) Параметр Endianness формата : Big Идентификатор кодека : A_AC3 Продолжительность : 1 ч. 48 м. Вид битрейта : Постоянный Битрейт : 448 Кбит/сек Каналы : 6 каналов Расположение каналов : Front: L C R, Side: L R, LFE Частота : 48,0 КГц Частота кадров : 31,250 кадров/сек (1536 spf) Метод сжатия : С потерями Размер потока : 348 Мбайт (16%) Язык : English Default : Нет Forced : Нет 2,18 Gb 12 2
7 сентября 2016 07:42 Молодая кровь / Son of a Gun (2014) BDRip-AVC от New-Team | iTunes .torrent   [Информация о файле (нажмите для просмотра)] Перевод: Профессиональный (многоголосый, закадровый) [Лицензия iTunes] озвучено студией "Марафон"Видео: 1536 Кбит/сек, 960x400 (2.40:1), 24 кадр/сек, AVCАудио: русский, 384 Кбит/сек, 48 КГц, 16 бит, 5.1, AC3Видео: Идентификатор : 1 Формат : AVC Формат/Информация : Advanced Video Codec Профиль формата : [email protected] Параметр CABAC формата : Да Параметр ReFrames формата : 14 кадров Идентификатор кодека : V_MPEG4/ISO/AVC Продолжительность : 1 ч. 48 м. Битрейт : 1536 Кбит/сек Ширина : 960 пикселей Высота : 400 пикселей Соотношение сторон : 2,40:1 Режим частоты кадров : Постоянный Частота кадров : 24,000 кадра/сек Цветовое пространство : YUV Субдискретизация насыщенности : 4:2:0 Битовая глубина : 8 бит Тип развёртки : Прогрессивная Бит/(Пиксели*Кадры) : 0.167 Размер потока : 1,16 Гбайт (80%) Заголовок : Son of a Gun (2014) (New-Team) (Rip by Stalker oK) Библиотека кодирования : x264 core 148 r2638kMod 7599210 Настройки программы : cabac=1 / ref=14 / deblock=1:-3:-3 / analyse=0x3:0x133 / me=umh / subme=11 / psy=1 / fade_compensate=0.00 / psy_rd=1.00:0.10 / mixed_ref=1 / me_range=48 / chroma_me=1 / trellis=2 / 8x8dct=1 / cqm=0 / deadzone=21,11 / fast_pskip=0 / chroma_qp_offset=-3 / threads=12 / lookahead_threads=3 / sliced_threads=0 / nr=0 / decimate=0 / interlaced=0 / bluray_compat=0 / constrained_intra=0 / fgo=0 / bframes=15 / b_pyramid=2 / b_adapt=2 / b_bias=0 / direct=3 / weightb=1 / open_gop=0 / weightp=2 / keyint=240 / keyint_min=24 / scenecut=40 / intra_refresh=0 / rc_lookahead=60 / rc=2pass / mbtree=0 / bitrate=1536 / ratetol=1.0 / qcomp=0.70 / qpmin=0 / qpmax=69 / qpstep=4 / cplxblur=20.0 / qblur=0.5 / vbv_maxrate=50000 / vbv_bufsize=62500 / nal_hrd=none / filler=0 / ip_ratio=1.40 / pb_ratio=1.30 / aq=3:0.90 Default : Да Forced : НетАудио: Идентификатор : 2 Формат : AC-3 Формат/Информация : Audio Coding 3 Расширение режима : CM (complete main) Параметр Endianness формата : Big Идентификатор кодека : A_AC3 Продолжительность : 1 ч. 48 м. Вид битрейта : Постоянный Битрейт : 384 Кбит/сек Каналы : 6 каналов Расположение каналов : Front: L C R, Side: L R, LFE Частота : 48,0 КГц Частота кадров : 31,250 кадров/сек (1536 spf) Метод сжатия : С потерями Размер потока : 298 Мбайт (20%) Заголовок : P, MVO [студия "Марафон"] Язык : Russian Default : Да Forced : Нет 1,45 Gb 17 18
7 сентября 2016 07:42 Молодая кровь / Son of a Gun (2014) BDRip-AVC | iTunes .torrent   [Информация о файле (нажмите для просмотра)] Перевод: Профессиональный многоголосый [iTunes]Качество: BDRip-AVCФормат: MKVВидео: AVC, 1024x426 (2.40:1), 1533 kbps, 24 fps, 0,146 bppАудио: русский / AC3 / 5.1 / 48 kHz / 384 kbps / 16 bit 1,45 Gb 14 3
7 сентября 2016 07:42 Молодая кровь / Son of a gun (2014) BDRip от MediaClub | КПК .torrent   [Информация о файле (нажмите для просмотра)] Качество: BDRipВидео: MPEG-4 AVC, 500 Кбит/с, 480x208, 24.000 кадр/сАудио: Русский (AAC, 2 ch, 128 Кбит/с) / Профессиональный многоголосый 493,06 Mb 3 8
7 сентября 2016 07:42 Молодая кровь / Son of a gun (2014) HDRip от Scarabey | iTunes .torrent   [Информация о файле (нажмите для просмотра)] Перевод: Профессиональный (многоголосый, закадровый) [iTunes]Видео: 688x288 (2.39:1), 24 fps, XviD build 73 ~820 kbps avg, 0.17 bit/pixelАудио: 48 kHz, MPEG Layer 3, 2 ch, ~128.00 kbps avg 746,09 Mb 10 5
7 сентября 2016 07:42 Молодая кровь / Son of a gun (2014) HDRip от Scarabey | iTunes .torrent   [Информация о файле (нажмите для просмотра)] Перевод: Профессиональный (многоголосый, закадровый) [iTunes]Видео: 720x304 (2.37:1), 24 fps, XviD build 73 ~1508 kbps avg, 0.29 bit/pixelАудио: 48 kHz, AC3 Dolby Digital, 3/2 (L,C,R,l,r) + LFE ch, ~384.00 kbps avg 1,45 Gb 8 3
7 сентября 2016 07:42 Молодая кровь / Son of a gun (2014) BDRemux 1080p от NovaLan .torrent   [Информация о файле (нажмите для просмотра)] Перевод: Профессиональный многоголосый (iTunes) / Любительский двухголосый (Пиратская студия) / Любительский одноголосый (den904)Кодек: H.264Качество: Blu-Ray Remux 1080pВидео: MPEG-4 AVC, 24986 Кбит/с, 1920x1080, 24.000 кадр/сЗвук: Русский (AC3, 6 ch, 384 Кбит/с), (AC3, 6 ch, 320 Кбит/с), английский (DTS-HD MA, 6 ch, 3470 Кбит/с), (AC3, 2 ch, 224 Кбит/с)Субтитры: Русские, английские, немецкие 24 Gb 4 7
7 сентября 2016 07:42 Молодая кровь / Son of a Gun (2014) BDRip 720p | iTunes .torrent   [Информация о файле (нажмите для просмотра)] Перевод: Профессиональный (многоголосый, закадровый) - iTunesКачество: BDRip 720pФормат: MKVВидео: MPEG4/AVC, 5683 Кбит/сек, 1280х536 (2.40:1), 24.000 кадра/секАудио 1: AC3, 6 каналов, 384 Кбит/сек |РусскийАудио 2: DTS, 6 каналов, 1509 Кбит/сек |АнглийскийСубтитры: Русские, английские (Full, SDH)Видео: Идентификатор : 1 Формат : AVC Формат/Информация : Advanced Video Codec Профиль формата : [email protected] Параметр CABAC формата : Да Параметр ReFrames формата : 9 кадров Идентификатор кодека : V_MPEG4/ISO/AVC Продолжительность : 1 ч. 48 м. Битрейт : 5683 Кбит/сек Ширина : 1280 пикселей Высота : 536 пикселей Соотношение сторон : 2,40:1 Режим частоты кадров : Постоянный Частота кадров : 24,000 кадра/сек Цветовое пространство : YUV Субдискретизация насыщенности : 4:2:0 Битовая глубина : 8 бит Тип развёртки : Прогрессивная Бит/(Пиксели*Кадры) : 0.345 Размер потока : 4,20 Гбайт (73%) Заголовок : CADAVER Библиотека кодирования : x264 core 144 r2525 40bb568 Настройки программы : cabac=1 / ref=9 / deblock=1:-3:-3 / analyse=0x3:0x113 / me=umh / subme=10 / psy=1 / psy_rd=1.05:0.00 / mixed_ref=1 / me_range=36 / chroma_me=1 / trellis=2 / 8x8dct=1 / cqm=0 / deadzone=21,11 / fast_pskip=0 / chroma_qp_offset=-2 / threads=6 / lookahead_threads=1 / sliced_threads=0 / nr=0 / decimate=0 / interlaced=0 / bluray_compat=0 / constrained_intra=0 / bframes=9 / b_pyramid=2 / b_adapt=2 / b_bias=0 / direct=3 / weightb=1 / open_gop=0 / weightp=2 / keyint=250 / keyint_min=24 / scenecut=40 / intra_refresh=0 / rc=2pass / mbtree=0 / bitrate=5683 / ratetol=1.0 / qcomp=0.60 / qpmin=0 / qpmax=69 / qpstep=4 / cplxblur=20.0 / qblur=0.5 / ip_ratio=1.40 / pb_ratio=1.30 / aq=1:0.70 Язык : English Default : Да Forced : Нет Аудио #1: Идентификатор : 2 Формат : AC-3 Формат/Информация : Audio Coding 3 Расширение режима : CM (complete main) Параметр Endianness формата : Big Идентификатор кодека : A_AC3 Продолжительность : 1 ч. 48 м. Вид битрейта : Постоянный Битрейт : 384 Кбит/сек Каналы : 6 каналов Расположение каналов : Front: L C R, Side: L R, LFE Частота : 48,0 КГц Битовая глубина : 16 бит Метод сжатия : С потерями Размер потока : 299 Мбайт (5%) Заголовок : MVO | iTunes Язык : Russian Default : Да Forced : Нет Аудио #2: Идентификатор : 3 Формат : DTS Формат/Информация : Digital Theater Systems Режим : 16 Параметр Endianness формата : Big Идентификатор кодека : A_DTS Продолжительность : 1 ч. 48 м. Вид битрейта : Постоянный Битрейт : 1509 Кбит/сек Каналы : 6 каналов Расположение каналов : Front: L C R, Side: L R, LFE Частота : 48,0 КГц Битовая глубина : 24 бит Метод сжатия : С потерями Размер потока : 1,15 Гбайт (20%) Заголовок : Original Язык : English Default : Нет Forced : Нет 5,76 Gb 15 11
7 сентября 2016 07:42 Молодая кровь / Son of a Gun (2014) BDRip 1080p | iTunes .torrent   [Информация о файле (нажмите для просмотра)] Перевод: Профессиональный (многоголосый, закадровый) - iTunesКачество: BDRip 1080pФормат: MKVВидео: MPEG4/AVC, 9999 Кбит/сек, 1920х800 (2.40:1), 24.000 кадра/секАудио 1: AC3, 6 каналов, 384 Кбит/сек |РусскийАудио 2: DTS, 6 каналов, 1509 Кбит/сек |АнглийскийСубтитры: Русские, английские (Full, SDH)Видео: Идентификатор : 1 Формат : AVC Формат/Информация : Advanced Video Codec Профиль формата : [email protected] Параметр CABAC формата : Да Параметр ReFrames формата : 5 кадров Идентификатор кодека : V_MPEG4/ISO/AVC Продолжительность : 1 ч. 48 м. Битрейт : 9999 Кбит/сек Ширина : 1920 пикселей Высота : 800 пикселей Соотношение сторон : 2,40:1 Режим частоты кадров : Постоянный Частота кадров : 24,000 кадра/сек Цветовое пространство : YUV Субдискретизация насыщенности : 4:2:0 Битовая глубина : 8 бит Тип развёртки : Прогрессивная Бит/(Пиксели*Кадры) : 0.271 Размер потока : 7,42 Гбайт (82%) Заголовок : CADAVER Библиотека кодирования : x264 core 144 r2525 40bb568 Настройки программы : cabac=1 / ref=5 / deblock=1:-3:-3 / analyse=0x3:0x113 / me=umh / subme=11 / psy=1 / psy_rd=1.05:0.00 / mixed_ref=1 / me_range=36 / chroma_me=1 / trellis=2 / 8x8dct=1 / cqm=0 / deadzone=21,11 / fast_pskip=0 / chroma_qp_offset=-2 / threads=12 / lookahead_threads=3 / sliced_threads=0 / nr=0 / decimate=0 / interlaced=0 / bluray_compat=0 / constrained_intra=0 / bframes=10 / b_pyramid=2 / b_adapt=2 / b_bias=0 / direct=3 / weightb=1 / open_gop=0 / weightp=2 / keyint=250 / keyint_min=24 / scenecut=40 / intra_refresh=0 / rc=2pass / mbtree=0 / bitrate=9999 / ratetol=1.0 / qcomp=0.60 / qpmin=0 / qpmax=69 / qpstep=4 / cplxblur=20.0 / qblur=0.5 / ip_ratio=1.40 / pb_ratio=1.30 / aq=1:0.60 Язык : English Default : Да Forced : Нет Аудио #1: Идентификатор : 2 Формат : AC-3 Формат/Информация : Audio Coding 3 Расширение режима : CM (complete main) Параметр Endianness формата : Big Идентификатор кодека : A_AC3 Продолжительность : 1 ч. 48 м. Вид битрейта : Постоянный Битрейт : 384 Кбит/сек Каналы : 6 каналов Расположение каналов : Front: L C R, Side: L R, LFE Частота : 48,0 КГц Битовая глубина : 16 бит Метод сжатия : С потерями Размер потока : 299 Мбайт (3%) Заголовок : MVO | iTunes Язык : Russian Default : Да Forced : Нет Аудио #2: Идентификатор : 3 Формат : DTS Формат/Информация : Digital Theater Systems Режим : 16 Параметр Endianness формата : Big Идентификатор кодека : A_DTS Продолжительность : 1 ч. 48 м. Вид битрейта : Постоянный Битрейт : 1509 Кбит/сек Каналы : 6 каналов Расположение каналов : Front: L C R, Side: L R, LFE Частота : 48,0 КГц Битовая глубина : 24 бит Метод сжатия : С потерями Размер потока : 1,15 Гбайт (13%) Заголовок : Original Язык : English Default : Нет Forced : Нет 9,03 Gb 9 4
7 сентября 2016 07:42 Молодая кровь / Son of a Gun (2014) HDRip | iTunes .torrent   [Информация о файле (нажмите для просмотра)] Качество: HDRipВидео: XviD, 827 Кбит/с, 720x304Аудио: MP3, 2 ch, 128 Кбит/с 751,19 Mb 6 3
7 сентября 2016 07:42 Молодая кровь / Son of a Gun (2014) HDRip | iTunes .torrent   [Информация о файле (нажмите для просмотра)] Формат: AVI (XviD)Качество: HDRip [Рип с BDRip 720p]Видео: 1915 Kb/s, 720x304Аудио: Russian / English: AC3, 384 Kb/s (6 ch) 2,05 Gb 9 6
7 сентября 2016 07:42 Молодая кровь / Son of a Gun (2014) HDRip | iTunes .torrent   [Информация о файле (нажмите для просмотра)] Формат: AVI (XviD)Качество: HDRip [Рип с BDRip 720p]Видео: 1405 Kb/s, 720x304Аудио: AC3, 384 Kb/s (6 ch) 1,37 Gb 38 6

Скачать фильм Молодая кровь через торрент в хорошем качестве бесплатно BDRip-AVC от sokol_ok

ОбщееУникальный идентификатор : 209529709921114014711767510896203767331 (0x9DA1F44A399D4A6BA81F2F4DA6F39E23)Полное имя : M:\Rips\Son of a gun\Son.of.a.Gun.2014.BDRip-AVC.MVO.1.45Gb.stalkerok.new-team.mkvФормат : MatroskaВерсия формата : Version 4 / Version 2Размер файла : 1,45 ГбайтПродолжительность : 1 ч. 48 м.Общий поток : 1917 Кбит/секНазвание фильма : Son of a Gun (2014) (New-Team) (Rip by Stalker oK)Дата кодирования : UTC 2016-05-07 11:49:13Программа кодирования : mkvmerge v8.6.1 ('Flying') 64bitБиблиотека кодирования : libebml v1.3.3 + libmatroska v1.4.4

ВидеоИдентификатор : 1Формат : AVCФормат/Информация : Advanced Video CodecПрофиль формата : [email protected]Параметр CABAC формата : ДаПараметр ReFrames формата : 14 кадровИдентификатор кодека : V_MPEG4/ISO/AVCПродолжительность : 1 ч. 48 м.Битрейт : 1536 Кбит/секШирина : 960 пикселейВысота : 400 пикселейСоотношение сторон : 2,40:1Режим частоты кадров : ПостоянныйЧастота кадров : 24,000 кадра/секЦветовое пространство : YUVСубдискретизация насыщенности : 4:2:0Битовая глубина : 8 битТип развёртки : ПрогрессивнаяБит/(Пиксели*Кадры) : 0.167Размер потока : 1,16 Гбайт (80%)Заголовок : Son of a Gun (2014) (New-Team) (Rip by Stalker oK)Библиотека кодирования : x264 core 148 r2638kMod 7599210Настройки программы : cabac=1 / ref=14 / deblock=1:-3:-3 / analyse=0x3:0x133 / me=umh / subme=11 / psy=1 / fade_compensate=0.00 / psy_rd=1.00:0.10 / mixed_ref=1 / me_range=48 / chroma_me=1 / trellis=2 / 8x8dct=1 / cqm=0 / deadzone=21,11 / fast_pskip=0 / chroma_qp_offset=-3 / threads=12 / lookahead_threads=3 / sliced_threads=0 / nr=0 / decimate=0 / interlaced=0 / bluray_compat=0 / constrained_intra=0 / fgo=0 / bframes=15 / b_pyramid=2 / b_adapt=2 / b_bias=0 / direct=3 / weightb=1 / open_gop=0 / weightp=2 / keyint=240 / keyint_min=24 / scenecut=40 / intra_refresh=0 / rc_lookahead=60 / rc=2pass / mbtree=0 / bitrate=1536 / ratetol=1.0 / qcomp=0.70 / qpmin=0 / qpmax=69 / qpstep=4 / cplxblur=20.0 / qblur=0.5 / vbv_maxrate=50000 / vbv_bufsize=62500 / nal_hrd=none / filler=0 / ip_ratio=1.40 / pb_ratio=1.30 / aq=3:0.90Default : ДаForced : Нет

АудиоИдентификатор : 2Формат : AC-3Формат/Информация : Audio Coding 3Расширение режима : CM (complete main)Параметр Endianness формата : BigИдентификатор кодека : A_AC3Продолжительность : 1 ч. 48 м.Вид битрейта : ПостоянныйБитрейт : 384 Кбит/секКаналы : 6 каналовРасположение каналов : Front: L C R, Side: L R, LFEЧастота : 48,0 КГцЧастота кадров : 31,250 кадров/сек (1536 spf)Метод сжатия : С потерямиРазмер потока : 298 Мбайт (20%)Заголовок : P, MVO [студия "Марафон"]Язык : RussianDefault : ДаForced : Нет

Текст #1Идентификатор : 3Формат : UTF-8Идентификатор кодека : S_TEXT/UTF8Идентификатор кодека/Информация : UTF-8 Plain TextПродолжительность : 1 ч. 42 м.Битрейт : 54 бит/секCount of elements : 962Размер потока : 40,6 Кбайт (0%)Заголовок : [Antonio] // BDЯзык : RussianDefault : НетForced : Нет

Текст #2Идентификатор : 4Формат : UTF-8Идентификатор кодека : S_TEXT/UTF8Идентификатор кодека/Информация : UTF-8 Plain TextПродолжительность : 1 ч. 42 м.Битрейт : 53 бит/секCount of elements : 933Размер потока : 40,4 Кбайт (0%)Заголовок : [Antonio] // WEBЯзык : RussianDefault : НетForced : Нет

Текст #3Идентификатор : 5Формат : UTF-8Идентификатор кодека : S_TEXT/UTF8Идентификатор кодека/Информация : UTF-8 Plain TextПродолжительность : 1 ч. 41 м.Битрейт : 37 бит/секCount of elements : 933Размер потока : 28,1 Кбайт (0%)Язык : EnglishDefault : НетForced : Нет

Меню00:00:00.000 : en:Opening Sequence00:09:10.833 : en:Any Better Suggestions00:16:41.708 : en:Walk, Walk00:26:40.916 : en:Open The Door00:34:41.458 : en:Not Much About Art00:44:54.000 : en:Just Dumplings00:54:06.708 : en:Kind Of Peaceful00:59:34.583 : en:Hold Tight01:07:45.000 : en:They Have Guns01:13:47.208 : en:Keep Going01:23:47.041 : en:The Spot01:33:41.125 : en:Any Goon In A Storm?

piratbit.ru

Скачать фильм Молодая кровь через торрент в хорошем качестве бесплатно BDRip от Twi7ter

piratbit.ru

Размер: 1.41 GB | Добавлен: 2 года 2 мес. назад | Торрент скачан:596 раз
Реклама Дарим 3000 рублей за регистрацию, не упусти свой шанс получить шикарный бонус!!!

27-07-2015 08:48 Молодая кровь Скачать торрент  

Молодая кровь / Son of a Gun

«Everyone gets what they deserve»

Год выпуска: 2014Страна: Австралия / Altitude Film Entertainment, Bridle Path Films, Media House CapitalЖанр: боевик, триллер, драма, криминалПродолжительность: 01:49:12Перевод: Профессиональный (многоголосый, закадровый) [iTunes]Субтитры: НетРежиссер: Джулиус Эйвери / Julius AveryВ ролях: Юэн МакГрегор (Brendan Lynch), Brendan Kerkvliet (Prison Officer), Брентон Туэйтс (JR), Алисия Викандер (Tasha), Джофф Келсо (Prison Officer), Яцек Коман (Sam Lennox), Мэтью Нэйбл (Sterlo), Peter Neaves (Prison Officer), Том Бадж (Josh), Эдди Бару (Merv), Нэш Эдгертон (Chris), Дэймон Херриман (Wilson)Описание: Джей и красавица Наташа любят друг друга. И всё бы ничего, если бы молодая пара не поучаствовала в ограблении века и не похитила груду золота. Но главная проблема в том, что предводитель их банды - легендарный грабитель Брэндан Линч, не собирается ни с кем делиться добычей. И вовсе не хочет никого отпускать «жить счастливо». Поэтому Джей с Наташей могут либо «умереть в один день», либо придумать собственный хитроумный план со счастливым концом.

MPAA: R - Лицам до 17 лет обязательно присутствие взрослого

Качество: BDRip | исх. Son of a Gun 2014 MULTi COMPLETE BLURAY-XORBiTANT |Формат: AVIВидео кодек: XviDАудио кодек: AC3Видео: 720x304 (2.37:1), 24 fps, XviD build 73 ~1465 kbps avg, 0.28 bit/pixelАудио: 48 kHz, AC3 Dolby Digital, 3/2 (L,C,R,l,r) + LFE ch, ~384 kbps

Релиз: & MegaPeer

Скачать Молодая кровь через торрент http://i69.fastpic.ru/big/2015/0725/58/b10f4f6c25513f059c0cd6709c5cc458.png Скачать фильм Молодая кровь через торрент бесплантно в хорошем качестве Описание: Джей и красавица Наташа любят друг друга. И всё бы ничего, если бы молодая пара не поучаствовала в ограблении века и не похитила ... 2015-07-27 08:48 9.7 10 23

Loading...

Loading...

Последний раз редактировалось: Twi7ter (2015-07-28 14:49), всего редактировалось 1 раз

Рекламный пират

27-07-2015 17:07 Молодая кровь Скачать торрент  

фильм на раз, смотрел пару месяцев назад

Дорогой пользователь! Огромная просьба, поблагодарите релизера, оцените раздачу и оставьте свои комментарий, если Вы скачали Молодая кровь через торрент бесплатно! Внесите свою лепту в развитие PiratBit!

Комментировать посты могут только пользователи прошедшие не сложную регистрацию

Молодая кровь через торрент Скачать бесплатно Молодая кровь Молодая кровь скачать торрент Молодая кровь смотреть онлайн Cкачать фильм Молодая кровь бесплатно Молодая кровь скачать торрент в хорошем качестве Молодая кровь смотреть онлайн бесплатно в хорошем качестве

Вы не можете начинать темыВы не можете отвечать на сообщенияВы не можете редактировать свои сообщенияВы не можете удалять свои сообщенияВы не можете голосовать в опросахВы не можете прикреплять файлы к сообщениямВы можете скачивать файлы

Скачать фильм Молодая кровь через торрент в хорошем качестве бесплатно BDRip-AVC от sokol_ok

ОбщееУникальный идентификатор : 182106269286151928050475438530124676851 (0x89006446F7C9C2FBAA2DA00F19257EF3)Полное имя : M:\Rips\Son of a gun\Son.of.a.Gun.2014.BDRip-AVC.MVO.2.18Gb.stalkerok.new-team.mkvФормат : MatroskaВерсия формата : Version 4 / Version 2Размер файла : 2,18 ГбайтПродолжительность : 1 ч. 48 м.Общий поток : 2874 Кбит/секНазвание фильма : Son of a Gun (2014) (New-Team) (Rip by Stalker oK)Дата кодирования : UTC 2016-05-07 14:09:02Программа кодирования : mkvmerge v8.6.1 ('Flying') 64bitБиблиотека кодирования : libebml v1.3.3 + libmatroska v1.4.4

ВидеоИдентификатор : 1Формат : AVCФормат/Информация : Advanced Video CodecПрофиль формата : [email protected]Параметр CABAC формата : ДаПараметр ReFrames формата : 14 кадровИдентификатор кодека : V_MPEG4/ISO/AVCПродолжительность : 1 ч. 48 м.Битрейт : 2043 Кбит/секШирина : 1104 пикселяВысота : 460 пикселейСоотношение сторон : 2,40:1Режим частоты кадров : ПостоянныйЧастота кадров : 24,000 кадра/секЦветовое пространство : YUVСубдискретизация насыщенности : 4:2:0Битовая глубина : 8 битТип развёртки : ПрогрессивнаяБит/(Пиксели*Кадры) : 0.168Размер потока : 1,55 Гбайт (71%)Заголовок : Son of a Gun (2014) (New-Team) (Rip by Stalker oK)Библиотека кодирования : x264 core 148 r2638kMod 7599210Настройки программы : cabac=1 / ref=14 / deblock=1:-3:-3 / analyse=0x3:0x133 / me=umh / subme=11 / psy=1 / fade_compensate=0.00 / psy_rd=1.00:0.10 / mixed_ref=1 / me_range=48 / chroma_me=1 / trellis=2 / 8x8dct=1 / cqm=0 / deadzone=21,11 / fast_pskip=0 / chroma_qp_offset=-3 / threads=12 / lookahead_threads=3 / sliced_threads=0 / nr=0 / decimate=0 / interlaced=0 / bluray_compat=0 / constrained_intra=0 / fgo=0 / bframes=15 / b_pyramid=2 / b_adapt=2 / b_bias=0 / direct=3 / weightb=1 / open_gop=0 / weightp=2 / keyint=240 / keyint_min=24 / scenecut=40 / intra_refresh=0 / rc_lookahead=60 / rc=2pass / mbtree=0 / bitrate=2043 / ratetol=1.0 / qcomp=0.70 / qpmin=0 / qpmax=69 / qpstep=4 / cplxblur=20.0 / qblur=0.5 / vbv_maxrate=50000 / vbv_bufsize=62500 / nal_hrd=none / filler=0 / ip_ratio=1.40 / pb_ratio=1.30 / aq=3:0.90Default : ДаForced : Нет

Аудио #1Идентификатор : 2Формат : AC-3Формат/Информация : Audio Coding 3Расширение режима : CM (complete main)Параметр Endianness формата : BigИдентификатор кодека : A_AC3Продолжительность : 1 ч. 48 м.Вид битрейта : ПостоянныйБитрейт : 384 Кбит/секКаналы : 6 каналовРасположение каналов : Front: L C R, Side: L R, LFEЧастота : 48,0 КГцЧастота кадров : 31,250 кадров/сек (1536 spf)Метод сжатия : С потерямиРазмер потока : 298 Мбайт (13%)Заголовок : P, MVO [студия "Марафон"]Язык : RussianDefault : ДаForced : Нет

Аудио #2Идентификатор : 3Формат : AC-3Формат/Информация : Audio Coding 3Расширение режима : CM (complete main)Параметр Endianness формата : BigИдентификатор кодека : A_AC3Продолжительность : 1 ч. 48 м.Вид битрейта : ПостоянныйБитрейт : 448 Кбит/секКаналы : 6 каналовРасположение каналов : Front: L C R, Side: L R, LFEЧастота : 48,0 КГцЧастота кадров : 31,250 кадров/сек (1536 spf)Метод сжатия : С потерямиРазмер потока : 348 Мбайт (16%)Язык : EnglishDefault : НетForced : Нет

Текст #1Идентификатор : 4Формат : UTF-8Идентификатор кодека : S_TEXT/UTF8Идентификатор кодека/Информация : UTF-8 Plain TextПродолжительность : 1 ч. 42 м.Битрейт : 54 бит/секCount of elements : 962Размер потока : 40,6 Кбайт (0%)Заголовок : [Antonio] // BDЯзык : RussianDefault : НетForced : Нет

Текст #2Идентификатор : 5Формат : UTF-8Идентификатор кодека : S_TEXT/UTF8Идентификатор кодека/Информация : UTF-8 Plain TextПродолжительность : 1 ч. 42 м.Битрейт : 53 бит/секCount of elements : 933Размер потока : 40,4 Кбайт (0%)Заголовок : [Antonio] // WEBЯзык : RussianDefault : НетForced : Нет

Текст #3Идентификатор : 6Формат : UTF-8Идентификатор кодека : S_TEXT/UTF8Идентификатор кодека/Информация : UTF-8 Plain TextПродолжительность : 1 ч. 41 м.Битрейт : 37 бит/секCount of elements : 933Размер потока : 28,1 Кбайт (0%)Язык : EnglishDefault : НетForced : Нет

Меню00:00:00.000 : en:Opening Sequence00:09:10.833 : en:Any Better Suggestions00:16:41.708 : en:Walk, Walk00:26:40.916 : en:Open The Door00:34:41.458 : en:Not Much About Art00:44:54.000 : en:Just Dumplings00:54:06.708 : en:Kind Of Peaceful00:59:34.583 : en:Hold Tight01:07:45.000 : en:They Have Guns01:13:47.208 : en:Keep Going01:23:47.041 : en:The Spot01:33:41.125 : en:Any Goon In A Storm?

piratbit.ru


Смотрите также