Молчание ягнят скачать торрент в хорошем качестве hd 1080


Скачать фильм Молчание ягнят через торрент в хорошем качестве бесплатно 1080p)

Размер: 15.76 GB | Добавлен: 5 лет 8 мес. назад | Торрент скачан:38 раз
Реклама Дарим 3000 рублей за регистрацию, не упусти свой шанс получить шикарный бонус!!!

24-02-2012 19:27 Молчание ягнят Скачать торрент  

Молчание ягнят / The Silence of the Lambs

Год выпуска: 1991Страна: СШАЖанр: триллер, криминал, детективПродолжительность: 01:58:32Перевод: Профессиональный (полное дублирование) [Лицензия]

Режиссер: Джонатан ДеммеПродюссер: Рональд М. Бозман, Эдвард Саксон, Кеннет АттСценарий: Тед Тэлли, Томас Харрис

Бюджет: $19 000 000

Лицам до 17 лет обязательно присутствие взрослого

В ролях: Джоди Фостер, Энтони Хопкинс, Скотт Гленн, Тед Левайн, Брук Смит, Энтони Хилд, Кейси Леммонс, Дайан Бэйкер, Фрэнки Фэйзон, Дэн Батлер, Наталья Казначеева, Игорь Тарадайкин, Андрей Симанов, Михаил Тихонов, Александр Котов

Описание: Психопат похищает и убивает молодых женщин по всему Среднему Западу Америки. ФБР, уверенное в том, что все преступления совершены одним и тем же человеком, поручает агенту Клариссе Стерлинг встретиться с заключенным-маньяком, который мог бы объяснить следствию психологические мотивы серийного убийцы и тем самым вывести на его след.

Заключенный, доктор психиатрии Ганнибал Лектер, отбывает наказание за убийства и каннибализм. Он согласен помочь Клариссе лишь в том случае, если она попотчует его больное воображение подробностями своей сложной личной жизни. Такие двусмысленные отношения не только порождают в душе Клариссы внутренний конфликт, но и сталкивают ее лицом к лицу с помешанным до гениальности убийцей.

Воплощение дьявола настолько сильно, что ей может не хватить мужества и стойкости, чтобы остановить его…

Качество: BDRip (1080p)Формат: MKVВидео кодек: AVCАудио кодек: DTSВидео: AVC, 1920x1040 (16:9), 23.976 fps, 9 972 Kbps (0.208 bit/pixel)Аудио#1: Russian: 48 kHz, DTS, 3/2 (L,C,R,l,r) + LFE ch, ~768.00 kbps avg |Дубляж|Аудио#2: Russian: 48 kHz, DTS, 3/2 (L,C,R,l,r) + LFE ch, ~768.00 kbps avg |Многоголосый закадровый, Позитив/Супербит/Тайкун|Аудио#3: Russian: 48 kHz, DTS, 3/2 (L,C,R,l,r) + LFE ch, ~1536.00 kbps avg |Многоголосый закадровый, Киномания|Аудио#4: Russian: 48 kHz, DTS, 3/2 (L,C,R,l,r) + LFE ch, ~1536.00 kbps avg |Одноголосый закадровый, А. Михалев|Аудио#5: Russian: 48 kHz, DTS, 3/2 (L,C,R,l,r) + LFE ch, ~1536.00 kbps avg |Одноголосый закадровый, Ю. Живов|Аудио#6: Russian: 48 kHz, DTS, 3/2 (L,C,R,l,r) + LFE ch, ~1536.00 kbps avg |Одноголосый закадровый, Г. Либергал|Аудио#7: English: 48 kHz, DTS, 3/2 (L,C,R,l,r) + LFE ch, ~1536.00 kbps avg |Original|Субтитры: Russian (Лицензия), Russian (Позитив/Супербит/Тайкун), Russian (Киномания), Russian (надписи), EnglishСкачать[sup] :ad: --> [/sup] [sup] <-- :ad: [/sup]

        ОбщееУникальный идентификатор : 172042938232223490879521934562348984220 (0x816E43BFDA2154D79EE87D33F66B679C)Полное имя : F:\The.Silence.of.the.Lambs.1991.1080p.BluRay.6xRus.Eng.HDCLUB.mkvФормат : MatroskaВерсия формата : Version 1Размер файла : 15,8 ГбайтПродолжительность : 1 ч. 58 м.Общий поток : 19,0 Мбит/секНазвание фильма : The Silence of the Lambs (1991) - Release for HDCLUBДата кодирования : UTC 2009-03-18 17:39:41Программа кодирования : mkvmerge v2.0.2 ('You're My Flame') built on Feb 21 2007 23:40:55Библиотека кодирования : libebml v0.7.7 + libmatroska v0.8.1

ВидеоИдентификатор : 1Формат : AVCФормат/Информация : Advanced Video CodecПрофиль формата : [email protected]Параметр CABAC формата : ДаПараметр ReFrames формата : 4 кадраИдентификатор кодека : V_MPEG4/ISO/AVCПродолжительность : 1 ч. 58 м.Битрейт : 9972 Кбит/секШирина : 1920 пикселейВысота : 1040 пикселейСоотношение сторон : 16:9Частота кадров : 23,976 кадра/секЦветовое пространство : YUVСубдискретизация насыщенности : 4:2:0Битовая глубина : 8 битТип развёртки : ПрогрессивнаяБит/(Пиксели*Кадры) : 0.208Размер потока : 7,95 Гбайт (50%)Заголовок : Release for HDCLUBБиблиотека кодирования : x264 core 67 r1125M 10d6ef0Настройки программы : cabac=1 / ref=4 / deblock=1:-3:-3 / analyse=0x3:0x113 / me=umh / subme=9 / psy_rd=1.0:0.0 / mixed_ref=1 / me_range=32 / chroma_me=1 / trellis=0 / 8x8dct=1 / cqm=2 / deadzone=6,4 / chroma_qp_offset=-2 / threads=6 / nr=0 / decimate=0 / mbaff=0 / bframes=3 / b_pyramid=1 / b_adapt=2 / b_bias=0 / direct=3 / wpredb=1 / keyint=240 / keyint_min=24 / scenecut=40 / rc=2pass / bitrate=9972 / ratetol=1.0 / qcomp=0.60 / qpmin=10 / qpmax=51 / qpstep=4 / cplxblur=20.0 / qblur=0.5 / ip_ratio=1.40 / pb_ratio=1.30 / aq=1:1.00Язык : EnglishDefault : ДаForced : Нет

Аудио #1Идентификатор : 2Формат : DTSФормат/Информация : Digital Theater SystemsИдентификатор кодека : A_DTSПродолжительность : 1 ч. 58 м.Вид битрейта : ПостоянныйБитрейт : 755 Кбит/секКаналы : 6 каналовРасположение каналов : Front: L C R, Side: L R, LFEЧастота : 48,0 КГцБитовая глубина : 24 битМетод сжатия : С потерямиРазмер потока : 640 Мбайт (4%)Заголовок : DTS 5.1 768 kbps ДубляжЯзык : RussianDefault : ДаForced : Нет

Аудио #2Идентификатор : 3Формат : DTSФормат/Информация : Digital Theater SystemsИдентификатор кодека : A_DTSПродолжительность : 1 ч. 58 м.Вид битрейта : ПостоянныйБитрейт : 755 Кбит/секКаналы : 6 каналовРасположение каналов : Front: L C R, Side: L R, LFEЧастота : 48,0 КГцБитовая глубина : 24 битМетод сжатия : С потерямиРазмер потока : 640 Мбайт (4%)Заголовок : DTS 5.1 768 kbps Многоголосый закадровый Позитив/Супербит/ТайкунЯзык : RussianDefault : НетForced : Нет

Аудио #3Идентификатор : 4Формат : DTSФормат/Информация : Digital Theater SystemsИдентификатор кодека : A_DTSПродолжительность : 1 ч. 58 м.Вид битрейта : ПостоянныйБитрейт : 1510 Кбит/секКаналы : 6 каналовРасположение каналов : Front: L C R, Side: L R, LFEЧастота : 48,0 КГцБитовая глубина : 24 битМетод сжатия : С потерямиРазмер потока : 1,25 Гбайт (8%)Заголовок : DTS 5.1 1536 kbps Многоголосый закадровый КиноманияЯзык : RussianDefault : НетForced : Нет

Аудио #4Идентификатор : 5Формат : DTSФормат/Информация : Digital Theater SystemsИдентификатор кодека : A_DTSПродолжительность : 1 ч. 58 м.Вид битрейта : ПостоянныйБитрейт : 1510 Кбит/секКаналы : 6 каналовРасположение каналов : Front: L C R, Side: L R, LFEЧастота : 48,0 КГцБитовая глубина : 24 битМетод сжатия : С потерямиРазмер потока : 1,25 Гбайт (8%)Заголовок : DTS 5.1 1536 kbps Одноголосый закадровый - А.МихалевЯзык : RussianDefault : НетForced : Нет

Аудио #5Идентификатор : 6Формат : DTSФормат/Информация : Digital Theater SystemsИдентификатор кодека : A_DTSПродолжительность : 1 ч. 58 м.Вид битрейта : ПостоянныйБитрейт : 1510 Кбит/секКаналы : 6 каналовРасположение каналов : Front: L C R, Side: L R, LFEЧастота : 48,0 КГцБитовая глубина : 24 битМетод сжатия : С потерямиРазмер потока : 1,25 Гбайт (8%)Заголовок : DTS 5.1 1536 kbps Одноголосый закадровый - Ю.ЖивовЯзык : RussianDefault : НетForced : Нет

Аудио #6Идентификатор : 7Формат : DTSФормат/Информация : Digital Theater SystemsИдентификатор кодека : A_DTSПродолжительность : 1 ч. 58 м.Вид битрейта : ПостоянныйБитрейт : 1510 Кбит/секКаналы : 6 каналовРасположение каналов : Front: L C R, Side: L R, LFEЧастота : 48,0 КГцБитовая глубина : 24 битМетод сжатия : С потерямиРазмер потока : 1,25 Гбайт (8%)Заголовок : DTS 5.1 1536 kbps Одноголосый закадровый - Г.ЛибергалЯзык : RussianDefault : НетForced : Нет

Аудио #7Идентификатор : 8Формат : DTSФормат/Информация : Digital Theater SystemsИдентификатор кодека : A_DTSПродолжительность : 1 ч. 58 м.Вид битрейта : ПостоянныйБитрейт : 1510 Кбит/секКаналы : 6 каналовРасположение каналов : Front: L C R, Side: L R, LFEЧастота : 48,0 КГцБитовая глубина : 24 битМетод сжатия : С потерямиРазмер потока : 1,25 Гбайт (8%)Заголовок : DTS 5.1 1536 kbpsЯзык : EnglishDefault : НетForced : Нет

Текст #1Идентификатор : 9Формат : UTF-8Идентификатор кодека : S_TEXT/UTF8Идентификатор кодека/Информация : UTF-8 Plain TextЗаголовок : ЛицензияЯзык : RussianDefault : ДаForced : Нет

Текст #2Идентификатор : 10Формат : UTF-8Идентификатор кодека : S_TEXT/UTF8Идентификатор кодека/Информация : UTF-8 Plain TextЗаголовок : Позитив/Супербит/ТайкунЯзык : RussianDefault : НетForced : Нет

Текст #3Идентификатор : 11Формат : UTF-8Идентификатор кодека : S_TEXT/UTF8Идентификатор кодека/Информация : UTF-8 Plain TextЗаголовок : КиноманияЯзык : RussianDefault : НетForced : Нет

Текст #4Идентификатор : 12Формат : UTF-8Идентификатор кодека : S_TEXT/UTF8Идентификатор кодека/Информация : UTF-8 Plain TextЗаголовок : НадписиЯзык : RussianDefault : НетForced : Нет

Текст #5Идентификатор : 13Формат : UTF-8Идентификатор кодека : S_TEXT/UTF8Идентификатор кодека/Информация : UTF-8 Plain TextЯзык : EnglishDefault : НетForced : Нет

Скачать Молчание ягнят через торрент http://pic.pb.wtf/images/2011/z7whff1kek.jpg Скачать фильм Молчание ягнят через торрент бесплантно в хорошем качестве Описание: Психопат похищает и убивает молодых женщин по всему Среднему Западу Америки. ФБР, уверенное в том, что все преступления совершены ... 2012-02-24 19:27 10 10 4

Loading...

Loading...

Рекламный пират

Дорогой пользователь! Огромная просьба, поблагодарите релизера, оцените раздачу и оставьте свои комментарий, если Вы скачали Молчание ягнят через торрент бесплатно! Внесите свою лепту в развитие PiratBit!

Комментировать посты могут только пользователи прошедшие не сложную регистрацию

Молчание ягнят через торрент Скачать бесплатно Молчание ягнят Молчание ягнят скачать торрент Молчание ягнят смотреть онлайн Cкачать фильм Молчание ягнят бесплатно Молчание ягнят скачать торрент в хорошем качестве Молчание ягнят смотреть онлайн бесплатно в хорошем качестве

Вы не можете начинать темыВы не можете отвечать на сообщенияВы не можете редактировать свои сообщенияВы не можете удалять свои сообщенияВы не можете голосовать в опросахВы не можете прикреплять файлы к сообщениямВы можете скачивать файлы

piratbit.ru

Скачать фильм Молчание ягнят через торрент в хорошем качестве бесплатно BDRip

Размер: 1.79 GB &verbar; Добавлен: 5 лет 8 мес. назад &verbar; Торрент скачан:361 раз
Реклама Дарим 3000 рублей за регистрацию, не упусти свой шанс получить шикарный бонус!!!

12-02-2012 16:26 Молчание ягнят Скачать торрент  

[font="Georgia"]Молчание ягнят / The Silence of the Lambs [font="Georgia"]Год выпуска: 1991Страна: СШАЖанр: триллер, криминалПродолжительность: 01:58:31Перевод: Профессиональный (многоголосый, закадровый) КиноманияПеревод: Профессиональный (многоголосый, закадровый) Видеосервис (отдельно)Перевод: Профессиональный (многоголосый, закадровый) НТВ+ (отдельно)Перевод: Профессиональный (многоголосый, закадровый) Позитив (отдельно)Перевод: Профессиональный (двухголосый, закадровый) Лазер Видео (отдельно)Перевод: Профессиональный (двухголосый, закадровый) НТВ (отдельно)Перевод: Профессиональный (двухголосый, закадровый) Союз Видео (отдельно)Перевод: Профессиональный (одноголосый, закадровый) Живов (отдельно)Перевод: Профессиональный (одноголосый, закадровый) Либергал (отдельно)Перевод: Профессиональный (одноголосый, закадровый) Михалев (отдельно)Перевод: Профессиональный (одноголосый, закадровый) Сербин (отдельно)Русские субтитры: нет[font="Georgia"]Режиссер: Джонатан Демме / Jonathan DemmeВ ролях: Джоди Фостер, Энтони Хопкинс, Скотт Гленн, Тед Левайн, Брук Смит, Энтони Хилд, Кейси ЛеммонсОписание: Психопат похищает и убивает молодых женщин по всему Среднему Западу Америки. ФБР, уверенное в том, что все преступления совершены одним и тем же человеком, поручает агенту Клариссе Стерлинг встретиться с заключенным-маньяком, который мог бы объяснить следствию психологические мотивы серийного убийцы и тем самым вывести на его след.Заключенный, доктор психиатрии Ганнибал Лектер, отбывает наказание за убийства и каннибализм. Он согласен помочь Клариссе лишь в том случае, если она попотчует его больное воображение подробностями своей сложной личной жизни. Такие двусмысленные отношения не только порождают в душе Клариссы внутренний конфликт, но и сталкивают ее лицом к лицу с помешанным до гениальности убийцей.Воплощение дьявола настолько сильно, что ей может не хватить мужества и стойкости, чтобы остановить его…[font="Georgia"]Качество: BDRipФормат: AVIВидео кодек: XviDАудио кодек: MP3 Видео: 624x336 (1.86:1), 23.976 fps, XviD MPEG-4, 740 kbps , 0.15 bit/pixelАудио #1: 48 kHz, MPEG Layer 3, 2/0 (L,R) ch, 128.00 kbps КиноманияАудио #2: 48 kHz, MPEG Layer 3, 2/0 (L,R) ch, 128.00 kbps ВидеосервисАудио #3: 48 kHz, MPEG Layer 3, 2/0 (L,R) ch, 128.00 kbps НТВ+Аудио #4: 48 kHz, MPEG Layer 3, 2/0 (L,R) ch, 128.00 kbps ПозитивАудио #5: 48 kHz, MPEG Layer 3, 2/0 (L,R) ch, 128.00 kbps Лазер ВидеоАудио #6: 48 kHz, MPEG Layer 3, 2/0 (L,R) ch, 128.00 kbps НТВАудио #7: 48 kHz, MPEG Layer 3, 2/0 (L,R) ch, 128.00 kbps Союз ВидеоАудио #8: 48 kHz, MPEG Layer 3, 2/0 (L,R) ch, 128.00 kbps ЖивовАудио #9: 48 kHz, MPEG Layer 3, 2/0 (L,R) ch, 128.00 kbps ЛибергалАудио #10: 48 kHz, MPEG Layer 3, 2/0 (L,R) ch, 128.00 kbps МихалевАудио #11: 48 kHz, MPEG Layer 3, 2/0 (L,R) ch, 128.00 kbps Сербин Скачать Молчание ягнят через торрент http://s002.youpic.su/pictures/1328994000/7a32b1cd32e991f6683de274a5c2ab55.jpg Скачать фильм Молчание ягнят через торрент бесплантно в хорошем качестве Описание: Психопат похищает и убивает молодых женщин по всему Среднему Западу Америки. ФБР, уверенное в том, что все преступления совершены ... 2012-02-12 16:26 9.8 10 5

Loading...

Loading...

Последний раз редактировалось: -=Cherry=- (2012-02-12 16:32), всего редактировалось 1 раз

Рекламный пират

12-02-2012 16:29 Молчание ягнят Скачать торрент  

Мега фильм, всем СОВЕТУЮ!=)

12-02-2012 17:42 Молчание ягнят Скачать торрент  

sasoru8 писал(а):

Мега фильм, всем СОВЕТУЮ!=)

обязателен к просмотру!!!

Дорогой пользователь! Огромная просьба, поблагодарите релизера, оцените раздачу и оставьте свои комментарий, если Вы скачали Молчание ягнят через торрент бесплатно! Внесите свою лепту в развитие PiratBit!

Комментировать посты могут только пользователи прошедшие не сложную регистрацию

Молчание ягнят через торрент Скачать бесплатно Молчание ягнят Молчание ягнят скачать торрент Молчание ягнят смотреть онлайн Cкачать фильм Молчание ягнят бесплатно Молчание ягнят скачать торрент в хорошем качестве Молчание ягнят смотреть онлайн бесплатно в хорошем качестве

Вы не можете начинать темыВы не можете отвечать на сообщенияВы не можете редактировать свои сообщенияВы не можете удалять свои сообщенияВы не можете голосовать в опросахВы не можете прикреплять файлы к сообщениямВы можете скачивать файлы

piratbit.ru

Молчание ягнят / The Silence of the Lambs (1991) HDRip скачать торрент

Большая часть съемочного материала была подготовлена в Питтсбурге. Город идеально подходил для съемок ввиду огромного количества архитектурных сооружений и прочих красивых мест. Таким образом, участникам съемочной группы удалось создать иллюзию того, что съемки проходили в разных уголках страны.

Данная картина стала третьей за всю историю проведения церемонии Оскар, которой удалось завоевать все 5 главных наград: «Лучшая картина», «Лучший режиссер», «Лучший актер», «Лучшая актриса» и «Лучший сценарий». До этого таких же почестей удостоились «Это случилось однажды ночью» (1934) и «Пролетая над гнездом кукушки» (1975)

Энтони Хопкинс описывая голос, предоставленный своему персонажу Ганнибалу Лектеру, назвал его «симбиозом Трумана Капота и Кетрин Хепберн».

Если внимательно присмотреться к постеру, то можно увидеть изображение черепа на теле бабочки. А если присмотреться еще внимательнее, то можно разглядеть, что череп состоит как минимум из трех обнаженных девушек (есть такие варианты постеров, на которых можно насчитать аж до семи девушек).

Маньяк по имени Буффало Билл стал эдаким собирательным образом трех реально существовавших серийных убийц. Итак, познакомьтесь с этими жуткими людьми, за плечами каждого из которых не менее полсотни жертв: Эд Гейн, любивший снимать кожу со своих жертв, красавчик Тед Банди, использующий фальшивую гипсовую повязку на руке для привлечения наивных женщин, и Гари Хейдник, любитель держать своих жертв в глубокой яме, где они, как правило, и умирали от голода.

Буффало Билл клал жертвам в рот куколки бражника мёртвая голова. Для преступника они были символом перерождения — он хотел превратиться в женщину, как куколка в бабочку.

Во время первой встречи Клариссы и доктора Лектера последний намекнул, где же можно найти Буффало Билла. Он описал свой рисунок, сделанный на стене камеры-одиночки: «Она называется Дуомо — видел эту картину в итальянском Бельведере». Чуть позднее Старлинг узнает, что Буффало Билл проживает в Бельведере, штат Огайо.

Во время съемок этой сцены, Энтони Хопкинс постарался смотреть прямо в камеру, мотивируя данный поступок тем, что при таком ракурсе у зрителя создастся впечатление, что его персонаж «знает абсолютно всё».

Прототипом Ганнибала Лектера был серийный убийца Альберт Фиш. Этому недочеловеку больше всего по душе было подкарауливать маленьких девочек, долго-долго мучить их перед тем, как убить, а впоследствии поедать их изуродованные тела.

По первоначальной задумке планировалось запустить картину в прокат осенью 1990 года. Однако Orion Pictures решила придержать выход картины до января 1991 года, дабы не создавать конкуренции другому своему хиту «Танцы с волками», также весьма успешно поучаствовавшему в оскароносной гонке.

В ходе подготовки к исполнению своей роли, Энтони Хопкинс внимательно изучил досье на самых знаменитых серийных убийц современности. Также он побывал в тюрьмах, где содержались данные персоналии, и даже посетил парочку громких судебных процессов.

Во время изучения видеоматериалов, Энтони заметил, что маньяк Чарльз Мэнсон никогда не моргал во время разговора, и незамедлительно перенес данное наблюдение на экран.

Энтони Хопкинсу досталось всего лишь 16 минут экранного времени, что, впрочем, не помешало блистательному актеру завоевать Оскара в номинации «Лучшая мужская роль». В ближайшее время этот рекорд вряд ли будет кем-то побит.

Автор сценария Тед Талли, создавая сценарий к картине, на месте агента Старлинг видел только Джоди Фостер. Однако, когда режиссерское кресло занял Джонатан Демме, он решил поменять выбор своих предшественников и пригласил в картину Мишель Пфайффер. Но Мишель отказалась, сославшись на то, что фильм получится весьма кровавым и жестоким. После данного конфуза Джонатан решился-таки позвать в проект Джоди Фостер и, как выяснилось, не прогадал.

Основной мотив сюжетной линии имел параллели с событиями, происходившими на самом деле, каковыми стали взаимоотношения профессора Университета криминологии Роберта Кеппеля и маньяка Теда Банди.

Тед, несмотря на все свои прегрешения, оказал содействие в раскрытии целой серии убийств. Тед был казнен 24 января 1989 года, а настоящего маньяка удалось найти лишь в 2001 году. Им стал Гэри Риджвэй, сознавшийся в 48-ми совершенных им преступлениях.

В ходе подготовки к съемкам Джоди Фостер и Скотту Гленну были предоставлены аудиозаписи, сделанные маньяками в ходе совершенных ими убийств. Джоди наотрез отказалась прослушивать эти леденящие кровь записи, а вот Скотт на свою беду решился, вследствие чего на протяжении достаточно длительного периода времени его преследовали ночные кошмары.

Брук Смит, играющая похищенную девушку Кэтрин, и Тед Ливайн, играющий Буффало Билла, были очень близки во время съемок картины.

Человек в синей кепке в заключительной сцене фильма на тропическом острове - режиссер Джонатан Демме, исполнивший в своей картине эпизодическую роль-камео.

torrent-games.net

Скачать фильм Молчание ягнят через торрент в хорошем качестве бесплатно 720p

Размер: 9.12 GB &verbar; Добавлен: 2 года 6 мес. назад &verbar; Торрент скачан:155 раз
Реклама Дарим 3000 рублей за регистрацию, не упусти свой шанс получить шикарный бонус!!!

11-04-2015 06:59 Молчание ягнят Скачать торрент  

Молчание ягнят / The Silence of the Lambs

Год выпуска: 1990Страна: СШАЖанр: Триллер, криминал, детектив, драмаПродолжительность: 01:58:31Перевод: Дублированный (Лицензия)Субтитры: Вшитые, отключаемые

Режиссер: Джонатан ДеммеПродюссер: Эдвард Саксон, Кеннет Атт, Грэйс Блейк

В ролях: Джоди Фостер, Энтони Хопкинс, Брук Смит, Скотт Гленн, Тед Левайн, Энтони Хилд, Кейси Леммонс, Дайан Бэйкер, Чарльз Нэпьер, Роджер Корман, Дэн Батлер, Пол Лэзар, Пэт МакНамара, Трейси Уолтер, Фрэнки Фэйзон

Описание: Психопат похищает и убивает молодых женщин по всему Среднему Западу Америки. ФБР, уверенное в том, что все преступления совершены одним и тем же человеком, поручает агенту Клариссе Старлинг встретиться с заключенным-маньяком, который мог бы объяснить следствию психологические мотивы серийного убийцы и тем самым вывести на его след...

Качество: BDRip 720p - 60fpsФормат: MKVВидео кодек: H.264Аудио кодек: AC3Видео: ~ 10.2 Мбит/сек, 1280 x 720, 59.940 кадров/секАудио: AC3 5.1, 48.0 KHz, 640 Кбит/сек - Русский

В фильме с 57 минуты и на протяжении 5 минут присутствует незначительное подтормаживание видео.С аудио всё впорядке.

ОбщееУникальный идентификатор : 250323565216377479831337757757407333769 (0xBC5290A4136CE53AB4D571DF12618D89)Полное имя : D:\Торренты\The Silence of the Lambs 60fps.mkvФормат : MatroskaВерсия формата : Version 2Размер файла : 9,12 ГбайтПродолжительность : 1 ч. 58 м.Общий поток : 11,0 Мбит/секНазвание фильма : The Silence of the Lambs (1991) 1080p BD-RemuxДата кодирования : UTC 2015-04-11 05:27:42Программа кодирования : mkvmerge v6.9.1 ('Blue Panther') 64bit built on Apr 18 2014 18:23:38Библиотека кодирования : libebml v1.3.0 + libmatroska v1.4.1ВидеоИдентификатор : 1Формат : AVCФормат/Информация : Advanced Video CodecПрофиль формата : [email protected]Параметр CABAC формата : ДаПараметр ReFrames формата : 6 кадровИдентификатор кодека : V_MPEG4/ISO/AVCПродолжительность : 1 ч. 58 м.Битрейт : 10,2 Мбит/секШирина : 1280 пикселейВысота : 720 пикселейСоотношение сторон : 16:9Режим частоты кадров : ПостоянныйЧастота кадров : 59,880 кадров/секЧастота кадров в оригинале : 59,940 кадров/секЦветовое пространство : YUVСубдискретизация насыщенности : 4:2:0Битовая глубина : 8 битТип развёртки : ПрогрессивнаяБит/(Пиксели*Кадры) : 0.184Размер потока : 8,41 Гбайт (92%)Заголовок : Release by mimokБиблиотека кодирования : x264 core 130 r2273 b3065e6Настройки программы : cabac=1 / ref=6 / deblock=1:0:0 / analyse=0x3:0x133 / me=umh / subme=8 / psy=1 / psy_rd=1.00:0.15 / mixed_ref=1 / me_range=20 / chroma_me=1 / trellis=2 / 8x8dct=1 / cqm=0 / deadzone=21,11 / fast_pskip=0 / chroma_qp_offset=-3 / threads=6 / lookahead_threads=2 / sliced_threads=0 / nr=0 / decimate=0 / interlaced=0 / bluray_compat=0 / constrained_intra=0 / bframes=8 / b_pyramid=2 / b_adapt=2 / b_bias=0 / direct=1 / weightb=1 / open_gop=0 / weightp=2 / keyint=250 / keyint_min=25 / scenecut=40 / intra_refresh=0 / rc=crf / mbtree=0 / crf=18.0 / qcomp=0.63 / qpmin=10 / qpmax=51 / qpstep=4 / ip_ratio=1.40 / pb_ratio=1.30 / aq=1:1.20Default : ДаForced : НетАудиоИдентификатор : 2Формат : AC-3Формат/Информация : Audio Coding 3Расширение режима : CM (complete main)Параметр Endianness формата : BigИдентификатор кодека : A_AC3Продолжительность : 1 ч. 58 м.Вид битрейта : ПостоянныйБитрейт : 640 Кбит/секКаналы : 6 каналовРасположение каналов : Front: L C R, Side: L R, LFEЧастота : 48,0 КГцБитовая глубина : 16 битМетод сжатия : С потерямиРазмер потока : 543 Мбайт (6%)Заголовок : DubЯзык : RussianDefault : ДаForced : НетТекст #1Идентификатор : 3Формат : UTF-8Идентификатор кодека : S_TEXT/UTF8Идентификатор кодека/Информация : UTF-8 Plain TextЗаголовок : Киномания,FullЯзык : RussianDefault : ДаForced : НетТекст #2Идентификатор : 4Формат : UTF-8Идентификатор кодека : S_TEXT/UTF8Идентификатор кодека/Информация : UTF-8 Plain TextЗаголовок : FullЯзык : EnglishDefault : НетForced : Нет

Молчание ягнят скачать торрент

Скачать Молчание ягнят через торрент http://pic.pb.wtf/images/11/qlplx.jpg Скачать фильм Молчание ягнят через торрент бесплантно в хорошем качестве Описание: Психопат похищает и убивает молодых женщин по всему Среднему Западу Америки. ФБР, уверенное в том, что все преступления совершены ... 2015-04-11 06:59 9.8 10 12

Loading...

Loading...

Рекламный пират

11-04-2015 07:39 Молчание ягнят Скачать торрент  

почему раздача закрыта?

11-04-2015 11:03 Молчание ягнят Скачать торрент  

По мне, так ЛУЧШИЙ Триллер всех времён!!!(Обожаю пересматривать квадрологию про Ганнибала Лектора), Хопкинс как обычно сыграл просто ПРЕВОСХОДНО!!Обязательно скачаю в таком качестве!!Релизёру

11-04-2015 16:52 Молчание ягнят Скачать торрент  

залей плиз всю сборку!!!! про лектора!!!!

09-01-2016 13:16 Молчание ягнят Скачать торрент  

Большое спасибо

Дорогой пользователь! Огромная просьба, поблагодарите релизера, оцените раздачу и оставьте свои комментарий, если Вы скачали Молчание ягнят через торрент бесплатно! Внесите свою лепту в развитие PiratBit!

Комментировать посты могут только пользователи прошедшие не сложную регистрацию

Молчание ягнят через торрент Скачать бесплатно Молчание ягнят Молчание ягнят скачать торрент Молчание ягнят смотреть онлайн Cкачать фильм Молчание ягнят бесплатно Молчание ягнят скачать торрент в хорошем качестве Молчание ягнят смотреть онлайн бесплатно в хорошем качестве

Вы не можете начинать темыВы не можете отвечать на сообщенияВы не можете редактировать свои сообщенияВы не можете удалять свои сообщенияВы не можете голосовать в опросахВы не можете прикреплять файлы к сообщениямВы можете скачивать файлы

piratbit.ru

Скачать Молчание ягнят через торрент

Категория: Фильмы 2051 0 Торрент добавлен: 17-04-2015 Рейтинг:

2004 / Триллер, криминал, детектив / 118 мин.Производство: США Режиссер: Джонатан Демме В ролях: Джоди Фостер, Энтони Хопкинс, Скотт Гленн, Тед Левайн, Брук Смит, Энтони Хилд, Кейси Леммонс, Дайан Бэйкер, Фрэнки Фэйзон, Дэн Батлер

Маньяк совершает похищения с последующими убийствами своих жертв по Американским городам Среднего Запада. Агенты из ФБР не сомневаются, что все эти преступления совершает один человек. Расследование этих убийств поручают Клариссе Стерлинг, которая должна была встретиться с заключенным, который в прошлом совершал похожие преступления и разузнать у него, какие могут быть следующие шаги маньяка. Этим заключенным оказывается бывший доктор психиатрии по имени Ганнибал Лектер, отбывающий срок за каннибализм и серийные убийства. Лектер сразу соглашается помочь следователю, но в замен просит, чтобы она ему рассказывала про свою личную жизнь. Кларисса думала, что здесь нет никакого подвоха, что все окажется просто, но она не подозревала, что общалась с гениальным маньяком-убийцей.

Трейлер к фильму Молчание ягнят

Молчание ягнят скачать торрент

Формат: DVD VideoВидео кодек: MPEG2Аудио кодек: DTSВидео: 1920x1080, 23.976 fps, 19557 кбит/сек Аудио: Аудио 1 (ENG): DTS-HD HR 5.1, 48 kHz, 3018 кбит/сек (core: DTS 5.1, 48 kHz, 24 bit, 1536 кбит/сек) Аудио 2 (RUS): DTS 5.1, 48 kHz, 768 кбит/секПроф. (полное дублирование) 42,64 Gb

скачать

Формат: MKVВидео кодек: H.26xАудио кодек: AC3Видео: 1920x1032, 4890 Kbps, 23.976 fps Аудио: 48 kHz, AC3, 6c, 384 kbps Проф. (полное дублирование)

4,37 Gb

Формат: AVIВидео кодек: XviDАудио кодек: AC3Видео: XviD, build 46 codec, 1377 kbps, 0.20 bit/pixel, 720 x 384, 1.88:1, 25 fps Аудио: AC3 Dolby Digital, 448.00 kbps avg, 6 ChПроф. (многоголосный)

скачать

Вы находитесь на странице, где можете совершенно бесплатно скачать фильм Молчание ягнят в хорошем качестве через торрент, в любом формате, который больше всего вам на данный момент подходит. Скачивание осуществляется через торрент, что означает максимально высокую скорость загрузки. Желаем Вам приятного просмотра!. Не забудь поделиться своими впечатлениями после того как посмотришь фильм Молчание ягнят.

Информация Посетители, находящиеся в группе Гости, не могут оставлять комментарии к данной публикации.

psp-gu.ru


Смотрите также