Кухня скачать все сезоны торрент в хорошем качестве


Скачать торрент Кухня [S06] (2016) WEB-DLRip от GeneralFilm

Информация о фильмеНазвание: КухняГод выхода: 2016Жанр: КомедияРежиссер: Дмитрий Дьяченко, Жора Крыжовников, Антон ФедотовВ ролях: Дмитрий Назаров, Дмитрий Нагиев, Елена Подкаминская, Марина Могилевская, Марк Богатырёв, Михаил Башкатов, Виктор Хориняк, Ольга Кузьмина, Екатерина Кузнецова, Валерия Федорович, Жанныл Асанбекова, Елена Чернявская, Алексей Колган, Сергей Лавыгин, Сергей Епишев, Михаил Тарабукин, Никита Тарасов, Юлия Такшина, Виктория Лукина, Виталий Щанников, Сергей Беляев, Роман Индык, Евгения Храповицкая, Ольга Новосад, Серафима Низовская, Александр Карпиловский, Мария Горбань, Ирина Бразговка

О фильме: Прошлый ресторан Claude Monet пережил потоп, пожар, различные облавы и даже визит президента. После чего был переезд в Париж, где самые лучшие повара не давали покоя конкурентам. Но даже это не предел того, что будет в новом сезоне. Команда вместе с Виктором Бариновым перейдет работать в другой ресторан. Телезрителей ожидают не только старые полюбившиеся персонажи, но и новые, которые не сразу смогут мириться с весьма вспыльчивым характером шефа. Об этом и многом другом мы узнаем после просмотра финального сезона сериала Кухня.

Страна: РоссияПродолжительность: ~ 00:28:00Язык: Русский

ФайлКачество: WEB-DLRipФормат: AVIВидео: XviD, ~ 1000 Кбит/с, 688х384Звук: MP3, 2 ch, 128 Кбит/с

МедиаИнфо

Kuhnja.2016.XviD.WEB-DLRip.by.GeneralFilmSerija.01.avi Формат : AVI Формат/Информация : Audio Video Interleave Размер файла : 222 Мбайт Продолжительность : 27 м. Общий поток : 1142 Кбит/сек Программа кодирования : VirtualDubMod 1.5.10.3 | www.virtualdub-fr.org || (build 2550/release) Библиотека кодирования : VirtualDubMod build 2550/release

Видео Идентификатор : 0 Формат : MPEG-4 Visual Профиль формата : Advanced [email protected] Параметр BVOP формата : 1 Параметр QPel формата : Нет Параметр GMC формата : Без точки перехода Параметр матрицы формата : Выборочная Идентификатор кодека : XVID Идентификатор кодека/Подсказка : XviD Продолжительность : 27 м. Битрейт : 1005 Кбит/сек Ширина : 688 пикселей Высота : 384 пикселя Соотношение сторон : 16:9 Частота кадров : 25,000 кадров/сек Цветовое пространство : YUV Субдискретизация насыщенности : 4:2:0 Битовая глубина : 8 бит Тип развёртки : Прогрессивная Метод сжатия : С потерями Бит/(Пиксели*Кадры) : 0.152 Размер потока : 195 Мбайт (88%) Библиотека кодирования : XviD 73

Аудио Идентификатор : 1 Формат : MPEG Audio Версия формата : Version 1 Профиль формата : Layer 3 Идентификатор кодека : 55 Идентификатор кодека/Подсказка : MP3 Продолжительность : 27 м. Вид битрейта : Постоянный Битрейт : 128 Кбит/сек Каналы : 2 канала Частота : 48,0 КГц Метод сжатия : С потерями Размер потока : 24,9 Мбайт (11%) Выравнивание : Соединение по промежуткам Продолжительность промежутка : 40 мс. (1,00 видеокадр) Время предзагрузки промежутка : 504 мс. Библиотека кодирования : LAME3.99r Настройки программы : -m s -V 4 -q 0 -lowpass 17 -b 128

Релиз от:

krutor.org

20 из 20/ [2012 SATRip] скачать через торрент

piratbit.ru

Размер: 5.58 GB | Добавлен: 3 года назад | Торрент скачан:705 раз
Реклама Дарим 3000 рублей за регистрацию, не упусти свой шанс получить шикарный бонус!!!

24-10-2012 11:03 Кухня Скачать торрент  

Кухня / Сезон 1 / Серии: 20 из 20 . (Вкусная комедия)

Год выпуска: 2012Страна: РоссияЖанр: КомедияПродолжительность: ~ 00:25:00Перевод: оригинал(русский)Субтитры: нет

Режиссер: Дмитрий Дьяченко

Вролях: Никита Тарасов, Дмитрий Назаров, Марк Богатырев, Дмитрий Нагиев, Юлия Такшина, Елена Подкаминская, Марина Могилевская, Сергей Лавыгин, Виктор Хориняк, Сергей Епишев, Ольга Кузьмина, Екатерина Кузнецова (IV), Михаил Тарабукин, Виктория Лукина, Елена Чернявская, Виталий Щанников, Сергей Беляев, Роман Индык, Евгения Храповицкая

Описание: Главный герой Максим Лавров — выпускник Воронежского кулинарного колледжа — одержим мечтой: стать знаменитым шеф-поваром.Для этого он отправляется в Москву, чтобы устроиться в известнейший и популярный ресторан «Гюго», хозяином которого является «звезда» шоу-бизнеса.Шеф-повар ресторана «Гюго» — знаменитый на всю Москву Виктор Баринов. Властный, харизматичный, самодур, пьяница и игрок, но повар от бога.Арт-директор ресторана — Виктория Гончарова. Ей 30, она хитра, образованна, красива. Вся её жизнь — карьера, в ней нет места личной жизни.Сотрудники ресторана работают в условиях вечного конфликта Шеф-повара и Арт-директора. Один ставит во главу угла прекрасно приготовленную на его кухне еду. Другая — сервис и атмосферу зала ресторана, которую создает она.Именно в это заведение и попадает Максим. Парень знает себе цену и всеми способами пытается завоевать доверие шеф-повара и остаться на кухне. Однако отсутствие опыта и чрезмерное желание самоутвердиться ввергают Максима в череду коллизий, которую ему придётся преодолеть, чтобы стать частью этого мира.

Качество: SATRipФормат: AVIВидео кодек: XviDАудио кодек: МР3Видео: 720x400 (1.80:1), 25 fps, XviD build 64 ~1500 kbps avgАудио: MP3 , 48 KHz, 2 ch, 128 Kbps

Внимание! Раздача ведётся путём добавления новых серий; при каждом добавлении создётся новый торрент. Чтобы начать докачку новой серии, пользователям необходимо сделать следующее:(1) остановить скачивание,(2) удалить старый торрент у себя из клиента (старые серии удалять не надо),(3) скачать новый торрент и запустить его у себя в клиенте вместо старого, при этом указать клиенту путь в старую папку куда и должно происходить скачивание новых серий.

Ваш клиент при этом должен произвести хеширование (проверку) старой папки (если не производит сам - помогите ему сделать это), и будет докачивать только те серии которых у вас ещё нет. Старые серии при этом не удаляются, а продолжают раздаваться!

Eсли вы уже удалили старые серии, то предотвратить повторную закачку старых серий можно, отжав галочку в соответсвующих местах при запуске нового торрента. По возможности, желательно не удалять старые серии как можно дольше чтобы релизёр не столько продолжал раздавать старые серии, а смог сконцентрироваться на новых.

                        Кухня скачать бесплатно, Кухня скачать торрент Скачать Кухня через торрент http://pic.pb.wtf/images/1/h95ca2ljsr.png Скачать фильм Кухня через торрент бесплантно в хорошем качестве Описание: Главный герой Максим Лавров — выпускник Воронежского кулинарного колледжа — одержим мечтой: стать знаменитым шеф-поваром.Для ... 2014-10-08 08:49 9.8 10 91

Loading...

Loading...

Последний раз редактировалось: -=Cherry=- (2012-11-22 11:57), всего редактировалось 23 раз(а)

Рекламный пират

24-10-2012 13:12 Кухня Скачать торрент  

Спасибо! Начало сериала неплохое, есть где посмеяться, будем смотреть и дальше.

24-10-2012 17:42 Кухня Скачать торрент  

Сериал прикольный надеюся на дальнейшее комедийное продолжение

25-10-2012 15:26 Кухня Скачать торрент  

Спасибо, сериал реально прикольный все ни как не получается посмотреть хоть одну серию целиком!Качаем!

25-10-2012 17:37 Кухня Скачать торрент  

дааа ребят сериал действительно прикольный!!!Будет что посмотреть до декабря!!

28-10-2012 11:06 Кухня Скачать торрент  

русские продолжают воровать сериалы и переснимать их не стыда не совести... этот сериал полностью взят с сериала секреты на кухне, даже кухня и ресторан так же выглядит... спасибо за раздачу большое, но смотреть не буду из принципа...

28-10-2012 11:12 Кухня Скачать торрент  

А по мне,так " своя рубаха,ближе к телу"!!!

29-10-2012 20:11 Кухня Скачать торрент  

Спасибо!!!!!!!!!!!!!!!!!!!!!!!

30-10-2012 13:02 Кухня Скачать торрент  

Отличный сериал

Pекламный агент PB

31-10-2012 05:26 Кухня Скачать торрент  

Доброе утро!!!!! А не подскажите что со звуком в 6 серии? Спасибо

01-11-2012 16:45 Кухня Скачать торрент  

присоединяюсь

01-11-2012 20:47 Кухня Скачать торрент  

качаем качаем

02-11-2012 16:39 Кухня Скачать торрент  

Хороший добрый сериал

03-11-2012 15:01 Кухня Скачать торрент  

Ну так поясни, что значит твой комент?

05-11-2012 15:00 Кухня Скачать торрент  

Жаль что ждать долго пока все серии выдут! Спасибо за сериал!

06-11-2012 09:53 Кухня Скачать торрент  

nestas21 писал(а):

русские продолжают воровать сериалы и переснимать их не стыда не совести... этот сериал полностью взят с сериала секреты на кухне, даже кухня и ресторан так же выглядит... спасибо за раздачу большое, но смотреть не буду из принципа...А если я не смотрел или не смотрю не отечественного производителя то что теперь ?Сериал хорошо начался свежий юмор, лишь бы также как И Н Т Е Р Н Ы не наскучили с одними и теми же приколами Быкова косящего под доктора КОКСА )

07-11-2012 08:19 Кухня Скачать торрент  

хорошый сериал :fans: :fans: :pleasantry:

Pекламный агент PB

07-11-2012 22:57 Кухня Скачать торрент  

-=Cherry=-Спасибо за релиз сериал супер

08-11-2012 08:57 Кухня Скачать торрент  

А здесь есть серия которая была во вторник 6го числа???

09-11-2012 15:59 Кухня Скачать торрент  

Отличный сериал!

09-11-2012 16:37 Кухня Скачать торрент  

Cерёг@)) писал(а):

А здесь есть серия которая была во вторник 6го числа???

Естественно есть. Сама смотрю с удовольствием.

09-11-2012 19:58 Кухня Скачать торрент  

Русское УГ терпеть сериалы немогу и вообще русское не смотрю поорище бабло выкачивают с народа шляпа полная)

10-11-2012 07:21 Кухня Скачать торрент  

Только ресторан называется "Клод Моне"

12-11-2012 13:42 Кухня Скачать торрент  

MEXAHUK66 писал(а):

Русское УГ терпеть сериалы немогу и вообще русское не смотрю поорище бабло выкачивают с народа шляпа полная)

Не смотри. Зачем высказываться?

12-11-2012 14:19 Кухня Скачать торрент  

Хороший отдыхающий и ненавязчивый сериальчик. Смотрим с женой с удовольствием. Товарищу,которому не нравится могу сказать следующее... Если съел "дерьмо" (как ты выразился УГ) не рассказывай какое оно на вкус. Не нравится ,не ешь в след. раз. Всё элементарно !

Pекламный агент PB

Дорогой пользователь! Огромная просьба, поблагодарите релизера, оцените раздачу и оставьте свои комментарий, если Вы скачали Кухня через торрент бесплатно! Внесите свою лепту в развитие PiratBit!

Комментировать посты могут только пользователи прошедшие не сложную регистрацию

Кухня через торрент Скачать бесплатно Кухня Кухня скачать торрент Кухня смотреть онлайн Cкачать фильм Кухня бесплатно Кухня скачать торрент в хорошем качестве Кухня смотреть онлайн бесплатно в хорошем качестве

Вы не можете начинать темыВы не можете отвечать на сообщенияВы не можете редактировать свои сообщенияВы не можете удалять свои сообщенияВы не можете голосовать в опросахВы не можете прикреплять файлы к сообщениямВы можете скачивать файлы

1-20 из 20 [2014 SATRip] скачать через торрент

piratbit.ru

Размер: 5.5 GB | Добавлен: 3 года 6 мес. назад | Торрент скачан:2988 раз
Реклама Дарим 3000 рублей за регистрацию, не упусти свой шанс получить шикарный бонус!!!

03-03-2014 18:09 Кухня Сезон: 3 Скачать торрент  

Кухня 3

Год выпуска: 2014Страна: РоссияЖанр: Комедия,Продолжительность: 25 минут серия

Режиссер: Дима Дьяченко

В ролях: Никита Тарасов, Дима Назаров, Марик Богатырев, Дима Нагиев, Юля Такшина, Лена Подкаминская, Маруся Могилевская, Серега Лавыгин, Витя Хориняк, Серега Епишев, Оля Кузьмина, Катя Кузнецова (IV), Миша Тарабукин, Вика Лукина, Лена Чернявская, Витя Щанников, Серега Беляев, Роман Индык, Женя Храповицкая,

Описание: Новый 3 сезон сериала «Кухня» готовит новые сюрпризы. Кому-то из героев доведется свалиться в воду с палубы корабля, кому-то — попасть под колеса, а кому-то — и вовсе оказаться на улице… Официантка Анастасия уже на шестом месяце беременности. Повара Федора и су-шефа Леву ждут приключения на любовном фронте. В отношения Виктории и Максима вмешается серьезный для Максима соперник. Макс, чтобы вернуть Вику, не будет жалеть ни своего, ни чужого здоровья… Но главное событие произойдет все-таки именно на кухне «Кухни». Там появится первая женщина — су-шеф Катя, профессионал в супермодном кулинарном направлении молекулярной кухни. И хотя циничный шеф Виктор Баринов продолжает считать, что «баба на корабле — то есть на кухне — к беде», в нового повара влюбится почти вся команда «Клода Моне».

Качество: SATRipФормат: AVIВидео кодек: XviDАудио кодек: MP3 Видео: MPEG4, DivX 5, 720x400 (16:9), 25.000 fps, 1 500 Kbps (0.208 bit/pixel)Аудио: MP3 , 48.0 KHz, 2 ch, 128 Kbps, CBR

Код:

Формат                           : AVIФормат/Информация                : Audio Video InterleaveРазмер файла                     : 291 МбайтПродолжительность                : 24 м.Общий поток                      : 1638 Кбит/секБиблиотека кодирования           : VirtualDub build 35491/release

ВидеоИдентификатор                    : 0Формат                           : MPEG-4 VisualПараметр BVOP формата            : 1Параметр QPel формата            : НетПараметр GMC формата             : Без точки переходаПараметр матрицы формата         : Default (H.263)Режим смешивания                 : Сжатый битовый потокИдентификатор кодека             : DX50Идентификатор кодека/Подсказка   : DivX 5Продолжительность                : 24 м.Битрейт                          : 1500 Кбит/секШирина                           : 720 пикс.Высота                           : 400 пикс.Соотношение сторон               : 16:9Частота кадров                   : 25,000 кадр/секЦветовое пространство            : YUVПодвыборка цветности             : 4:2:0Битовая глубина                  : 8 битТип развёртки                    : ПрогрессивнаяМетод сжатия                     : С потерямиБит/(Пиксели*Кадры)              : 0.208Размер потока                    : 267 Мбайт (92%)Библиотека кодирования           : DivX 6.8.5 (UTC 2009-08-20)

АудиоИдентификатор                    : 1Формат                           : MPEG AudioВерсия формата                   : Version 1Профиль формата                  : Layer 3Режим                            : Joint stereoРасширение режима                : MS StereoИдентификатор кодека             : 55Идентификатор кодека/Подсказка   : MP3 Продолжительность                : 24 м.Вид битрейта                     : ПостоянныйБитрейт                          : 128 Кбит/секКанал(ы)                         : 2 канала(ов)Частота                          : 48,0 КГцМетод сжатия                     : С потерямиРазмер потока                    : 22,8 Мбайт (8%)Выравнивание                     : Разделение по промежуткамПродолжительность промежутка     : 40  мс. (1,00 видеокадр)Время предзагрузки промежутка    : 500 ms[/align]

Внимание! Раздача ведётся путём добавления новых серий; при каждом добавлении создётся новый торрент. Чтобы начать докачку новой серии, пользователям необходимо сделать следующее:(1) остановить скачивание,(2) удалить старый торрент у себя из клиента (старые серии удалять не надо),(3) скачать новый торрент и запустить его у себя в клиенте вместо старого, при этом указать клиенту путь в старую папку куда и должно происходить скачивание новых серий.

Ваш клиент при этом должен произвести хеширование (проверку) старой папки (если не производит сам - помогите ему сделать это), и будет докачивать только те серии которых у вас ещё нет. Старые серии при этом не удаляются, а продолжают раздаваться!

Eсли вы уже удалили старые серии, то предотвратить повторную закачку старых серий можно, отжав галочку в соответсвующих местах при запуске нового торрента. По возможности, желательно не удалять старые серии как можно дольше чтобы релизёр не столько продолжал раздавать старые серии, а смог сконцентрироваться на новых.

actor

Виктор Баринов

Виктор Баринов — лучший шеф-повар Москвы. На кухне для него нет ничего невозможного. Оборотной стороной медали этого идеального образа является злоупотребление алкоголем, страсть к азартным играм и невыносимый характер. Из самых преданных друзей у Виктора есть любимая рыбка Аркадий, которому Баринов любит излить душу за бокалом коньяка.

Роль исполняет актер Дмитрий Назаров

Максим Лавров

Простой парень из Воронежа, полный амбиций и надежд стать знаменитым шеф-поваром. Именно за этим он приехал в Москву и чудом устроился на работу ресторан «Claude Monet». Макс азартен, находчив и очень смел, у него хорошее чувство юмора и трезвая самооценка. Благодаря своему обаянию он очень нравится девушкам, но сейчас для Макса главное — кухня, а девушки потом.

Роль исполняет актер Марк Богатырев

Виктория Гончарова

Успешная 27-летняя карьеристка с деловым подходом к личной жизни. Виктория, переехавшая в Москву из Калининграда, привыкла везде пробиваться сама и благодаря своей целеустремленности и организаторским способностям она добилась в жизни немалых успехов. Теперь она арт-директор популярного ресторана столицы и готова пойти по головам, чтобы обеспечить ему славу лучшего места в городе или даже стране.

Роль исполняет актриса Елена Подкаминская

Катя

Новый человек на кухне. Первая женщина су-шеф в команде ресторана «Клод Моне», профессионал в супермодном кулинарном направлении молекулярной кухни.

Роль исполняет актриса Валерия Федорович

Добавлена 18-20 серия Скачать Кухня Сезон: 3 через торрент http://pic.pb.wtf/images/6/ipzyf.jpg Скачать фильм Кухня Сезон: 3 через торрент бесплантно в хорошем качестве Описание: Новый 3 сезон сериала «Кухня» готовит новые сюрпризы. Кому-то из героев доведется свалиться в воду с палубы корабля, кому-то — ... 2014-04-03 12:13 9.7 10 275

Loading...

Loading...

Последний раз редактировалось: White Smoke (2014-04-03 12:12), всего редактировалось 26 раз(а)

Рекламный пират

03-03-2014 21:02 Кухня Сезон: 3 Скачать торрент  

Спасибо, ждем обновления )))

03-03-2014 21:54 Кухня Сезон: 3 Скачать торрент  

Урааааааааааааааааааааа Спасибо !!!!!!!!

04-03-2014 12:40 Кухня Сезон: 3 Скачать торрент  

Серии будут выходить с понедельника по четверг как всегда?)

Спасибо за оперативность))

04-03-2014 12:41 Кухня Сезон: 3 Скачать торрент  

Forbius писал(а):

Серии будут выходить с понедельника по четверг как всегда?)

Спасибо за оперативность))

вроде да но может быть всякое

04-03-2014 15:38 Кухня Сезон: 3 Скачать торрент  

Первая серия не до конца , не ужели, все так будут?

04-03-2014 21:35 Кухня Сезон: 3 Скачать торрент  

Круто !!! прикольный сериал! подожду выхода всех 20 серий и сразу всё просмотрю.

05-03-2014 10:48 Кухня Сезон: 3 Скачать торрент  

Ребята, у 1 серии, что есть отрезан конец. Минуты 3 минимум срезано. Смотрите сами, но на ютюбе есть полная версии, качество - 360.

Последний раз редактировалось: oleg088097 (2014-03-05 15:46), всего редактировалось 1 раз

05-03-2014 14:36 Кухня Сезон: 3 Скачать торрент  

Pекламный агент PB

06-03-2014 20:17 Кухня Сезон: 3 Скачать торрент  

продолжение будет 11 марта ждём дамы и господа

07-03-2014 17:30 Кухня Сезон: 3 Скачать торрент  

Было бы совсем чудесно, если бы помимо нумерации серий с начала 3 сезона была еще и нумерация с начала 1 сезона. Просто в телепрограммах они нумеруются именно так, и порой начинается путаница, что смотрел уже, что - нет.И Спасибо за раздачу большущее.

08-03-2014 14:02 Кухня Сезон: 3 Скачать торрент  

афигенний фильм) большое спасибо)

09-03-2014 12:40 Кухня Сезон: 3 Скачать торрент  

а 720 и 1080 качества не будет?

13-03-2014 16:38 Кухня Сезон: 3 Скачать торрент  

что то слабо добавляете,я же и восьмую видел

14-03-2014 10:56 Кухня Сезон: 3 Скачать торрент  

Женя23 писал(а):

что то слабо добавляете,я же и восьмую видел

по техничиским причинам не смог обновить раздачу прошу меня извинить

14-03-2014 19:15 Кухня Сезон: 3 Скачать торрент  

Спасибо за оперативность))

14-03-2014 19:38 Кухня Сезон: 3 Скачать торрент  

теперь ясно))))

Pекламный агент PB

17-03-2014 08:35 Кухня Сезон: 3 Скачать торрент  

где 9 серия что так долго

18-03-2014 17:27 Кухня Сезон: 3 Скачать торрент  

Огромный респект!!!!

22-03-2014 13:10 Кухня Сезон: 3 Скачать торрент  

Большое спасибо

25-03-2014 15:45 Кухня Сезон: 3 Скачать торрент  

25-03-2014 17:17 Кухня Сезон: 3 Скачать торрент  

White Smoke писал(а):

Кухня Сезон 3 / Серии: 1-14 из 20 (Дмитрий Дьяченко) [2014 г., Комедия, SATRip]

Где 13 серия????

25-03-2014 17:41 Кухня Сезон: 3 Скачать торрент  

25-03-2014 19:54 Кухня Сезон: 3 Скачать торрент  

White Smoke - domo arigato!

26-03-2014 16:19 Кухня Сезон: 3 Скачать торрент  

Ну правда, где 13 серия?

Pекламный агент PB

Дорогой пользователь! Огромная просьба, поблагодарите релизера, оцените раздачу и оставьте свои комментарий, если Вы скачали Кухня Сезон: 3 через торрент бесплатно! Внесите свою лепту в развитие PiratBit!

Комментировать посты могут только пользователи прошедшие не сложную регистрацию

Кухня Сезон: 3 через торрент Скачать бесплатно Кухня Сезон: 3 Кухня Сезон: 3 скачать торрент Кухня Сезон: 3 смотреть онлайн Cкачать фильм Кухня Сезон: 3 бесплатно Кухня Сезон: 3 скачать торрент в хорошем качестве Кухня Сезон: 3 смотреть онлайн бесплатно в хорошем качестве

Вы не можете начинать темыВы не можете отвечать на сообщенияВы не можете редактировать свои сообщенияВы не можете удалять свои сообщенияВы не можете голосовать в опросахВы не можете прикреплять файлы к сообщениямВы можете скачивать файлы

Скачать сериал Кухня [2012-2016] (1,2,3,4,5 сезон)

В самом начале интереснейшего сериала Кухня мы знакомимся с Максимом Лавровым — поваром по призванию, мечтающим стать именитым шеф-поваром. Он окончил в Воронеже кулинарный колледж, отслужил в армии, и отправился покорять Москву. Ему повезло, и он сумел устроиться на работу в шикарный ресторан французской кухни, принадлежащий Дмитрию Нагиеву.

Сюжет сериала Кухня скачать торрент которого вы можете на нашем портале, поступательно развивается на протяжении всего сериала, однако внутри каждой серии обычно есть три отдельные сюжетные линии, которые заканчиваются в этом же эпизоде и примерно равны друг с другом по своей значимости. Но назвали Максима главным персонажем потому, что в начале и в конце каждой серии обычно звучит его философское изречение, подводящее итог всего эпизода. Давайте познакомимся с другими персонажами этого увлекательнейшего сериала.

Главные герои.

В этом увлекательном телесериале есть немало персонажей, но далеко не все они являются главными. К основным можно отнести таких, как:

  • Виктор Петрович Баринов.
  • Виктория Сергеевна Гончарова.
  • Дмитрий Нагиев.
  • Константин Константинович Анисимов.

И, разумеется, упомянутый нами выше Максим Лавров.

Виктор Петрович Баринов - это шеф-повар московского ресторана Claude Monet. Москвич, который долгое время жил в Париже и стал настоящим экспертом в французской кухне. Эгоист и скандалист, из-за чего часть не может найти общий язык с другими людьми.  Имеет пристрастие к алкоголю и азартным играм и алкоголю, поэтому его крайне легко уговорить на пари по любому пустяку.  Страстный болельщик московского Спартака. Любит делать ставки на свою команду, из-за чего часто влезает в огромные долги.

Виктория Сергеевна Гончарова, с которой вы познакомитесь сразу же, как решите скачать торрент Кухня с нашего сайта, является арт-директором ресторана Claude Monet. Спокойная красивая женщина, уверенная в себе и своей неотразимости. Состояла в браке с Максимом, но впоследствии развелась.

Дмитрий Нагиев, пожалуй, не нуждается в представлении. Он играет самого себя, только по сюжету является владельцем ресторана, в котором и происходит все действие сериала. Состоял с Викторией в формальных платонических отношениях, однако, долго это не продлилось. В одном из эпизодов продал ресторан, но впоследствие выкупил его обратно.

Константин Константинович Анисимов – это лучший друг Максима Лаврова, работающий барменов в одном ресторане с ним.  Обладает простым и веселым характером и привлекательной внешностью. Несмотря на все это, добродушный Костя  имеет ощутимые проблемы в общении с девушками.

Другие герои.

В том случае, если вы решите скачать сериал Кухня torrent которого есть на нашем сайте, вы познакомитесь не только с пятеркой упомянутых нами выше персоналий, но и с другими героями. Перечислять их всех было бы очень долго, поэтому мы ограничимся наиболее важными из них. Это:

  • Анастасия Анисимова.
  • Лев Соловьёв.
  • Арсений Андреевич Чуганин.
  • Фёдор Михайлович Юрченко.
  • Луи Бенуа.
  • Айнура Кененсарова.

Давайте познакомимся с ними поближе.

Анастасия Анисимова - это официантка ресторана Claude Monet, впоследствии вышла замуж за Костю. Наивна и доверчива, не ест мясо и горой стоит на защите прав  животных и бездомных.

Лев Семёнович Соловьёв является су-шефом ресторана Claude Monet. Страдает от заикания и до сих пор живет со своей мамой.

Арсений Андреевич Чуганин - это повар-универсал ресторана Claude Monet, специализирующийся на блюдах из мяса. Ворует продукты из ресторана и обожает подкалывать других работников.

Фёдор Михайлович Юрченко является поваром, специализирующимся на рыбе. Врет о своем прошлом и имеет поддельные документы, по которым он является гражданином Молдавии. Вместе с Сеней обожает розыгрыши.

Луи Бенуа – открытый гомосексуалист, работает в ресторане кондитером. Любит много и долго разговаривать по мобильному телефону, забывая о своих непосредственных обязанностях.

Айнура Кененсарова – мигрантка из Киргизии, нелегально работающая в ресторане уборщицей и посудомойкой. Часто является объектом шуток, но не обижается на них.

Эти веселые персонажи гарантированно не дадут вам скучать, и если вы решите скачать Кухня бесплатно через torrent с нашего сайта, вы получите массу удовольствия от его просмотра.

serial-down.ru


Смотрите также