Коралина в стране кошмаров скачать торрент в хорошем качестве hd 1080


/ Coraline (2009) BDRip 1080p

:, , , . - , , , . , . , , ...

: BDRip 1080p: AVC ( x.264) (): MKV: 1920x1040 (16:9), 5635 /, 23,976 /, 0,118 /[*]: (Forced), (Full), (Forced), (Full), (Full) (): : 01:40:36

Format : MatroskaFormat version : Version 2File size : 5.76 GiBDuration : 1h 40mnOverall bit rate : 8 198 KbpsMovie name : Koralina v strane koshmarov.(2009).BDRip.1080p.[denis100]Encoded date : UTC 2015-02-17 08:47:11Writing application : mkvmerge v5.8.0 ('No Sleep / Pillow') built on Sep 2 2012 15:37:04Writing library : libebml v1.2.3 + libmatroska v1.3.0

VideoID : 1Format : AVCFormat/Info : Advanced Video CodecFormat profile : [email protected]Format settings, CABAC : YesFormat settings, ReFrames : 4 framesCodec ID : V_MPEG4/ISO/AVCDuration : 1h 40mnBit rate : 5 635 KbpsWidth : 1 920 pixelsHeight : 1 040 pixelsDisplay aspect ratio : 16:9Frame rate : 23.976 fpsColor space : YUVChroma subsampling : 4:2:0Bit depth : 8 bitsScan type : ProgressiveBits/(Pixel*Frame) : 0.118Stream size : 3.85 GiB (67%)Title : Koralina v strane koshmarov.(2009).BDRip.1080p.[denis100]Writing library : x264 core 144 r2525 40bb568Encoding settings : cabac=1 / ref=4 / deblock=1:0:0 / analyse=0x3:0x133 / me=umh / subme=11 / psy=1 / psy_rd=1.00:0.00 / mixed_ref=1 / me_range=32 / chroma_me=1 / trellis=2 / 8x8dct=1 / cqm=0 / deadzone=21,11 / fast_pskip=0 / chroma_qp_offset=-2 / threads=6 / lookahead_threads=1 / sliced_threads=0 / nr=0 / decimate=1 / interlaced=0 / bluray_compat=0 / constrained_intra=0 / bframes=10 / b_pyramid=2 / b_adapt=2 / b_bias=0 / direct=3 / weightb=1 / open_gop=0 / weightp=2 / keyint=240 / keyint_min=23 / scenecut=40 / intra_refresh=0 / rc=2pass / mbtree=0 / bitrate=5635 / ratetol=1.0 / qcomp=0.60 / qpmin=0 / qpmax=69 / qpstep=4 / cplxblur=20.0 / qblur=0.5 / ip_ratio=1.40 / pb_ratio=1.30 / aq=1:1.00Language : EnglishDefault : YesForced : No

Audio #1ID : 2Format : AC-3Format/Info : Audio Coding 3Mode extension : CM (complete main)Codec ID : A_AC3Duration : 1h 40mnBit rate mode : ConstantBit rate : 448 KbpsChannel(s) : 6 channelsChannel positions : Front: L C R, Side: L R, LFESampling rate : 48.0 KHzBit depth : 16 bitsCompression mode : LossyStream size : 322 MiB (5%)Title : Language : RussianDefault : YesForced : No

Audio #2ID : 3Format : AC-3Format/Info : Audio Coding 3Mode extension : CM (complete main)Codec ID : A_AC3Duration : 1h 40mnBit rate mode : ConstantBit rate : 448 KbpsChannel(s) : 6 channelsChannel positions : Front: L C R, Side: L R, LFESampling rate : 48.0 KHzBit depth : 16 bitsCompression mode : LossyStream size : 322 MiB (5%)Title : ( )Language : RussianDefault : NoForced : No

Audio #3ID : 4Format : AC-3Format/Info : Audio Coding 3Mode extension : CM (complete main)Codec ID : A_AC3Duration : 1h 40mnBit rate mode : ConstantBit rate : 640 KbpsChannel(s) : 6 channelsChannel positions : Front: L C R, Side: L R, LFESampling rate : 48.0 KHzBit depth : 16 bitsCompression mode : LossyStream size : 461 MiB (8%)Title : ( ), Language : RussianDefault : NoForced : No

Audio #4ID : 5Format : AC-3Format/Info : Audio Coding 3Mode extension : CM (complete main)Codec ID : A_AC3Duration : 1h 40mnBit rate mode : ConstantBit rate : 384 KbpsChannel(s) : 6 channelsChannel positions : Front: L C R, Side: L R, LFESampling rate : 48.0 KHzBit depth : 16 bitsCompression mode : LossyStream size : 276 MiB (5%)Title : UkrainianLanguage : UkrainianDefault : NoForced : No

Audio #5ID : 6Format : AC-3Format/Info : Audio Coding 3Mode extension : CM (complete main)Codec ID : A_AC3Duration : 1h 40mnBit rate mode : ConstantBit rate : 640 KbpsChannel(s) : 6 channelsChannel positions : Front: L C R, Side: L R, LFESampling rate : 48.0 KHzBit depth : 16 bitsCompression mode : LossyStream size : 461 MiB (8%)Title : EnglishLanguage : EnglishDefault : NoForced : No

Text #1ID : 7Format : UTF-8Codec ID : S_TEXT/UTF8Codec ID/Info : UTF-8 Plain TextTitle : ForcedLanguage : RussianDefault : YesForced : No

Text #2ID : 8Format : UTF-8Codec ID : S_TEXT/UTF8Codec ID/Info : UTF-8 Plain TextTitle : FullLanguage : RussianDefault : NoForced : No

Text #3ID : 9Format : UTF-8Codec ID : S_TEXT/UTF8Codec ID/Info : UTF-8 Plain TextTitle : ForcedLanguage : UkrainianDefault : NoForced : No

Text #4ID : 10Format : UTF-8Codec ID : S_TEXT/UTF8Codec ID/Info : UTF-8 Plain TextTitle : FullLanguage : UkrainianDefault : NoForced : No

Text #5ID : 11Format : UTF-8Codec ID : S_TEXT/UTF8Codec ID/Info : UTF-8 Plain TextTitle : FullLanguage : EnglishDefault : NoForced : No

Menu00:00:00.000 : en:Chapter 0100:08:12.283 : en:Chapter 0200:13:56.210 : en:Chapter 0300:18:26.730 : en:Chapter 0400:23:09.471 : en:Chapter 0500:26:45.770 : en:Chapter 0600:32:34.578 : en:Chapter 0700:36:57.173 : en:Chapter 0800:40:39.187 : en:Chapter 0900:44:19.907 : en:Chapter 1000:50:50.005 : en:Chapter 1100:55:04.551 : en:Chapter 1201:00:19.825 : en:Chapter 1301:05:54.868 : en:Chapter 1401:11:01.590 : en:Chapter 1501:15:23.686 : en:Chapter 1601:17:27.893 : en:Chapter 1701:21:20.709 : en:Chapter 1801:27:05.345 : en:Chapter 1901:34:42.635 : en:Chapter 20

filmtor.net

Коралина в Стране Кошмаров через торрент

Format                                   : MatroskaFormat version                           : Version 2File size                                : 5.76 GiBDuration                                 : 1h 40mnOverall bit rate                         : 8 198 KbpsMovie name                               : Koralina v strane koshmarov.(2009).BDRip.1080p.[denis100]Encoded date                             : UTC 2015-02-17 08:47:11Writing application                      : mkvmerge v5.8.0 ('No Sleep / Pillow') built on Sep  2 2012 15:37:04Writing library                          : libebml v1.2.3 + libmatroska v1.3.0

VideoID                                       : 1Format                                   : AVCFormat/Info                              : Advanced Video CodecFormat profile                           : [email protected] settings, CABAC                   : YesFormat settings, ReFrames                : 4 framesCodec ID                                 : V_MPEG4/ISO/AVCDuration                                 : 1h 40mnBit rate                                 : 5 635 KbpsWidth                                    : 1 920 pixelsHeight                                   : 1 040 pixelsDisplay aspect ratio                     : 16:9Frame rate                               : 23.976 fpsColor space                              : YUVChroma subsampling                       : 4:2:0Bit depth                                : 8 bitsScan type                                : ProgressiveBits/(Pixel*Frame)                       : 0.118Stream size                              : 3.85 GiB (67%)Title                                    : Koralina v strane koshmarov.(2009).BDRip.1080p.[denis100]Writing library                          : x264 core 144 r2525 40bb568Encoding settings                        : cabac=1 / ref=4 / deblock=1:0:0 / analyse=0x3:0x133 / me=umh / subme=11 / psy=1 / psy_rd=1.00:0.00 / mixed_ref=1 / me_range=32 / chroma_me=1 / trellis=2 / 8x8dct=1 / cqm=0 / deadzone=21,11 / fast_pskip=0 / chroma_qp_offset=-2 / threads=6 / lookahead_threads=1 / sliced_threads=0 / nr=0 / decimate=1 / interlaced=0 / bluray_compat=0 / constrained_intra=0 / bframes=10 / b_pyramid=2 / b_adapt=2 / b_bias=0 / direct=3 / weightb=1 / open_gop=0 / weightp=2 / keyint=240 / keyint_min=23 / scenecut=40 / intra_refresh=0 / rc=2pass / mbtree=0 / bitrate=5635 / ratetol=1.0 / qcomp=0.60 / qpmin=0 / qpmax=69 / qpstep=4 / cplxblur=20.0 / qblur=0.5 / ip_ratio=1.40 / pb_ratio=1.30 / aq=1:1.00Language                                 : EnglishDefault                                  : YesForced                                   : No

Audio #1ID                                       : 2Format                                   : AC-3Format/Info                              : Audio Coding 3Mode extension                           : CM (complete main)Codec ID                                 : A_AC3Duration                                 : 1h 40mnBit rate mode                            : ConstantBit rate                                 : 448 KbpsChannel(s)                               : 6 channelsChannel positions                        : Front: L C R, Side: L R, LFESampling rate                            : 48.0 KHzBit depth                                : 16 bitsCompression mode                         : LossyStream size                              : 322 MiB (5%)Title                                    : ДублированныйLanguage                                 : RussianDefault                                  : YesForced                                   : No

Audio #2ID                                       : 3Format                                   : AC-3Format/Info                              : Audio Coding 3Mode extension                           : CM (complete main)Codec ID                                 : A_AC3Duration                                 : 1h 40mnBit rate mode                            : ConstantBit rate                                 : 448 KbpsChannel(s)                               : 6 channelsChannel positions                        : Front: L C R, Side: L R, LFESampling rate                            : 48.0 KHzBit depth                                : 16 bitsCompression mode                         : LossyStream size                              : 322 MiB (5%)Title                                    : Профессиональный (Двухголосый закадровый)Language                                 : RussianDefault                                  : NoForced                                   : No

Audio #3ID                                       : 4Format                                   : AC-3Format/Info                              : Audio Coding 3Mode extension                           : CM (complete main)Codec ID                                 : A_AC3Duration                                 : 1h 40mnBit rate mode                            : ConstantBit rate                                 : 640 KbpsChannel(s)                               : 6 channelsChannel positions                        : Front: L C R, Side: L R, LFESampling rate                            : 48.0 KHzBit depth                                : 16 bitsCompression mode                         : LossyStream size                              : 461 MiB (8%)Title                                    : Авторский (Одноголосый закадровый),  НемаховLanguage                                 : RussianDefault                                  : NoForced                                   : No

Audio #4ID                                       : 5Format                                   : AC-3Format/Info                              : Audio Coding 3Mode extension                           : CM (complete main)Codec ID                                 : A_AC3Duration                                 : 1h 40mnBit rate mode                            : ConstantBit rate                                 : 384 KbpsChannel(s)                               : 6 channelsChannel positions                        : Front: L C R, Side: L R, LFESampling rate                            : 48.0 KHzBit depth                                : 16 bitsCompression mode                         : LossyStream size                              : 276 MiB (5%)Title                                    : Дублированный UkrainianLanguage                                 : UkrainianDefault                                  : NoForced                                   : No

Audio #5ID                                       : 6Format                                   : AC-3Format/Info                              : Audio Coding 3Mode extension                           : CM (complete main)Codec ID                                 : A_AC3Duration                                 : 1h 40mnBit rate mode                            : ConstantBit rate                                 : 640 KbpsChannel(s)                               : 6 channelsChannel positions                        : Front: L C R, Side: L R, LFESampling rate                            : 48.0 KHzBit depth                                : 16 bitsCompression mode                         : LossyStream size                              : 461 MiB (8%)Title                                    : EnglishLanguage                                 : EnglishDefault                                  : NoForced                                   : No

Text #1ID                                       : 7Format                                   : UTF-8Codec ID                                 : S_TEXT/UTF8Codec ID/Info                            : UTF-8 Plain TextTitle                                    : ForcedLanguage                                 : RussianDefault                                  : YesForced                                   : No

Text #2ID                                       : 8Format                                   : UTF-8Codec ID                                 : S_TEXT/UTF8Codec ID/Info                            : UTF-8 Plain TextTitle                                    : FullLanguage                                 : RussianDefault                                  : NoForced                                   : No

Text #3ID                                       : 9Format                                   : UTF-8Codec ID                                 : S_TEXT/UTF8Codec ID/Info                            : UTF-8 Plain TextTitle                                    : ForcedLanguage                                 : UkrainianDefault                                  : NoForced                                   : No

Text #4ID                                       : 10Format                                   : UTF-8Codec ID                                 : S_TEXT/UTF8Codec ID/Info                            : UTF-8 Plain TextTitle                                    : FullLanguage                                 : UkrainianDefault                                  : NoForced                                   : No

Text #5ID                                       : 11Format                                   : UTF-8Codec ID                                 : S_TEXT/UTF8Codec ID/Info                            : UTF-8 Plain TextTitle                                    : FullLanguage                                 : EnglishDefault                                  : NoForced                                   : No

Menu00:00:00.000                             : en:Chapter 0100:08:12.283                             : en:Chapter 0200:13:56.210                             : en:Chapter 0300:18:26.730                             : en:Chapter 0400:23:09.471                             : en:Chapter 0500:26:45.770                             : en:Chapter 0600:32:34.578                             : en:Chapter 0700:36:57.173                             : en:Chapter 0800:40:39.187                             : en:Chapter 0900:44:19.907                             : en:Chapter 1000:50:50.005                             : en:Chapter 1100:55:04.551                             : en:Chapter 1201:00:19.825                             : en:Chapter 1301:05:54.868                             : en:Chapter 1401:11:01.590                             : en:Chapter 1501:15:23.686                             : en:Chapter 1601:17:27.893                             : en:Chapter 1701:21:20.709                             : en:Chapter 1801:27:05.345                             : en:Chapter 1901:34:42.635                             : en:Chapter 20

piratbit.ru

Коралина в Стране Кошмаров через торрент

piratbit.ru

Размер: 1.46 GB | Добавлен: 5 лет 1 мес. назад | Торрент скачан:488 раз
Реклама Дарим 3000 рублей за регистрацию, не упусти свой шанс получить шикарный бонус!!!

31-08-2012 13:02 Коралина в Стране Кошмаров Скачать торрент  

Коралина в Стране Кошмаров / Coraline Год выпуска: 2009Страна: СШАЖанр: Фэнтези, приключения, семейный, мультфильмПродолжительность: 01:40:34Перевод: Дубляж, ЛицензияРежиссер: Генри СеликБюджет: $60 000 000Премьера в мире: 5 февраля 2009 В ролях: Дакота Фаннинг, Тери Хэтчер, Дженнифер Сoндерс, Доун Френч, Кит Дэвид, Джон Гудман, Роберт Бэйли мл., Йен МакШейнОписание: Коралина, маленькая девочка попадает в другой мир, скрытый за секретной дверцей. Этот мир — ее альтернативная жизнь, которая не перестает ее радовать, все здесь хорошо, но до поры до времени. Однажды, она понимает что ее настоящим родителям за ее проделки угрожает смертельная опасность. Коралине придется найти выход из мира наполненного призраками в реальную жизнь…Качество: HDRipФормат: AVIВидео кодек: XviDАудио кодек: AC3Видео: 720x384 (1.88:1), 23.976 fps, XviD build 64 ~1620 kbps avg, 0.24 bit/pixelАудио: 48 kHz, AC3 Dolby Digital, 3/2 (L,C,R,l,r) + LFE ch, ~448 kbps Автор рипа: Dean24 Скачать Коралина в Стране Кошмаров через торрент http://i43.fastpic.ru/big/2012/0831/95/87dffb282b5e8949b6cddef803c36595.png Скачать фильм Коралина в Стране Кошмаров через торрент бесплантно в хорошем качестве Описание: Коралина, маленькая девочка попадает в другой мир, скрытый за секретной дверцей. Этот мир — ее альтернативная жизнь, которая не ... 2012-08-31 13:02 9.8 10 10

Loading...

Loading...

Рекламный пират

31-08-2012 13:44 Коралина в Стране Кошмаров Скачать торрент  

Спасибо. качаю)

31-08-2012 13:50 Коралина в Стране Кошмаров Скачать торрент  

evgen941Не за что :)

05-11-2012 19:34 Коралина в Стране Кошмаров Скачать торрент  

дайте скорости!!!!

Дорогой пользователь! Огромная просьба, поблагодарите релизера, оцените раздачу и оставьте свои комментарий, если Вы скачали Коралина в Стране Кошмаров через торрент бесплатно! Внесите свою лепту в развитие PiratBit!

Комментировать посты могут только пользователи прошедшие не сложную регистрацию

Коралина в Стране Кошмаров через торрент Скачать бесплатно Коралина в Стране Кошмаров Коралина в Стране Кошмаров скачать торрент Коралина в Стране Кошмаров смотреть онлайн Cкачать фильм Коралина в Стране Кошмаров бесплатно Коралина в Стране Кошмаров скачать торрент в хорошем качестве Коралина в Стране Кошмаров смотреть онлайн бесплатно в хорошем качестве

Вы не можете начинать темыВы не можете отвечать на сообщенияВы не можете редактировать свои сообщенияВы не можете удалять свои сообщенияВы не можете голосовать в опросахВы не можете прикреплять файлы к сообщениямВы можете скачивать файлы

Коралина в Стране Кошмаров 2009

www.kinovit.net

Название: Коралина в Стране Кошмаров / Coraline (2009) 2xDVD9 | 2D+3D | Коллекционное издание
Качество видео: 2xDVD9 "Юниверсал Пикчерс Рус&quot
Перевод: полное дублирование
Видео: MPEG2 PAL 16:9 ([email protected]) VBR 5933 Kbps, 25.000 fps
Аудио: Dolby AC3, 6 ch, 48.0 KHz, 384 Kbps (русский, украинский, английский)
Скачать

Загрузка начнется в течение 5 сек.

14.55 GB

Название: Коралина в Стране Кошмаров / Coraline (2009) BDRip от HQ-ViDEO | D
Качество видео: BDRip
Перевод: Русский дублированный (Лицензия) + Украинский дублированный (Отдельно) + Оригинальная, английская дорожка (Отдельно)
Видео: XviD 1769 kbps; 0.26 bit/pixel; 720 x 384; 1.88:1; 25 fps
Аудио: AC3 Dolby Digital; 384.00 kbps, 6 Ch - RUS DUBAC3 Dolby Digital; 384.00 kbps, 6 Ch - UKR DUB (отдельно / скачать с Яндекс Диск)AC3 Dolby Digital; 384.00 kbps, 6 Ch - English (отдельно / скачать с Яндекс Диск)
Скачать

Загрузка начнется в течение 5 сек.

1.46 GB

Название: Коралина в Стране Кошмаров / Coraline (2009) BDRip 1080p от NNNB | D,P2,A
Качество видео: BDRip 1080p
Перевод: Дублированный, Профессиональный (двухголосый), Авторский (одноголосый)
Формат видео: AVC (библиотека кодирования x.264)
Видео: 1920x1040 (16:9), 5635 Кбит/сек, 23,976 кадр/сек, 0,118 Бит/[Пиксели*Кадры]
Аудио: русский / AC3 / 5.1 / 48 kHz / 448 kbps / |Дублированный|русский / AC3 / 5.1 / 48 kHz / 448 kbps / |Профессиональный (Двухголосый закадровый)|русский / AC3 / 5.1 / 48 kHz / 640 kbps / |Авторский (Одноголосый закадровый), Немахов|украинский / AC3 / 5.1 / 48 kHz / 384 kbps / - Дублированный Ukrainianанглийский / AC3 / 5.1 / 48 kHz / 640 kbps /
Скачать

Загрузка начнется в течение 5 сек.

5.76 GB

Название: Коралина в Стране Кошмаров / Coraline (2009) BDRip
Качество видео: BDRip
Перевод: Дублированный
Видео: XviD 704x384, 23.976 fps, 903 Кбит/с
Аудио: 48 kHz, MP3, 2 ch, 128 Кбит/с
Скачать

Загрузка начнется в течение 5 сек.

749.45 MB

Название: Коралина в Стране Кошмаров / Coraline (2009) BDRip 1080p
Качество видео: BDRip (источник: Blu-ray Disc)
Перевод: Дублированный
Видео: x264 1920x1040 (16:9), 23.976 fps, 5773 kbps
Аудио: 48 kHz, AC-3, 6 ch, 448 kbps
Скачать

Загрузка начнется в течение 5 сек.

4.37 GB


Смотрите также