Конец дня скачать торрент в хорошем качестве


Скачать фильм Конец дня через торрент в хорошем качестве бесплатно HDRip

piratbit.ru

Раздают: 6 [ 0 KB/s ]
Размер: 2.06 GB | Добавлен: 3 мес. 13 д. назад | Торрент скачан:350 раз
Реклама Дарим 3000 рублей за регистрацию, не упусти свой шанс получить шикарный бонус!!!

12-07-2017 04:45 Конец дня Скачать торрент  

Конец дня / Daylight's End

Год выпуска: 2016Страна: СШАЖанр: ужасы, фантастика, фэнтези, боевикПродолжительность: 01:45:27Перевод: Любительский (одноголосый) [Paul Bunyan]Субтитры: Английские (внешние)

Режиссер: Уильям Кауфман

В ролях:

Джонни Стронг, Лэнс Хенриксен, Луис Мэндилор, Челси Эдмундсон, Хаким Кае-Казим, Кшиштоф Сошинский, Фара Уайт, Крис Керсон, Гари Кейрнс II, Хезер Кафка

Описание:

Ужасная катастрофа превратила большую часть человечества в плотоядных агрессивных тварей. Оставшиеся люди выживают как могут — одни создают коммуны и заботятся друг о друге, другие нападают на одиноких путников, грабят и убивают их, ну а третьи — методично истребляют тех, кем стали бывшие люди. И те, и другие, и третьи могут чувствовать себя в безопасности только пока не закончился световой день, потому что ужасные монстры не переносят солнечный свет. И упаси вас боже выходить на улицу ночью, когда силы зла властвуют безраздельно.

Качество: HDRipФормат: AVIВидео кодек: XviDАудио кодек: AC3

Видео: XviD, 1879 Кбит/сек, 720x304Аудио#1: Русский: AC3, 6 ch, 448 Кбит/секАудио#2: Английский: AC3, 6 ch, 448 Кбит/сек

Скачать Конец дня через торрент http://i93.fastpic.ru/big/2017/0712/e8/5d7c0bfae8c1c37a4cdd6f5baca320e8.png Скачать фильм Конец дня через торрент бесплантно в хорошем качестве Описание: Ужасная катастрофа превратила большую часть человечества в плотоядных агрессивных тварей. Оставшиеся люди выживают как могут — ... 2017-07-12 04:45 9 10 10

Loading...

Loading...

Рекламный пират

12-07-2017 06:00 Конец дня Скачать торрент  

продолжение "я легенда"?

12-07-2017 06:34 Конец дня Скачать торрент  

Layo писал(а):

продолжение "я легенда"? Ни разу не похоже. Фильм на любителя.

12-07-2017 08:25 Конец дня Скачать торрент  

Агент PB писал(а):

❗ Раскрываю секрет как поехать на море ❗

Кликаем по ссылке и регистрируемся ➡ http://bit.ly/2sCK7DfПолучаем бесплатный бонус 3000р от казино, ставим все на красноеС вероятностью 50% вы выигрываетеВыводим деньги и летим на Юг, на Турцию конечно не хватит, но на Наш Крым с головой.

Не ну, а чего попробовать то можно, Вы же ничего не теряете!!!

Желаю тебе с твоей ссылкой приступ диареи вечный... Ибо достали...

ЛебронИванович

12-07-2017 09:23 Конец дня Скачать торрент  

Описание уж очень похоже на игру Dying Light

12-07-2017 11:13 Конец дня Скачать торрент  

Zool писал(а):

Агент PB писал(а):

❗ Раскрываю секрет как поехать на море ❗

Кликаем по ссылке и регистрируемся ➡ http://bit.ly/2sCK7DfПолучаем бесплатный бонус 3000р от казино, ставим все на красноеС вероятностью 50% вы выигрываетеВыводим деньги и летим на Юг, на Турцию конечно не хватит, но на Наш Крым с головой.

Не ну, а чего попробовать то можно, Вы же ничего не теряете!!!

Желаю тебе с твоей ссылкой приступ диареи вечный... Ибо достали...

12-07-2017 14:30 Конец дня Скачать торрент  

BackSMoney писал(а):

Zool писал(а):

Агент PB писал(а):

❗ Раскрываю секрет как поехать на море ❗

Кликаем по ссылке и регистрируемся ➡ http://bit.ly/2sCK7DfПолучаем бесплатный бонус 3000р от казино, ставим все на красноеС вероятностью 50% вы выигрываетеВыводим деньги и летим на Юг, на Турцию конечно не хватит, но на Наш Крым с головой.

Не ну, а чего попробовать то можно, Вы же ничего не теряете!!!

Желаю тебе с твоей ссылкой приступ диареи вечный... Ибо достали...Поддерживаю полностью

25-07-2017 16:17 Конец дня Скачать торрент  

Дорогой пользователь! Огромная просьба, поблагодарите релизера, оцените раздачу и оставьте свои комментарий, если Вы скачали Конец дня через торрент бесплатно! Внесите свою лепту в развитие PiratBit!

Комментировать посты могут только пользователи прошедшие не сложную регистрацию

Конец дня через торрент Скачать бесплатно Конец дня Конец дня скачать торрент Конец дня смотреть онлайн Cкачать фильм Конец дня бесплатно Конец дня скачать торрент в хорошем качестве Конец дня смотреть онлайн бесплатно в хорошем качестве

Вы не можете начинать темыВы не можете отвечать на сообщенияВы не можете редактировать свои сообщенияВы не можете удалять свои сообщенияВы не можете голосовать в опросахВы не можете прикреплять файлы к сообщениямВы можете скачивать файлы

Скачать фильм Конец дня через торрент в хорошем качестве бесплатно HDRip

piratbit.ru

Размер: 1.46 GB | Добавлен: 1 год 2 мес. назад | Торрент скачан:1333 раза
Реклама Дарим 3000 рублей за регистрацию, не упусти свой шанс получить шикарный бонус!!!

08-08-2016 21:27 Конец дня Скачать торрент  

Конец дня / Daylight's End

Год выпуска: 2016 Страна: США Жанр: Боевик, Ужасы, Фантастика Продолжительность: 01:45:20 Перевод:Любительский многоголосый закадровый [L] [СПД]

Режиссер: Уильям Кауфман

В ролях: Джонни Стронг, Лэнс Хенриксен, Луис Мэндилор, Челси Эдмундсон, Хаким Кае-Казим, Кшиштоф Сошинский, Фара Уайт, Крис Керсон, Гари Кейрнс II, Хезер Кафка Описание: Ужасная катастрофа превратила большую часть человечества в плотоядных агрессивных тварей.Оставшиеся люди выживают как могут — одни создают коммуны и заботятся друг о друге, другие нападают на одиноких путников, грабят и убивают их, ну а третьи — методично истребляют тех, кем стали бывшие люди. И те, и другие, и третьи могут чувствоватьсебя в безопасности только пока не закончился световой день, потому что ужасные монстры не переносят солнечный свет. И упаси вас боже выходить на улицу ночью, когда силы зла властвуют безраздельно.Доп. информация: Присутствуют голосовые и текстовые вставки рекламыКачество: HDRipФормат: AVIВидео кодек: XviDАудио кодек: AC3Видео: Xvid, 720x304 (2.35:1), 23.976 fps, 1587 Kbps (0.302 bit/pixel)Аудио#1: AC3, 2 ch, 384 kbps, CBR

ОбщееПолное имя : D:\релиз кино\Конец дня.2016.HDRip.aviФормат : AVIФормат/Информация : Audio Video InterleaveРазмер файла : 1,46 ГбайтПродолжительность : 1 ч. 45 м.Общий поток : 1980 Кбит/секПрограмма кодирования : VirtualDubMod 1.5.10.2 (build 2540/release)Библиотека кодирования : VirtualDubMod build 2540/release

ВидеоИдентификатор : 0Формат : MPEG-4 VisualПрофиль формата : Advanced [email protected]Параметр BVOP формата : 2Параметр QPel формата : НетПараметр GMC формата : Без точки переходаПараметр матрицы формата : ВыборочнаяИдентификатор кодека : XVIDИдентификатор кодека/Подсказка : XviDПродолжительность : 1 ч. 45 м.Битрейт : 1587 Кбит/секШирина : 720 пикселейВысота : 304 пикселяСоотношение сторон : 2,35:1Частота кадров : 23,976 (24000/1001) кадра/секЦветовое пространство : YUVСубдискретизация насыщенности : 4:2:0Битовая глубина : 8 битТип развёртки : ПрогрессивнаяМетод сжатия : С потерямиБит/(Пиксели*Кадры) : 0.302Размер потока : 1,17 Гбайт (80%)Библиотека кодирования : XviD 1.2.1 (UTC 2008-12-04)

АудиоИдентификатор : 1Формат : AC-3Формат/Информация : Audio Coding 3Расширение режима : CM (complete main)Параметр Endianness формата : BigИдентификатор кодека : 2000Продолжительность : 1 ч. 45 м.Вид битрейта : ПостоянныйБитрейт : 384 Кбит/секКаналы : 2 каналаРасположение каналов : Front: L RЧастота : 48,0 КГцЧастота кадров : 31,250 кадров/сек (1536 spf)Метод сжатия : С потерямиРазмер потока : 289 Мбайт (19%)Выравнивание : Разделение по промежуткамПродолжительность промежутка : 42 мс. (1,00 видеокадр)Время предзагрузки промежутка : 500 мс.

Скачать Конец дня через торрент http://pic1.pb.wtf/images/10/u1zkt.jpg Скачать фильм Конец дня через торрент бесплантно в хорошем качестве Описание: Ужасная катастрофа превратила большую часть человечества в плотоядных агрессивных тварей. Оставшиеся люди выживают как могут — ... 2016-08-08 21:27 9.6 10 41

Loading...

Loading...

Последний раз редактировалось: DJASFUL (2016-08-08 23:24), всего редактировалось 3 раз(а)

Рекламный пират

08-08-2016 21:55 Конец дня Скачать торрент  

Я в восторге от скриншотов , всё ясно и понятно . Скрины очень атмосферные и информативные .

08-08-2016 22:01 Конец дня Скачать торрент  

PIXELINTERLAN, Что то не так ? Купите диск в Блокбастере !!! И наслаждайтесь супер качеством ! Это не HD ))

09-08-2016 02:19 Конец дня Скачать торрент  

Ленс Хенриксон решил седыми .... потрясти. Посмотрим. Раздающему спасибо.

09-08-2016 04:56 Конец дня Скачать торрент  

Evgeniy 23,

09-08-2016 05:05 Конец дня Скачать торрент  

Evgeniy 23 писал(а):

Ленс Хенриксон решил седыми .... потрясти. Посмотрим.

Дык чего смотреть, время тратить? Потряс седыми .... и получилась очередная ....

09-08-2016 05:22 Конец дня Скачать торрент  

Как сам фильм кто смотрел стоит его зырить)

09-08-2016 13:01 Конец дня Скачать торрент  

Под пивасик вечером очень классно посмотреть. А нас чет седыми потрясти (Ленс Хенриксон ) не у каждого получится!!!!!!!!!!! Кому не нравится , говорим спасибо и не смотрим!!! Спасибо за релиз!!!!!!!!! Или идем и смотрим по вечерам дома блокбастеры про ментов и проституток!!!!

09-08-2016 14:59 Конец дня Скачать торрент  

Задумчиво.Сколько они ещё будут насиловать в разных ракурсах тему зомбаков.Заразная плесень поразила мозги тамошних режиссёров.

Pекламный агент PB

09-08-2016 17:30 Конец дня Скачать торрент  

09-08-2016 19:19 Конец дня Скачать торрент  

Как честный человек напишу продолжение.Всё же посмотрел.Тема та же как и ожидалось ,но какие-то свежие нотки есть в подходе.И снят живенько.Можно посмотреть.

09-08-2016 21:09 Конец дня Скачать торрент  

Как честный человек напишу (с). Бред на бреде. Герои поступают ни разу не логично. тупость на тупости.П.С. "Русские любят пить водку и драться, но не умеют управлять самолетами". Вот это да! Весь фильм в клише, но это - шедевр!П.С.2. Если совсем делать нечего, как тут говорили вечерком под пивко. Я бы добавил - вечерком под пивко и только для любителей жанра. 2/10

10-08-2016 12:33 Конец дня Скачать торрент  

Опустим то, что тема мертвяков порядком избита.Вроде грустный фильм, написано, то "фильм ужасов" - но практически каждая сцена вызывает улыбку - то от самой сцены, то от диалогов. Диалоги просто супер!!!

Может это "черная комедия"?

1/10

11-08-2016 06:30 Конец дня Скачать торрент  

20-08-2016 14:27 Конец дня Скачать торрент  

Фильм класс.Очень понравился...

21-08-2016 18:04 Конец дня Скачать торрент  

Evgeniy 23, [email protected] !Благодарю Вас за золото !

05-09-2016 19:59 Конец дня Скачать торрент  

Vyacheslav10 писал(а):

Как честный человек напишу (с). Бред на бреде. Герои поступают ни разу не логично. тупость на тупости.П.С. "Русские любят пить водку и драться, но не умеют управлять самолетами". Вот это да! Весь фильм в клише, но это - шедевр!П.С.2. Если совсем делать нечего, как тут говорили вечерком под пивко. Я бы добавил - вечерком под пивко и только для любителей жанра. 2/10

какая тут логика это редчайшая ахинея!!!! я 1.5 часа потратил на эту еб.....ь как ваще мозгов хватило такое придумать и заснять. это второе место после овец зомби)))))

Pекламный агент PB

Дорогой пользователь! Огромная просьба, поблагодарите релизера, оцените раздачу и оставьте свои комментарий, если Вы скачали Конец дня через торрент бесплатно! Внесите свою лепту в развитие PiratBit!

Комментировать посты могут только пользователи прошедшие не сложную регистрацию

Конец дня через торрент Скачать бесплатно Конец дня Конец дня скачать торрент Конец дня смотреть онлайн Cкачать фильм Конец дня бесплатно Конец дня скачать торрент в хорошем качестве Конец дня смотреть онлайн бесплатно в хорошем качестве

Вы не можете начинать темыВы не можете отвечать на сообщенияВы не можете редактировать свои сообщенияВы не можете удалять свои сообщенияВы не можете голосовать в опросахВы не можете прикреплять файлы к сообщениямВы можете скачивать файлы

Конец дня (2016) HD 1080p скачать торрент в хорошем качестве

Название: Конец дняОригинальное название: Daylight's EndГод выпуска: 2016Жанр: Ужасы, фантастика, боевикВыпущено: США, Carolina Film Works, Femmewerks ProductionsРежиссер: Уильям КауфманВ ролях: Джонни Стронг, Лэнс Хенриксен, Луис Мэндилор, Челси Эдмундсон, Хаким Кае-Казим, Кшиштоф Сошинский, Фара Уайт, Крис Керсон, Гари Кейрнс II, Хезер Кафка

О фильме: Ужасная катастрофа превратила большую часть человечества в плотоядных агрессивных тварей. Оставшиеся люди выживают как могут — одни создают коммуны и заботятся друг о друге, другие нападают на одиноких путников, грабят и убивают их, ну а третьи — методично истребляют тех, кем стали бывшие люди. И те, и другие, и третьи могут чувствовать себя в безопасности только пока не закончился световой день, потому что ужасные монстры не переносят солнечный свет. И упаси вас боже выходить на улицу ночью, когда силы зла властвуют безраздельно.

Продолжительность: 01:45:27Перевод и озвучивание: Любительское одноголосое (Paul Bunyan)Субтитры: отсутствуют

ФайлКачество: BDRip (1080p)Видео: MPEG-4 AVC, 8808 Кбит/с, 1920x798Аудио #1: Русский (AC3, 6 ch, 640 Кбит/с) - присутствует ненормативчикАудио #2: Английский (AC3, 6 ch, 640 Кбит/с)

Формат : MatroskaВерсия формата : Version 2Размер файла : 7,43 ГбайтПродолжительность : 1 ч. 45 м.Общий поток : 10,1 Мбит/секНазвание фильма : ~V ad~Дата кодирования : UTC 2017-07-11 01:45:45Программа кодирования : mkvmerge v6.5.0 ('Isn't she lovely') built on Oct 20 2013 12:50:05Библиотека кодирования : libebml v1.3.0 + libmatroska v1.4.1Обложка : YesAttachments : cover.jpg

ВидеоИдентификатор : 1Формат : AVCФормат/Информация : Advanced Video CodecПрофиль формата : [email protected]Параметр CABAC формата : ДаПараметр ReFrames формата : 5 кадровИдентификатор кодека : V_MPEG4/ISO/AVCПродолжительность : 1 ч. 45 м.Битрейт : 8808 Кбит/секШирина : 1920 пикселейВысота : 798 пикселейСоотношение сторон : 2,40:1Режим частоты кадров : ПостоянныйЧастота кадров : 23,976 (24000/1001) кадра/секЦветовое пространство : YUVСубдискретизация насыщенности : 4:2:0Битовая глубина : 8 битТип развёртки : ПрогрессивнаяБит/(Пиксели*Кадры) : 0.240Размер потока : 6,34 Гбайт (85%)Заголовок : ~V~Библиотека кодирования : x264 core 148 r2705 3f5ed56Настройки программы : cabac=1 / ref=5 / deblock=1:-3:-3 / analyse=0x3:0x133 / me=umh / subme=11 / psy=1 / psy_rd=1.05:0.10 / mixed_ref=1 / me_range=32 / chroma_me=1 / trellis=2 / 8x8dct=1 / cqm=0 / deadzone=21,11 / fast_pskip=0 / chroma_qp_offset=-3 / threads=12 / lookahead_threads=1 / sliced_threads=0 / nr=0 / decimate=0 / interlaced=0 / bluray_compat=0 / constrained_intra=0 / bframes=13 / b_pyramid=2 / b_adapt=2 / b_bias=0 / direct=3 / weightb=1 / open_gop=0 / weightp=2 / keyint=240 / keyint_min=23 / scenecut=40 / intra_refresh=0 / rc=2pass / mbtree=0 / bitrate=8808 / ratetol=1.0 / qcomp=0.60 / qpmin=0 / qpmax=69 / qpstep=4 / cplxblur=20.0 / qblur=0.5 / ip_ratio=1.34 / pb_ratio=1.26 / aq=1:1.00Язык : АнглийскийDefault : ДаForced : Нет

Аудио #1Идентификатор : 2Формат : AC-3Формат/Информация : Audio Coding 3Параметр Endianness формата : BigИдентификатор кодека : A_AC3Продолжительность : 1 ч. 45 м.Вид битрейта : ПостоянныйБитрейт : 640 Кбит/секКаналы : 6 каналовРасположение каналов : Front: L C R, Side: L R, LFEЧастота : 48,0 КГцЧастота кадров : 31,250 кадров/сек (1536 spf)Битовая глубина : 16 битМетод сжатия : С потерямиРазмер потока : 483 Мбайт (6%)Заголовок : VO [Paul Bunyan]Язык : РусскийDefault : ДаForced : Нет

Аудио #2Идентификатор : 3Формат : AC-3Формат/Информация : Audio Coding 3Параметр Endianness формата : BigИдентификатор кодека : A_AC3Продолжительность : 1 ч. 45 м.Вид битрейта : ПостоянныйБитрейт : 640 Кбит/секКаналы : 6 каналовРасположение каналов : Front: L C R, Side: L R, LFEЧастота : 48,0 КГцЧастота кадров : 31,250 кадров/сек (1536 spf)Битовая глубина : 16 битМетод сжатия : С потерямиРазмер потока : 483 Мбайт (6%)Язык : АнглийскийDefault : НетForced : Нет

Меню00:00:00.000 : en:Chapter 0100:11:06.082 : en:Chapter 0200:21:01.134 : en:Chapter 0300:30:34.290 : en:Chapter 0400:40:02.483 : en:Chapter 0500:45:31.311 : en:Chapter 0600:54:43.113 : en:Chapter 0701:01:36.025 : en:Chapter 0801:09:50.019 : en:Chapter 0901:19:16.001 : en:Chapter 1001:28:57.498 : en:Chapter 1101:40:58.177 : en:Chapter 12

x264 [info]: frame I:1369 Avg QP:16.33 size:186286x264 [info]: frame P:32128 Avg QP:17.91 size: 78535x264 [info]: frame B:118208 Avg QP:19.83 size: 35418

rutorg2.ru

Скачать фильм Конец дня через торрент в хорошем качестве бесплатно 720p

piratbit.ru

Размер: 4.59 GB | Добавлен: 1 год 2 мес. назад | Торрент скачан:604 раза
Реклама Дарим 3000 рублей за регистрацию, не упусти свой шанс получить шикарный бонус!!!

05-08-2016 05:28 Конец дня Скачать торрент  

Конец дня / Daylight's End

Год выпуска: 2016Страна: СШАЖанр: ужасы, фантастика, боевикПродолжительность: 01:45:20Перевод: Любительский (многоголосый)СПДСубтитры: Отсутствуют

Режиссер: Уильям КауфманПродюссер: Шери Л. Детерлинг, Чад Ло, Стюарт ПейджСценарий: Чад Ло

Бюджет: $2 000 000Премьера в мире: 16 апреля 2016

лицам до 17 лет обязательно присутствие взрослогоhttp://imdb.snick.ru/movie/tt3007132

В ролях: Джонни Стронг, Лэнс Хенриксен, Луис Мэндилор, Челси Эдмундсон, Хаким Кае-Казим, Кшиштоф Сошинский, Фара Уайт, Крис Керсон

Описание: Ужасная катастрофа превратила большую часть человечества в плотоядных агрессивных тварей. Оставшиеся люди выживают как могут — одни создают коммуны и заботятся друг о друге, другие нападают на одиноких путников, грабят и убивают их, ну а третьи — методично истребляют тех, кем стали бывшие люди. И те, и другие, и третьи могут чувствовать себя в безопасности только пока не закончился световой день, потому что ужасные монстры не переносят солнечный свет. И упаси вас боже выходить на улицу ночью, когда силы зла властвуют безраздельно...

Доп. информация: ПРИСУТСТВУЕТ РЕКЛАМА!

Качество: BDRip 720pФормат: MKVВидео кодек: AVCАудио кодек: AC3Видео: 1280x532 (2.40:1), 23.976 fps, MPEG-4 AVC ~5 598 kbps avgАудио#1: 48.0 kHz, AC3 Dolby Digital, 2/0 (L,R) ch, ~640 kbps

GeneralUnique ID : 196064978224679401314100645589105214647 (0x9380BDC3457656F780D20F27DB1B84B7)Complete name : F:\TORRENTS\WINDOWS\Daylights.End.2016.P.BDRip.72Op.mkvFormat : MatroskaFormat version : Version 2File size : 4.59 GiBDuration : 1h 45mnOverall bit rate mode : ConstantOverall bit rate : 6 240 KbpsEncoded date : UTC 2016-08-03 17:39:33Writing application : mkvmerge v8.3.0 ('Over the Horizon') 64bitWriting library : libebml v1.3.1 + libmatroska v1.4.2

VideoID : 1Format : AVCFormat/Info : Advanced Video CodecFormat profile : [email protected] settings, CABAC : YesFormat settings, ReFrames : 6 framesCodec ID : V_MPEG4/ISO/AVCDuration : 1h 45mnBit rate mode : ConstantBit rate : 5 476 KbpsNominal bit rate : 6 000 KbpsWidth : 1 280 pixelsHeight : 532 pixelsDisplay aspect ratio : 2.40:1Frame rate mode : ConstantFrame rate : 23.976 fpsStandard : ComponentColor space : YUVChroma subsampling : 4:2:0Bit depth : 8 bitsScan type : ProgressiveBits/(Pixel*Frame) : 0.335Stream size : 4.03 GiB (88%)Default : YesForced : NoColor primaries : BT.709Transfer characteristics : BT.709Matrix coefficients : BT.709

AudioID : 2Format : AC-3Format/Info : Audio Coding 3Mode extension : CM (complete main)Format settings, Endianness : BigCodec ID : A_AC3Duration : 1h 45mnBit rate mode : ConstantBit rate : 640 KbpsChannel count : 2 channelsChannel positions : Front: L RSampling rate : 48.0 KHzBit depth : 16 bitsCompression mode : LossyStream size : 482 MiB (10%)Default : YesForced : No

Скачать Конец дня через торрент http://picusha.net/img/2016-08/05/8v9k81d4tfi2fn3fzm2ujt04y.png Скачать фильм Конец дня через торрент бесплантно в хорошем качестве Описание: Ужасная катастрофа превратила большую часть человечества в плотоядных агрессивных тварей. Оставшиеся люди выживают как могут — ... 2016-08-05 05:28 9.2 10 20

Loading...

Loading...

Последний раз редактировалось: sanekbest1 (2016-08-05 05:55), всего редактировалось 1 раз

Рекламный пират

05-08-2016 05:46 Конец дня Скачать торрент  

вечерок скоротать самое то

05-08-2016 07:19 Конец дня Скачать торрент  

SASHA66 писал(а):

вечерок скоротать самое то

Ещё бы перевод по лучше и вечер удался)

05-08-2016 07:25 Конец дня Скачать торрент  

bober100 писал(а):

SASHA66 писал(а):

вечерок скоротать самое то

Ещё бы перевод по лучше и вечер удался)да вроде (СПД) более менее переводят,в отличии от Parovoz да Den904

ЛебронИванович

05-08-2016 10:26 Конец дня Скачать торрент  

Создатели, порубившись в Dying Light, решили по быстрому склепать кино

05-08-2016 11:47 Конец дня Скачать торрент  

хочется глянуть, но только без рекламы, мож кто сообразит)

05-08-2016 14:19 Конец дня Скачать торрент  

Лэнс Хенриксен классный актер надеюсь и фильм хорош

05-08-2016 17:13 Конец дня Скачать торрент  

бюджет 2 ляма.... хотя Хенриксен.... ну вот прям таки не знаю качать или нет.

06-08-2016 06:19 Конец дня Скачать торрент  

На взгляд фанатов «Ходячих Мертвецов» кино, конечно, не очень кошерное, ибо зомби тут мрут как мухи, разве что не от выстрела в конечность, но своего зрителя и слушателя красавчик Джонни найдёт. Иначе зачем бы весь этот спектакль одного актёра?

Pекламный агент PB

06-08-2016 07:33 Конец дня Скачать торрент  

Ну что ж заценим. спасибо)

Дорогой пользователь! Огромная просьба, поблагодарите релизера, оцените раздачу и оставьте свои комментарий, если Вы скачали Конец дня через торрент бесплатно! Внесите свою лепту в развитие PiratBit!

Комментировать посты могут только пользователи прошедшие не сложную регистрацию

Конец дня через торрент Скачать бесплатно Конец дня Конец дня скачать торрент Конец дня смотреть онлайн Cкачать фильм Конец дня бесплатно Конец дня скачать торрент в хорошем качестве Конец дня смотреть онлайн бесплатно в хорошем качестве

Вы не можете начинать темыВы не можете отвечать на сообщенияВы не можете редактировать свои сообщенияВы не можете удалять свои сообщенияВы не можете голосовать в опросахВы не можете прикреплять файлы к сообщениямВы можете скачивать файлы


Смотрите также