Команда а скачать торрент в хорошем качестве hd 720


Скачать фильм Команда «А» через торрент в хорошем качестве бесплатно 720p

piratbit.ru

Размер: 4.53 GB | Добавлен: 7 лет назад | Торрент скачан:196 раз
Реклама Дарим 3000 рублей за регистрацию, не упусти свой шанс получить шикарный бонус!!!

23-10-2010 13:29 Команда «А» Скачать торрент  

Команда «А» / The A-Team

Год выпуска: 2010Страна: США, Dune EntertainmentЖанр: боевик, триллер, приключенияПродолжительность: 01:53:50Перевод: Профессиональный (полное дублирование)

Режиссер: Джо Карнахан

В ролях: Лиам Нисон, Брэдли Купер, Джессика Бил, Куинтон Джексон, Шарлто Копли, Патрик Уилсон, Джералд МакРэйни, Генри Черни, Юл Васкез, Брайан Блумти др.

Описание: Полнометражная версия сериала 80-х годов «Команда А». Последний вариант истории, написанный Джейсоном Ротуэллом, вращается вокруг группы ветеранов войны в Ираке. Их разыскивают вооруженные силы США по обвинению в преступлении, которого герои не совершали. Скрываясь от преследования, они успевают помогать обиженным и оскорбленным. Новизну старой истории придают вовлеченные в нее нефтяные заправилы и лазерные технологии.

сэмпл : http://depositfiles.com/files/zdh51kzlr

Качество: BDRipФормат: MKVВидео кодек: Другой MPEG4Аудио кодек: AC3Видео: 1280x544[2,35:1], 5007 Кбит/сек, 25 кадр/сек, MPEG-4 Visual , 0.28bit/pixelАудио: Russian:48 kHz, AC3 Dolby Digital, 3/2 (L,C,R,l,r) + LFE ch, ~348.00 kbps avg Аудио: Ukrainian:48 kHz, AC3 Dolby Digital, 3/2 (L,C,R,l,r) + LFE ch, ~192.00 kbps avg

GeneralComplete name : I:\кино трансенд\Команда «А»\Komanda.A.2010.BDRip.720p.mkvFormat : MatroskaFile size : 4.53 GiBDuration : 1h 53mnOverall bit rate : 5 697 KbpsEncoded date : UTC 2010-07-09 02:00:47Writing application : mkvmerge v2.4.0 ('Fumbling Towards Ecstasy') built on Oct 11 2008 20:13:15Writing library : libebml v0.7.7 + libmatroska v0.8.1

VideoID : 1Format : MPEG-4 VisualFormat profile : [email protected] settings, BVOP : NoFormat settings, QPel : NoFormat settings, GMC : No warppointsFormat settings, Matrix : Default (H.263)Codec ID : V_MPEG4/ISO/ASPCodec ID/Info : Advanced Simple ProfileDuration : 1h 53mnBit rate : 5 007 KbpsWidth : 1 280 pixelsHeight : 544 pixelsDisplay aspect ratio : 2.35:1Frame rate : 25.000 fpsColor space : YUVChroma subsampling : 4:2:0Bit depth : 8 bitsScan type : ProgressiveBits/(Pixel*Frame) : 0.288Stream size : 3.98 GiB (88%)Writing library : Lavc52.30.1Language : English

Audio #1ID : 2Format : AC-3Format/Info : Audio Coding 3Mode extension : CM (complete main)Codec ID : A_AC3Duration : 1h 53mnBit rate mode : ConstantBit rate : 384 KbpsChannel(s) : 6 channelsChannel positions : Front: L C R, Side: L R, LFESampling rate : 48.0 KHzBit depth : 16 bitsStream size : 313 MiB (7%)

Audio #2ID : 3Format : AC-3Format/Info : Audio Coding 3Mode extension : CM (complete main)Codec ID : A_AC3Duration : 1h 53mnBit rate mode : ConstantBit rate : 192 KbpsChannel(s) : 6 channelsChannel positions : Front: L C R, Side: L R, LFESampling rate : 48.0 KHzBit depth : 16 bitsStream size : 156 MiB (3%)

Скачать Команда «А» через торрент http://i8.fastpic.ru/big/2010/0709/c4/6a79869744a047d2afbb02526463c5c4.jpg Скачать фильм Команда «А» через торрент бесплантно в хорошем качестве Описание: Полнометражная сериала 80-х годов «Команда А». Последний вариант истории, написанный Джейсоном Ротуэллом, вращается вокруг ... 2010-10-23 13:29 10 10 2

Loading...

Loading...

% Раздел Тема Автор DL S | L
T Релизы по Парсеру [Фильмы, Игры, Сериалы и другое...] [ 745 MB ] Команда «А» / The A-Team [2010 BDRip] [Theatrical Cut] Dub sanekbest1 Скачать
Фильмы [HD 720p, 1080p] (Хороший звук DUB, MVO) [ 7.95 GB ] Команда «А» / The A-Team [2010 BDRip 720p] DUB AVO potroks Скачать
Фильмы [HD 720p, 1080p] (Хороший звук DUB, MVO) [ 13.33 GB ] Команда «А» / The A-Team [2010 BDRip 1080p от _denis_100 / NNNB] DUB MVO 3xAVO VO + Original + Sub _denis_100 Скачать
Фильмы 2010 [ 1.46 GB ] Команда `А` / A-Team The [2010 ... HDRip] Venxxx Скачать
Порно фильмы с русским переводом [ 1.44 GB ] Команда «А» / The A-Team: XXX A Parody [2010 Feature DVDRip Оригинал] [email protected] Скачать
Фильмы [HD 720p, 1080p] (Хороший звук DUB, MVO) [ 11.54 GB ] Команда «А» / The A-Team [2010 BDRip 1080p ] Бумер Скачать
Фильмы [HD 720p, 1080p] (Хороший звук DUB, MVO) [ 8.11 GB ] Команда «А» / The A-Team [2010 BDRip ] ACFIORENTINA Скачать

Рекламный пират

23-10-2010 15:23 Команда «А» Скачать торрент  

Офигенный фильм,Всем советую.смотрел с упоением!

23-10-2010 19:41 Команда «А» Скачать торрент  

мне не очень понравился(

Дорогой пользователь! Огромная просьба, поблагодарите релизера, оцените раздачу и оставьте свои комментарий, если Вы скачали Команда «А» через торрент бесплатно! Внесите свою лепту в развитие PiratBit!

Комментировать посты могут только пользователи прошедшие не сложную регистрацию

Команда «А» через торрент Скачать бесплатно Команда «А» Команда «А» скачать торрент Команда «А» смотреть онлайн Cкачать фильм Команда «А» бесплатно Команда «А» скачать торрент в хорошем качестве Команда «А» смотреть онлайн бесплатно в хорошем качестве

Вы не можете начинать темыВы не можете отвечать на сообщенияВы не можете редактировать свои сообщенияВы не можете удалять свои сообщенияВы не можете голосовать в опросахВы не можете прикреплять файлы к сообщениямВы можете скачивать файлы

Скачать фильм Команда «А» через торрент в хорошем качестве бесплатно 1080p

Format : MatroskaFormat version : Version 2File size : 11.5 GiBDuration : 2h 13mnOverall bit rate : 12.4 MbpsMovie name : Команда «А».(2010).BDRip.1080p.[denis100]Encoded date : UTC 2013-10-13 12:18:37Writing application : mkvmerge v5.8.0 ('No Sleep / Pillow') built on Sep 2 2012 15:37:04Writing library : libebml v1.2.3 + libmatroska v1.3.0

VideoID : 1Format : AVCFormat/Info : Advanced Video CodecFormat profile : [email protected] settings, CABAC : YesFormat settings, ReFrames : 5 framesCodec ID : V_MPEG4/ISO/AVCDuration : 2h 13mnBit rate : 10.4 MbpsWidth : 1 920 pixelsHeight : 816 pixelsDisplay aspect ratio : 2.35:1Frame rate mode : ConstantFrame rate : 23.976 fpsColor space : YUVChroma subsampling : 4:2:0Bit depth : 8 bitsScan type : ProgressiveBits/(Pixel*Frame) : 0.278Stream size : 9.52 GiB (82%)Title : Команда «А».(2010).BDRip.1080p.[denis100]Writing library : x264 core 138 r2358 9e941d1Encoding settings : cabac=1 / ref=5 / deblock=1:-3:-3 / analyse=0x3:0x133 / me=umh / subme=11 / psy=1 / psy_rd=1.00:0.10 / mixed_ref=1 / me_range=32 / chroma_me=1 / trellis=2 / 8x8dct=1 / cqm=0 / deadzone=21,11 / fast_pskip=0 / chroma_qp_offset=-3 / threads=6 / lookahead_threads=1 / sliced_threads=0 / nr=0 / decimate=0 / interlaced=0 / bluray_compat=0 / constrained_intra=0 / bframes=8 / b_pyramid=2 / b_adapt=2 / b_bias=0 / direct=3 / weightb=1 / open_gop=0 / weightp=2 / keyint=240 / keyint_min=23 / scenecut=40 / intra_refresh=0 / rc=2pass / mbtree=0 / bitrate=10449 / ratetol=1.0 / qcomp=0.60 / qpmin=0 / qpmax=69 / qpstep=4 / cplxblur=20.0 / qblur=0.5 / ip_ratio=1.40 / pb_ratio=1.30 / aq=1:0.80Language : EnglishDefault : YesForced : No

Audio #1ID : 2Format : AC-3Format/Info : Audio Coding 3Mode extension : CM (complete main)Format settings, Endianness : BigCodec ID : A_AC3Duration : 2h 13mnBit rate mode : ConstantBit rate : 640 KbpsChannel count : 6 channelsChannel positions : Front: L C R, Side: L R, LFESampling rate : 48.0 KHzBit depth : 16 bitsCompression mode : LossyStream size : 611 MiB (5%)Title : дублированный (Blu-ray CEE)Language : RussianDefault : NoForced : No

Audio #2ID : 3Format : AC-3Format/Info : Audio Coding 3Mode extension : CM (complete main)Format settings, Endianness : BigCodec ID : A_AC3Duration : 2h 13mnBit rate mode : ConstantBit rate : 640 KbpsChannel count : 6 channelsChannel positions : Front: L C R, Side: L R, LFESampling rate : 48.0 KHzBit depth : 16 bitsCompression mode : LossyStream size : 611 MiB (5%)Title : закадровый (авторский одноголосый, Гаврилов)Language : RussianDefault : NoForced : No

Audio #3ID : 4Format : AC-3Format/Info : Audio Coding 3Mode extension : CM (complete main)Format settings, Endianness : BigCodec ID : A_AC3Duration : 2h 13mnBit rate mode : ConstantBit rate : 640 KbpsChannel count : 6 channelsChannel positions : Front: L C R, Side: L R, LFESampling rate : 48.0 KHzBit depth : 16 bitsCompression mode : LossyStream size : 611 MiB (5%)Title : АнглийскийLanguage : EnglishDefault : NoForced : No

Text #1ID : 5Format : UTF-8Codec ID : S_TEXT/UTF8Codec ID/Info : UTF-8 Plain TextTitle : Русские форсированыеLanguage : RussianDefault : NoForced : No

Text #2ID : 6Format : UTF-8Codec ID : S_TEXT/UTF8Codec ID/Info : UTF-8 Plain TextTitle : Русские полныеLanguage : RussianDefault : NoForced : No

Text #3ID : 7Format : UTF-8Codec ID : S_TEXT/UTF8Codec ID/Info : UTF-8 Plain TextTitle : Английские - ForcedLanguage : EnglishDefault : NoForced : No

Text #4ID : 8Format : UTF-8Codec ID : S_TEXT/UTF8Codec ID/Info : UTF-8 Plain TextTitle : АнглийскиеLanguage : EnglishDefault : NoForced : No

Menu00:00:00.000 : :Chapter 0100:05:17.400 : :Chapter 0200:13:31.268 : :Chapter 0300:21:10.769 : :Chapter 0400:26:32.340 : :Chapter 0500:37:42.802 : :Chapter 0600:45:23.554 : :Chapter 0700:49:30.258 : :Chapter 0800:56:53.868 : :Chapter 0901:02:40.548 : :Chapter 1001:09:43.053 : :Chapter 1101:15:19.639 : :Chapter 1201:23:06.356 : :Chapter 1301:28:54.578 : :Chapter 1401:35:56.834 : :Chapter 1501:38:35.951 : :Chapter 1601:43:12.519 : :Chapter 1701:49:42.825 : :Chapter 1801:57:19.573 : :Chapter 1902:07:00.654 : :Chapter 2002:13:33.588 : :Chapter 21

piratbit.ru

Скачать фильм Команда «А» через торрент в хорошем качестве бесплатно DVDRip

piratbit.ru

Размер: 1.37 GB | Добавлен: 7 лет 3 мес. назад | Торрент скачан:6319 раз
Реклама Дарим 3000 рублей за регистрацию, не упусти свой шанс получить шикарный бонус!!!

08-07-2010 23:22 Команда «А» Скачать торрент  

DVD9 :this: Год выпуска: 2010Страна: США Жанр: боевик, триллер, приключенияПродолжительность: 01:53:50Перевод: Профессиональный (полное дублирование)Тип релиза: Лицензия

Режиссер: Джо Карнахан

В ролях: Лиам Нисон, Брэдли Купер, Джессика Бил, Куинтон Джексон, Шарлто Копли, Патрик Уилсон, Джералд МакРэйни, Генри Черни, Юл Васкез, Брайан Блумти др.

Описание: Полнометражная версия сериала 80-х годов «Команда А». Последний вариант истории, написанный Джейсоном Ротуэллом, вращается вокруг группы ветеранов войны в Ираке. Их разыскивают вооруженные силы США по обвинению в преступлении, которого герои не совершали. Скрываясь от преследования, они успевают помогать обиженным и оскорбленным. Новизну старой истории придают вовлеченные в нее нефтяные заправилы и лазерные технологии.

IMDB: 7.6/10 (7,176 votes)

Качество: DVDRipФормат: AVIВидео кодек: XviDАудио кодек: AC3Видео: 720x304 (2.37:1), 25 fps, XviD build 50 ~1326 kbps avg, 0.24 bit/pixelАудио: 48 kHz, AC3 Dolby Digital, 3/2 (L,C,R,l,r) + LFE ch, ~384.00 kbps avg

Скачать Команда «А» через торрент http://i7.fastpic.ru/big/2010/0620/71/3c9692fb6898a64daaea6a30b871c671.png Скачать фильм Команда «А» через торрент бесплантно в хорошем качестве Описание: Полнометражная сериала 80-х годов «Команда А». Последний вариант истории, написанный Джейсоном Ротуэллом, вращается вокруг ... 2010-07-08 23:22 8.4 10 12

Loading...

Loading...

% Раздел Тема Автор DL S | L
T Релизы по Парсеру [Фильмы, Игры, Сериалы и другое...] [ 745 MB ] Команда «А» / The A-Team [2010 BDRip] [Theatrical Cut] Dub sanekbest1 Скачать
Фильмы [HD 720p, 1080p] (Хороший звук DUB, MVO) [ 7.95 GB ] Команда «А» / The A-Team [2010 BDRip 720p] DUB AVO potroks Скачать
Фильмы [HD 720p, 1080p] (Хороший звук DUB, MVO) [ 13.33 GB ] Команда «А» / The A-Team [2010 BDRip 1080p от _denis_100 / NNNB] DUB MVO 3xAVO VO + Original + Sub _denis_100 Скачать
Фильмы 2010 [ 1.46 GB ] Команда `А` / A-Team The [2010 ... HDRip] Venxxx Скачать
Порно фильмы с русским переводом [ 1.44 GB ] Команда «А» / The A-Team: XXX A Parody [2010 Feature DVDRip Оригинал] [email protected] Скачать
Фильмы [HD 720p, 1080p] (Хороший звук DUB, MVO) [ 11.54 GB ] Команда «А» / The A-Team [2010 BDRip 1080p ] Бумер Скачать
Фильмы [HD 720p, 1080p] (Хороший звук DUB, MVO) [ 8.11 GB ] Команда «А» / The A-Team [2010 BDRip ] ACFIORENTINA Скачать

Последний раз редактировалось: SD (2010-07-09 11:46), всего редактировалось 2 раз(а)

Рекламный пират

08-07-2010 23:46 Команда «А» Скачать торрент  

Спасибо Помогу

08-07-2010 23:51 Команда «А» Скачать торрент  

Где раздача????

09-07-2010 00:10 Команда «А» Скачать торрент  

Типа что-то Лузеры?

09-07-2010 02:09 Команда «А» Скачать торрент  

вот он мой дивиди !(call_of_duty) валил? смотри!!!

09-07-2010 03:03 Команда «А» Скачать торрент  

Класс спс за дивиди!!!

09-07-2010 03:46 Команда «А» Скачать торрент  

а озвучка лицензия?

09-07-2010 04:37 Команда «А» Скачать торрент  

demon260490 писал(а):

а озвучка лицензия?

Написано же: Перевод: Профессиональный (полное дублирование) те что этого мало???

09-07-2010 05:21 Команда «А» Скачать торрент  

Наконец то

Pекламный агент PB

09-07-2010 06:44 Команда «А» Скачать торрент  

ну наконец то, спс забираю)))

09-07-2010 06:48 Команда «А» Скачать торрент  

Люди добрые, помогите скачать, раздайте плз

09-07-2010 07:11 Команда «А» Скачать торрент  

09-07-2010 08:30 Команда «А» Скачать торрент  

09-07-2010 08:59 Команда «А» Скачать торрент  

Ахренительное спасибо за релиз!!!!

09-07-2010 09:40 Команда «А» Скачать торрент  

МУТАБОР2010 писал(а):

Типа что-то Лузеры?

Скорее "Лузеры" - типо "Команды "А", но они даже рядом не стоят.Фильм - супер.Спасибо!

09-07-2010 10:05 Команда «А» Скачать торрент  

Ура!!! Наконец-то !!! Дождался! Релизеру - Мегареспект!!!Качаю и остаюсь на раздаче

09-07-2010 10:34 Команда «А» Скачать торрент  

Эх жаль что у меня два дня качаться будет=(

Pекламный агент PB

09-07-2010 10:57 Команда «А» Скачать торрент  

09-07-2010 13:13 Команда «А» Скачать торрент  

Спрашивается зачем качал позавчера ? Буду перекачивать блин

09-07-2010 14:58 Команда «А» Скачать торрент  

Благодарствую

09-07-2010 19:14 Команда «А» Скачать торрент  

09-07-2010 20:41 Команда «А» Скачать торрент  

Modern Warfare из мира кино! Фильм просто убойный! Давно не видел такого боевика!!! Настоящий экшн!!! Рекомендую всем без исключения!!!

09-07-2010 21:12 Команда «А» Скачать торрент  

Отличный фильм. Добротный ненапряжный боевичок. Без чернухи, тупизны героев, розовых соплей, с юмором, выдумкой и весьма приятными персонажами. Рекомендую.javascript:emoticon(':shoot2:')

09-07-2010 23:20 Команда «А» Скачать торрент  

Слегка разочарован фильмом, слишком уж надуманный - бандит вылазит на крышу фургона точно в момент, когда машина проезжает под верёвкой, по которой спускается бравый герой который сбивает бандита! В начале есть момент, когда вертолётом управляют при выключенном двигателе (а вертолёт управляется перекосом лопастей и хвостовым винтом)! К тому же - его расстреливают прямой наводкой с пулемёта, а он летит как ни в одном глазу! Полёт га танке - ваще верх бреда!С такими моментами явно перебор, они портят фильм.

10-07-2010 00:47 Команда «А» Скачать торрент  

Pекламный агент PB

Дорогой пользователь! Огромная просьба, поблагодарите релизера, оцените раздачу и оставьте свои комментарий, если Вы скачали Команда «А» через торрент бесплатно! Внесите свою лепту в развитие PiratBit!

Комментировать посты могут только пользователи прошедшие не сложную регистрацию

Команда «А» через торрент Скачать бесплатно Команда «А» Команда «А» скачать торрент Команда «А» смотреть онлайн Cкачать фильм Команда «А» бесплатно Команда «А» скачать торрент в хорошем качестве Команда «А» смотреть онлайн бесплатно в хорошем качестве

Вы не можете начинать темыВы не можете отвечать на сообщенияВы не можете редактировать свои сообщенияВы не можете удалять свои сообщенияВы не можете голосовать в опросахВы не можете прикреплять файлы к сообщениямВы можете скачивать файлы

Скачать фильм Команда «А» через торрент в хорошем качестве бесплатно BDRip

piratbit.ru

Размер: 745 MB | Добавлен: 1 год 3 мес. назад | Торрент скачан:38 раз
Реклама Дарим 3000 рублей за регистрацию, не упусти свой шанс получить шикарный бонус!!!

21-07-2016 08:57 Команда «А» Скачать торрент  

Команда «А» / The A-Team / Theatrical Cut Страна: СШАЖанр: боевик, триллер, приключенияГод выпуска: 2010Продолжительность: 01:58:45Перевод: Профессиональный (дублированный)Cубтитры: нетРежиссер: Джо Карнахан / Joe Carnahan

В ролях: Лиам Нисон (Hannibal), Брэдли Купер (Face), Шарлто Копли (Murdock), Куинтон Джексон (B.A. Baracus), Джессика Бил (Charissa Sosa), Патрик Уилсон (Lynch), Джералд МакРэйни (General Morrison), Генри Черни (Director McCready), Юл Васкез (General Javier Tuco), Брайан Блум (Pike), Мори Стерлинг (Gammons), Терри Чен (Ravech).

Описание: Фильм Команда А расскажет нам о четырёх военных, которых осудили за преступление, которого они не совершали. Им удаётся бежать, и теперь Ганнибал, Красавчик, Баракус и Мердок - команда А, солдаты удачи, которые скрываются от преследования и помогают тем людям, которые смогли их найти и нанять.http://www.imdb.com/title/tt0429493/ Качество видео: BDRip (источник: Blu-Ray Remux / 1080p)Формат видео: AVI | SampleВидео: 688x288 (2.39:1), 23.976 fps, XviD build 50 ~740 kbps avg, 0.16 bit/pixelАудио: 48 kHz, MPEG Layer 3, 2 ch, ~128.00 kbps avg

: AVIFormat/Info : Audio Video InterleaveFile size : 745 MiBDuration : 1h 58mnOverall bit rate : 878 KbpsWriting application : VirtualDubMod 1.5.10.2 (build 2540/release)Writing library : VirtualDubMod build 2540/release

VideoID : 0Format : MPEG-4 VisualFormat profile : Advanced [email protected] settings, BVOP : YesFormat settings, QPel : NoFormat settings, GMC : No warppointsFormat settings, Matrix : CustomCodec ID : XVIDCodec ID/Hint : XviDDuration : 1h 58mnBit rate : 740 KbpsWidth : 688 pixelsHeight : 288 pixelsDisplay aspect ratio : 2.35:1Frame rate : 23.976 fpsColor space : YUVChroma subsampling : 4:2:0Bit depth : 8 bitsScan type : ProgressiveBits/(Pixel*Frame) : 0.156Stream size : 629 MiB (84%)Writing library : XviD 1.2.1 (UTC 2008-12-04)

AudioID : 1Format : MPEG AudioFormat version : Version 1Format profile : Layer 3Codec ID : 55Codec ID/Hint : MP3Duration : 1h 58mnBit rate mode : ConstantBit rate : 128 KbpsChannel(s) : 2 channelsSampling rate : 48.0 KHzStream size : 109 MiB (15%)Alignment : Aligned on interleavesInterleave, duration : 42 ms (1.00 video frame)Interleave, preload duration : 504 msWriting library : LAME3.97Encoding settings : -m s -V 4 -q 2 -lowpass 17 -b 128

Скачать Команда «А» через торрент http://i57.fastpic.ru/big/2013/1002/b5/729bf4fe6a24f54aee59a7902cab11b5.jpeg Скачать фильм Команда «А» через торрент бесплантно в хорошем качестве Описание: Фильм Команда А расскажет нам о четырёх военных, которых осудили за преступление, которого они не совершали. Им удаётся бежать, и ... 2016-07-21 08:57 8 10 4

Loading...

Loading...

Рекламный пират

Дорогой пользователь! Огромная просьба, поблагодарите релизера, оцените раздачу и оставьте свои комментарий, если Вы скачали Команда «А» через торрент бесплатно! Внесите свою лепту в развитие PiratBit!

Комментировать посты могут только пользователи прошедшие не сложную регистрацию

Команда «А» через торрент Скачать бесплатно Команда «А» Команда «А» скачать торрент Команда «А» смотреть онлайн Cкачать фильм Команда «А» бесплатно Команда «А» скачать торрент в хорошем качестве Команда «А» смотреть онлайн бесплатно в хорошем качестве

Вы не можете начинать темыВы не можете отвечать на сообщенияВы не можете редактировать свои сообщенияВы не можете удалять свои сообщенияВы не можете голосовать в опросахВы не можете прикреплять файлы к сообщениямВы можете скачивать файлы

(2010) - HELLYWOOD

x264 [info]: frame I:1649 Avg QP:14.68 size: 96050x264 [info]: frame P:47277 Avg QP:17.37 size: 47964x264 [info]: frame B:143191 Avg QP:19.67 size: 20702x264 [info]: consecutive B-frames: 4.1% 4.9% 11.1% 22.8% 15.7% 28.6% 5.3% 3.3% 1.7% 1.2% 0.9%x264 [info]: mb I I16..4: 5.9% 79.7% 14.4%x264 [info]: mb P I16..4: 2.3% 28.1% 1.8% P16..4: 25.0% 29.3% 9.0% 0.0% 0.0% skip: 4.5%x264 [info]: mb B I16..4: 0.3% 3.0% 0.2% B16..8: 37.1% 23.1% 4.4% direct: 8.8% skip:23.2% L0:44.7% L1:41.3% BI:14.0%x264 [info]: 8x8 transform intra:86.3% inter:59.9%x264 [info]: direct mvs spatial:98.4% temporal:1.6%x264 [info]: coded y,uvDC,uvAC intra: 83.4% 84.8% 69.1% inter: 41.0% 38.5% 16.6%x264 [info]: i16 v,h,dc,p: 58% 12% 6% 25%x264 [info]: i8 v,h,dc,ddl,ddr,vr,hd,vl,hu: 8% 7% 12% 10% 13% 12% 13% 11% 14%x264 [info]: i4 v,h,dc,ddl,ddr,vr,hd,vl,hu: 11% 9% 13% 8% 14% 12% 12% 10% 12%x264 [info]: i8c dc,h,v,p: 52% 19% 14% 14%x264 [info]: Weighted P-Frames: Y:4.2% UV:2.2%x264 [info]: ref P L0: 43.4% 9.2% 20.2% 7.7% 6.4% 4.2% 4.0% 2.2% 2.2% 0.5% 0.0%x264 [info]: ref B L0: 66.5% 15.0% 7.5% 4.2% 2.9% 2.4% 1.2% 0.4%x264 [info]: ref B L1: 91.8% 8.2%x264 [info]: kb/s:5381.67

GeneralUnique ID : 190717159883812300689456647894425449289 (0x8F7AC9F631A99344A2E1D56C3A4CB349)Complete name : D:\\Komanda_A.2010.EC.4xRus.Ukr.Eng.BDRip.720p.-HELLYWOOD.mkvFormat : MatroskaFormat version : Version 4 / Version 2File size : 7.95 GiBDuration : 2h 13mnOverall bit rate : 8 521 KbpsMovie name : The A-Team (2010) [Extended Cut]Encoded date : UTC 2016-05-06 07:35:47Writing application : mkvmerge v5.9.0 ('On The Loose') built on Dec 15 2012 16:39:58Writing library : libebml v1.3.0 + libmatroska v1.4.0

VideoID : 1Format : AVCFormat/Info : Advanced Video CodecFormat profile : [email protected] settings, CABAC : YesFormat settings, ReFrames : 9 framesCodec ID : V_MPEG4/ISO/AVCDuration : 2h 13mnBit rate : 5 387 KbpsWidth : 1 280 pixelsHeight : 544 pixelsDisplay aspect ratio : 2.35:1Frame rate mode : ConstantFrame rate : 23.976 (24000/1001) fpsColor space : YUVChroma subsampling : 4:2:0Bit depth : 8 bitsScan type : ProgressiveBits/(Pixel*Frame) : 0.323Stream size : 4.87 GiB (61%)Title : potroksWriting library : x264 core 146 r2538 121396cEncoding settings : cabac=1 / ref=9 / deblock=1:-3:-3 / analyse=0x3:0x113 / me=umh / subme=11 / psy=1 / psy_rd=0.96:0.00 / mixed_ref=1 / me_range=48 / chroma_me=1 / trellis=2 / 8x8dct=1 / cqm=0 / deadzone=21,11 / fast_pskip=0 / chroma_qp_offset=-2 / threads=9 / lookahead_threads=2 / sliced_threads=0 / nr=0 / decimate=0 / interlaced=0 / bluray_compat=0 / constrained_intra=0 / bframes=10 / b_pyramid=2 / b_adapt=2 / b_bias=0 / direct=3 / weightb=1 / open_gop=0 / weightp=2 / keyint=240 / keyint_min=23 / scenecut=40 / intra_refresh=0 / rc_lookahead=60 / rc=2pass / mbtree=0 / bitrate=5387 / ratetol=1.0 / qcomp=0.70 / qpmin=0 / qpmax=69 / qpstep=4 / cplxblur=20.0 / qblur=0.5 / vbv_maxrate=14000 / vbv_bufsize=14000 / nal_hrd=none / filler=0 / ip_ratio=1.40 / pb_ratio=1.30 / aq=1:0.80Language : EnglishDefault : YesForced : No

Audio #1ID : 2Format : DTSFormat/Info : Digital Theater SystemsMode : 16Format settings, Endianness : BigCodec ID : A_DTSDuration : 2h 13mnBit rate mode : ConstantBit rate : 768 KbpsChannel(s) : 6 channelsChannel positions : Front: L C R, Side: L R, LFESampling rate : 48.0 KHzFrame rate : 93.750 fps (512 spf)Bit depth : 24 bitsCompression mode : LossyStream size : 734 MiB (9%)Title : Dub | DTS 5.1 @ 768 kbps - Blu-ray CEELanguage : RussianDefault : YesForced : No

Audio #2ID : 3Format : AC-3Format/Info : Audio Coding 3Mode extension : CM (complete main)Format settings, Endianness : BigCodec ID : A_AC3Duration : 2h 13mnBit rate mode : ConstantBit rate : 192 KbpsChannel(s) : 2 channelsChannel positions : Front: L RSampling rate : 48.0 KHzFrame rate : 31.250 fps (1536 spf)Compression mode : LossyStream size : 183 MiB (2%)Title : MVO | DD 2.0 @ 192 kbps - First channelLanguage : RussianDefault : NoForced : No

Audio #3ID : 4Format : AC-3Format/Info : Audio Coding 3Mode extension : CM (complete main)Format settings, Endianness : BigCodec ID : A_AC3Duration : 2h 13mnBit rate mode : ConstantBit rate : 640 KbpsChannel(s) : 6 channelsChannel positions : Front: L C R, Side: L R, LFESampling rate : 48.0 KHzFrame rate : 31.250 fps (1536 spf)Compression mode : LossyStream size : 611 MiB (8%)Title : AVO | DD 5.1 @ 640 kbps - A.GavrilovLanguage : RussianDefault : NoForced : No

Audio #4ID : 5Format : AC-3Format/Info : Audio Coding 3Mode extension : CM (complete main)Format settings, Endianness : BigCodec ID : A_AC3Duration : 2h 13mnBit rate mode : ConstantBit rate : 448 KbpsChannel(s) : 6 channelsChannel positions : Front: L C R, Side: L R, LFESampling rate : 48.0 KHzFrame rate : 31.250 fps (1536 spf)Compression mode : LossyStream size : 428 MiB (5%)Title : AVO | DD 5.1 @ 448 kbps - AcolithLanguage : RussianDefault : NoForced : No

Audio #5ID : 6Format : AC-3Format/Info : Audio Coding 3Mode extension : CM (complete main)Format settings, Endianness : BigCodec ID : A_AC3Duration : 2h 13mnBit rate mode : ConstantBit rate : 448 KbpsChannel(s) : 6 channelsChannel positions : Front: L C R, Side: L R, LFESampling rate : 48.0 KHzFrame rate : 31.250 fps (1536 spf)Compression mode : LossyStream size : 428 MiB (5%)Title : Dub | DD 5.1 @ 448 kbps - Blu-ray CEELanguage : UkrainianDefault : NoForced : No

Audio #6ID : 7Format : AC-3Format/Info : Audio Coding 3Mode extension : CM (complete main)Format settings, Endianness : BigCodec ID : A_AC3Duration : 2h 13mnBit rate mode : ConstantBit rate : 640 KbpsChannel(s) : 6 channelsChannel positions : Front: L C R, Side: L R, LFESampling rate : 48.0 KHzFrame rate : 31.250 fps (1536 spf)Compression mode : LossyStream size : 611 MiB (8%)Title : Original | DD 5.1 @ 640 kbpsLanguage : EnglishDefault : NoForced : No

Text #1ID : 8Format : UTF-8Codec ID : S_TEXT/UTF8Codec ID/Info : UTF-8 Plain TextTitle : Forced [Blu-ray]Language : RussianDefault : YesForced : No

Text #2ID : 9Format : UTF-8Codec ID : S_TEXT/UTF8Codec ID/Info : UTF-8 Plain TextTitle : Forced [Voronine]Language : RussianDefault : NoForced : No

Text #3ID : 10Format : UTF-8Codec ID : S_TEXT/UTF8Codec ID/Info : UTF-8 Plain TextTitle : Blu-rayLanguage : RussianDefault : NoForced : No

Text #4ID : 11Format : UTF-8Codec ID : S_TEXT/UTF8Codec ID/Info : UTF-8 Plain TextTitle : Full [Voronine]Language : RussianDefault : NoForced : No

Text #5ID : 12Format : UTF-8Codec ID : S_TEXT/UTF8Codec ID/Info : UTF-8 Plain TextTitle : ForcedLanguage : EnglishDefault : NoForced : No

Text #6ID : 13Format : UTF-8Codec ID : S_TEXT/UTF8Codec ID/Info : UTF-8 Plain TextTitle : FullLanguage : EnglishDefault : NoForced : No

Text #7ID : 14Format : UTF-8Codec ID : S_TEXT/UTF8Codec ID/Info : UTF-8 Plain TextTitle : SDHLanguage : EnglishDefault : NoForced : No

Text #8ID : 15Format : UTF-8Codec ID : S_TEXT/UTF8Codec ID/Info : UTF-8 Plain TextTitle : SDH-ColoredLanguage : EnglishDefault : NoForced : No

Menu00:00:00.000 : en:(01)00:00:00:00000:05:17.399 : en:(02)00:05:17:39900:13:31.268 : en:(03)00:13:31:26800:21:10.769 : en:(04)00:21:10:76900:26:32.337 : en:(05)00:26:32:33700:37:42.802 : en:(06)00:37:42:80200:45:23.554 : en:(07)00:45:23:55400:49:30.257 : en:(08)00:49:30:25700:56:53.867 : en:(09)00:56:53:86701:02:40.547 : en:(10)01:02:40:54701:09:43.051 : en:(11)01:09:43:05101:15:19.639 : en:(12)01:15:19:63901:23:06.354 : en:(13)01:23:06:35401:28:54.578 : en:(14)01:28:54:57801:35:56.832 : en:(15)01:35:56:83201:38:35.951 : en:(16)01:38:35:95101:43:12.519 : en:(17)01:43:12:51901:49:42.823 : en:(18)01:49:42:82301:57:19.573 : en:(19)01:57:19:57302:07:00.654 : en:(20)02:07:00:65402:13:33.587 : en:(21)02:13:33:587

hellywood.ru

/ The A-Team (2010) BDRip 720p

: , , .

: BDRip 720p : Blu-ray: MKV : MPEG-4 AVC : AC3: 1280x544 (2.35:1) at 23.976 fps, AVC at 4950 kbps avg, 0.294 bit/pixel: AC3; 640 Kbps; 6 ch: , :

* * * MediaInfo Mac 0.7.33.4 file analysis report.* * * MediaInfo Mac is 2010 by Diego Massanti - http://mediainfo.massanti.com* * * MediaInfoLib by Jerome Martinez - http://mediainfo.sourceforge.netCreated on: 01.12.2014 15:37:37 Report for file: The A-Team.2010.720p.LEONARDO_[scarabey.org].mkv

General / Container Stream #1Total Video Streams for this File.................1Total Audio Streams for this File.................1Total Subtitle Streams for this File..............4Video Codecs Used.................................AVCAudio Codecs Used.................................AC3SubTitle Codecs Used..............................UTF-8 / UTF-8 / UTF-8 / UTF-8Available Sutbitle Languages......................Russian / Russian / /File Format.......................................MatroskaPlay Time.........................................2h 13mnTotal File Size...................................5.29 GiBTotal Stream BitRate..............................5 668 KbpsTitle (Tag).......................................Release by Leonardo for Scarabey.orgEncoded with......................................mkvmerge v5.0.1 ('Es ist Sommer') built on Oct 23 2011 00:46:40Encoding Library..................................libebml v1.2.2 + libmatroska v1.3.0Video Stream #1Codec (Human Name)................................AVCCodec (FourCC)....................................V_MPEG4/ISO/AVCCodec [email protected]Frame Width.......................................1 280 pixelsFrame Height......................................544 pixelsFrame Rate........................................23.976 fpsTotal Frames......................................192146Display Aspect Ratio..............................2.35:1Scan Type.........................................ProgressiveColor Space.......................................YUVCodec Settings (Summary)..........................CABAC / 9 Ref FramesQF (like Gordian Knot)............................0.294Codec Settings (CABAC)............................YesCodec Settings (Reference Frames).................9Video Stream Length...............................2h 13mn 34s 97msVideo Stream BitRate..............................4 915 KbpsBit Depth.........................................8 bitsVideo Stream Size.................................4.59 GiB (87%)Video Encoder.....................................x264 - core 125 r2208 d9d2288Video Encoder (Settings)..........................cabac=1 / ref=9 / deblock=1:-3:-3 / analyse=0x3:0x133 / me=umh / subme=11 / psy=1 / psy_rd=1.00:0.00 / mixed_ref=1 / me_range=32 / chroma_me=1 / trellis=2 / 8x8dct=1 / cqm=0 / deadzone=21,11 / fast_pskip=0 / chroma_qp_offset=-2 / threads=12 / lookahead_threads=2 / sliced_threads=0 / nr=0 / decimate=1 / interlaced=0 / bluray_compat=0 / constrained_intra=0 / bframes=8 / b_pyramid=2 / b_adapt=2 / b_bias=0 / direct=1 / weightb=1 / open_gop=0 / weightp=2 / keyint=250 / keyint_min=23 / scenecut=40 / intra_refresh=0 / rc=crf / mbtree=0 / crf=18.0 / qcomp=0.60 / qpmin=0 / qpmax=69 / qpstep=4 / ip_ratio=1.10 / pb_ratio=1.10 / aq=1:1.00Audio Stream #1Codec.............................................AC-3Codec (FourCC)....................................A_AC3Audio Stream Length...............................2h 13mn 34s 80msAudio Stream BitRate..............................640 KbpsAudio Stream BitRate Mode.........................CBRNumber of Audio Channels..........................6Audio Channel's Positions.........................Front: L C R, Side: L R, LFESampling Rate.....................................48.0 KHzAudio Stream Size.................................611 MiB (11%)Audio Stream Language.............................RussianSubtitle Stream #1Language..........................................RussianFormat............................................UTF-8Codec ID..........................................S_TEXT/UTF8Codec Info........................................UTF-8 Plain TextSubtitle Stream #2Language..........................................RussianFormat............................................UTF-8Codec ID..........................................S_TEXT/UTF8Codec Info........................................UTF-8 Plain TextSubtitle Stream #3Format............................................UTF-8Codec ID..........................................S_TEXT/UTF8Codec Info........................................UTF-8 Plain TextSubtitle Stream #4Format............................................UTF-8Codec ID..........................................S_TEXT/UTF8Codec Info........................................UTF-8 Plain TextMenu / Chapters Stream #1

filmtor.net


Смотрите также