Колония дигнидад скачать торрент в хорошем качестве


Скачать торрент Колония Дигнидад / Colonia (2015) BDRip 720p от Scarabey

Год выпуска: 2015Страна: Германия, Люксембург, ФранцияЖанр: триллер, драма, мелодрама, историяПродолжительность: 01:49:52Перевод: Профессиональный (полное дублирование) [iTunes]Субтитры: нет

Режиссер: Флориан Галленбергер / Florian Gallenberger

В ролях: Эмма Уотсон, Даниэль Брюль, Микаэл Нюквист, Риченда Кэри, Вики Крипс, Джинн Вернер, Джулиан Овенден, Август Цирнер, Мартин Вуттке, Николас Барсофф

Описание: Немецкий журналист Даниэль похищен в Чили тайной полицией и после немыслимых пыток отправлен в колонию «Дигнидад» — огромное поселение, выдающее себя за благотворительную коммуну, а на самом деле гнездо нацистов — беглецов из Третьего рейха. Колонию возглавляет бывший офицер вермахта, бесноватый проповедник Пауль Шефер, внушающий пастве пользу умерщвления плоти и бесплатного труда от заката до рассвета. В «Дигнидад» легко попасть, но обратной дороги нет. Здесь Даниэлю предстоит превратиться в раба и «материал» для бесчеловечных экспериментов. Но подвиги во имя любви совершают не только мужчины. Девушка Даниэля, отважная стюардесса Лена, решает спасти его. В одиночку. Ради любимого она готова на всё и даже больше. Добровольно, под видом послушницы, Лена отправляется в это страшное место…

Качество видео: BDRip 720pФормат видео: MKV

Видео: 1280х534, 23.976 fps, AVC ~6724 kbps avgАудио: 48 kHz, AC3 Dolby Digital, 3/2 (L,C,R,l,r) + LFE ch, ~384.00 kbps avg

Релиз от:

АНОНСЫ МОИХ РАЗДАЧ!

МедиаИнфо

Colonia_2015.720p_BDRip_[scarabey.org].mkv Format : Matroska Format version : Version 4 / Version 2 File size : 5.57 GiB Duration : 1h 49mn Overall bit rate : 7 252 Kbps Encoded date : UTC 2016-06-10 19:42:38 Writing application : mkvmerge v6.1.0 ('Old Devil') built on Mar 4 2013 09:10:42 Writing library : libebml v1.3.0 + libmatroska v1.4.0

Video ID : 1 Format : AVC Format/Info : Advanced Video Codec Format profile : [email protected] Format settings, CABAC : Yes Format settings, ReFrames : 12 frames Codec ID : V_MPEG4/ISO/AVC Duration : 1h 49mn Bit rate : 6 724 Kbps Width : 1 280 pixels Height : 534 pixels Display aspect ratio : 2.40:1 Frame rate : 23.976 fps Color space : YUV Chroma subsampling : 4:2:0 Bit depth : 8 bits Scan type : Progressive Bits/(Pixel*Frame) : 0.410 Stream size : 5.16 GiB (93%) Title : 6.9Mbps CRF17.3 Writing library : x264 core 148 r2692 64f4e24 Encoding settings : cabac=1 / ref=12 / deblock=1:-3:-3 / analyse=0x3:0x133 / me=umh / subme=11 / psy=1 / psy_rd=1.05:0.00 / mixed_ref=1 / me_range=32 / chroma_me=1 / trellis=2 / 8x8dct=1 / cqm=0 / deadzone=21,11 / fast_pskip=0 / chroma_qp_offset=-2 / threads=9 / lookahead_threads=2 / sliced_threads=0 / nr=0 / decimate=0 / interlaced=0 / bluray_compat=0 / constrained_intra=0 / bframes=16 / b_pyramid=2 / b_adapt=2 / b_bias=0 / direct=3 / weightb=1 / open_gop=0 / weightp=2 / keyint=250 / keyint_min=24 / scenecut=40 / intra_refresh=0 / rc_lookahead=60 / rc=crf / mbtree=0 / crf=17.3 / qcomp=0.64 / qpmin=0 / qpmax=69 / qpstep=4 / vbv_maxrate=38000 / vbv_bufsize=30000 / crf_max=0.0 / nal_hrd=none / filler=0 / ip_ratio=1.40 / pb_ratio=1.23 / aq=3:0.78 Language : English

Audio ID : 2 Format : AC-3 Format/Info : Audio Coding 3 Mode extension : CM (complete main) Codec ID : A_AC3 Duration : 1h 49mn Bit rate mode : Constant Bit rate : 384 Kbps Channel(s) : 6 channels Channel positions : Front: L C R, Side: L R, LFE Sampling rate : 48.0 KHz Bit depth : 16 bits Compression mode : Lossy Stream size : 302 MiB (5%) Title : Дубляж - iTunes Language : Russian

Menu 00:00:00.000 : en:Chapter 1 00:09:30.987 : en:Chapter 2 00:19:25.206 : en:Chapter 3 00:25:26.692 : en:Chapter 4 00:33:36.348 : en:Chapter 5 00:43:41.994 : en:Chapter 6 00:47:41.400 : en:Chapter 7 01:06:31.112 : en:Chapter 8 01:15:26.397 : en:Chapter 9 01:25:35.797 : en:Chapter 10 01:34:36.963 : en:Chapter 11 01:46:10.322 : en:Chapter 12

krutor.org

Скачать фильм Колония Дигнидад через торрент в хорошем качестве бесплатно Колония Дигнидад / Colonia (Карин Кусама) [2015

Размер: 1.37 GB | Добавлен: 1 год 6 мес. назад | Торрент скачан:544 раза
Реклама Дарим 3000 рублей за регистрацию, не упусти свой шанс получить шикарный бонус!!!

22-04-2016 17:31 Колония Дигнидад Скачать торрент  

Колония Дигнидад / Colonia • Год выпуска » 2015• Страна » Германия, Люксембург, Франция / Fred Films, Iris Productions, Majestic Filmproduktion, Rat Pack Filmproduktion GmbH• Жанр » Триллер, драма, мелодрама, история• Продолжительность » 01:49:53• Перевод » Дублированный • Чистый звук• Субтитры » Отсутствуют

В ролях » Эмма Уотсон, Даниэль Брюль, Микаэл Нюквист, Риченда Кэри, Вики Крипс,Джинн Вернер, Джулиан Овенден, Август Цирнер,, Мартин Вуттке, Николас Барсофф

Режиссёр» Карин Кусама

» Немецкий журналист Даниэль похищен в Чили тайной полицией и после немыслимых пыток отправлен в колонию «Дигнидад» — огромное поселение, выдающее себя за благотворительную коммуну, а на самом деле гнездо нацистов — беглецов из Третьего рейха. Колонию возглавляет бывший офицер вермахта, бесноватый проповедник Пауль Шефер, внушающий пастве пользу умерщвления плоти и бесплатного труда от заката до рассвета. В «Дигнидад» легко попасть, но обратной дороги нет. Здесь Даниэлю предстоит превратиться в раба и «материал» для бесчеловечных экспериментов. • Качество » WEB DLRip-AVC• Формат » avi• Видео кодек » XviD• Аудио кодек » AC3• Видео » 720x304, 23.976 fps, 1387 Кбит/с• Аудио » Русский (AC-3 / 2 ch / 384 kbps / 48,0 КГц / 16 bit )

Бюджет: $14 000 000Сборы в России:$82 604 Премьера (мир):13 сентября 2015Премьера (РФ):31 марта 2016, «Cinema Prestige»

ОбщееПолное имя : E:\Новая папка (2)\Colonia.2015..D.WEB-DLRip.1400Mb.aviФормат : AVIФормат/Информация : Audio Video InterleaveРазмер файла : 1,37 ГбайтПродолжительность : 1 ч. 49 м.Общий поток : 1781 Кбит/секНазвание фильма : Colonia.2015..D.WEB-DLRip.1400MbПрограмма кодирования : VirtualDubMod 1.5.10.2 (build 2540/release)Формат оригинала/Имя : Movie

ВидеоИдентификатор : 0Формат : MPEG-4 VisualПрофиль формата : Advanced [email protected]Параметр BVOP формата : 2Параметр QPel формата : НетПараметр GMC формата : Без точки переходаПараметр матрицы формата : ВыборочнаяИдентификатор кодека : XVIDИдентификатор кодека/Подсказка : XviDПродолжительность : 1 ч. 49 м.Битрейт : 1388 Кбит/секШирина : 720 пикселейВысота : 304 пикселяСоотношение сторон : 2,35:1Частота кадров : 23,976 кадра/секЦветовое пространство : YUVСубдискретизация насыщенности : 4:2:0Битовая глубина : 8 битТип развёртки : ПрогрессивнаяМетод сжатия : С потерямиБит/(Пиксели*Кадры) : 0.264Размер потока : 1,07 Гбайт (78%)Библиотека кодирования : XviD 1.2.1 (UTC 2008-12-04)

АудиоИдентификатор : 1Формат : AC-3Формат/Информация : Audio Coding 3Расширение режима : CM (complete main)Параметр Endianness формата : BigИдентификатор кодека : 2000Продолжительность : 1 ч. 49 м.Вид битрейта : ПостоянныйБитрейт : 384 Кбит/секКаналы : 2 каналаРасположение каналов : Front: L RЧастота : 48,0 КГцБитовая глубина : 16 битМетод сжатия : С потерямиРазмер потока : 302 Мбайт (22%)Выравнивание : Разделение по промежуткамПродолжительность промежутка : 42 мс. (1,00 видеокадр)Время предзагрузки промежутка : 500 мс.[/code]

Скачать Колония Дигнидад через торрент http://i74.fastpic.ru/big/2015/1218/b5/c39d072d168dbcde95d1a17f670689b5.gif Скачать фильм Колония Дигнидад через торрент бесплантно в хорошем качестве В ролях » Эмма Уотсон, Даниэль Брюль, Микаэл Нюквист, Риченда Кэри, Вики Крипс,Джинн Вернер, Джулиан Овенден, Август Цирнер,, Мартин ... 2016-04-22 17:31 9.4 10 13

Loading...

Loading...

Последний раз редактировалось: $-DRON-$ (2016-04-22 18:02), всего редактировалось 1 раз

Рекламный пират

22-04-2016 17:54 Колония Дигнидад Скачать торрент  

Чёт она на этом постере вообще как пацан выглядит я бы ей еще щитину по приколу подрисовал

22-04-2016 17:55 Колония Дигнидад Скачать торрент  

$-DRON-$, что с рекламой?

22-04-2016 18:06 Колония Дигнидад Скачать торрент  

Стоит того чтобы посмотреть.Советую!

Дорогой пользователь! Огромная просьба, поблагодарите релизера, оцените раздачу и оставьте свои комментарий, если Вы скачали Колония Дигнидад через торрент бесплатно! Внесите свою лепту в развитие PiratBit!

Комментировать посты могут только пользователи прошедшие не сложную регистрацию

Колония Дигнидад через торрент Скачать бесплатно Колония Дигнидад Колония Дигнидад скачать торрент Колония Дигнидад смотреть онлайн Cкачать фильм Колония Дигнидад бесплатно Колония Дигнидад скачать торрент в хорошем качестве Колония Дигнидад смотреть онлайн бесплатно в хорошем качестве

Вы можете начинать темыВы можете отвечать на сообщенияВы не можете редактировать свои сообщенияВы не можете удалять свои сообщенияВы не можете голосовать в опросахВы не можете прикреплять файлы к сообщениямВы можете скачивать файлы

piratbit.ru

Скачать фильм Колония Дигнидад через торрент в хорошем качестве бесплатно WEB-DLRip

Раздают: 1 [ 0 KB/s ]
Размер: 1.37 GB | Добавлен: 1 год 5 мес. назад | Торрент скачан:417 раз
Реклама Дарим 3000 рублей за регистрацию, не упусти свой шанс получить шикарный бонус!!!

11-05-2016 10:16 Колония Дигнидад Скачать торрент  

Колония Дигнидад / Colonia • Год выпуска » 2015• Страна » Германия, Люксембург, Франция / Fred Films, Iris Productions, Majestic Filmproduktion, Rat Pack Filmproduktion GmbH• Жанр » Триллер, драма, мелодрама, история• Продолжительность » 01:49:53• Перевод » Дубляж - [Лицензия / iTunes]• Субтитры » Отсутствуют

В ролях » Эмма Уотсон, Даниэль Брюль, Микаэл Нюквист, Риченда Кэри, Вики Крипс,Джинн Вернер, Джулиан Овенден, Август Цирнер,, Мартин Вуттке, Николас Барсофф

Режиссёр» Карин Кусама

» Немецкий журналист Даниэль похищен в Чили тайной полицией и после немыслимых пыток отправлен в колонию «Дигнидад» — огромное поселение, выдающее себя за благотворительную коммуну, а на самом деле гнездо нацистов — беглецов из Третьего рейха. Колонию возглавляет бывший офицер вермахта, бесноватый проповедник Пауль Шефер, внушающий пастве пользу умерщвления плоти и бесплатного труда от заката до рассвета. В «Дигнидад» легко попасть, но обратной дороги нет. Здесь Даниэлю предстоит превратиться в раба и «материал» для бесчеловечных экспериментов. • Качество » WEB-DLRip• Формат » AVI• Видео кодек » XviD• Аудио кодек » AC3• Видео » MPEG-4 Visual,1388 Кбит/с, 720x304 , 23.976 fps• Аудио » Русский (AC-3 / 6 ch / 384 kbps /16 bit / 48,0 КГц )

Бюджет: $14 000 000Сборы в России: $82 604Дата мировой премьеры: 13 сентября 2015Дата российской премьеры: 31 марта 2016, «Cinema Prestige»

ОбщееПолное имя : C:\Users\DRON & LeXuZ\Desktop\Colonia.2015..D.WEB-DLRip.1400MB.aviФормат : AVIФормат/Информация : Audio Video InterleaveРазмер файла : 1,37 ГбайтПродолжительность : 1 ч. 49 м.Общий поток : 1781 Кбит/секПрограмма кодирования : VirtualDubMod 1.5.10.2 (build 2540/release)Библиотека кодирования : VirtualDubMod build 2540/release

ВидеоИдентификатор : 0Формат : MPEG-4 VisualПрофиль формата : Advanced [email protected]Параметр BVOP формата : 2Параметр QPel формата : НетПараметр GMC формата : Без точки переходаПараметр матрицы формата : ВыборочнаяИдентификатор кодека : XVIDИдентификатор кодека/Подсказка : XviDПродолжительность : 1 ч. 49 м.Битрейт : 1388 Кбит/секШирина : 720 пикселейВысота : 304 пикселяСоотношение сторон : 2,35:1Частота кадров : 23,976 кадра/секЦветовое пространство : YUVСубдискретизация насыщенности : 4:2:0Битовая глубина : 8 битТип развёртки : ПрогрессивнаяМетод сжатия : С потерямиБит/(Пиксели*Кадры) : 0.264Размер потока : 1,07 Гбайт (78%)Библиотека кодирования : XviD 1.2.1 (UTC 2008-12-04)

АудиоИдентификатор : 1Формат : AC-3Формат/Информация : Audio Coding 3Расширение режима : CM (complete main)Параметр Endianness формата : BigИдентификатор кодека : 2000Продолжительность : 1 ч. 49 м.Вид битрейта : ПостоянныйБитрейт : 384 Кбит/секКаналы : 6 каналовРасположение каналов : Front: L C R, Side: L R, LFEЧастота : 48,0 КГцБитовая глубина : 16 битМетод сжатия : С потерямиРазмер потока : 302 Мбайт (22%)Выравнивание : Разделение по промежуткамПродолжительность промежутка : 42 мс. (1,00 видеокадр)Время предзагрузки промежутка : 500 мс.[/code]

Скачать Колония Дигнидад через торрент http://i74.fastpic.ru/big/2015/1218/b5/c39d072d168dbcde95d1a17f670689b5.gif Скачать фильм Колония Дигнидад через торрент бесплантно в хорошем качестве В ролях » Эмма Уотсон, Даниэль Брюль, Микаэл Нюквист, Риченда Кэри, Вики Крипс,Джинн Вернер, Джулиан Овенден, Август Цирнер,, Мартин ... 2016-05-11 10:16 9.9 10 15

Loading...

Loading...

Рекламный пират

11-05-2016 12:39 Колония Дигнидад Скачать торрент  

дальше Поттера ,Гермеоне не стоило идти))

Дорогой пользователь! Огромная просьба, поблагодарите релизера, оцените раздачу и оставьте свои комментарий, если Вы скачали Колония Дигнидад через торрент бесплатно! Внесите свою лепту в развитие PiratBit!

Комментировать посты могут только пользователи прошедшие не сложную регистрацию

Колония Дигнидад через торрент Скачать бесплатно Колония Дигнидад Колония Дигнидад скачать торрент Колония Дигнидад смотреть онлайн Cкачать фильм Колония Дигнидад бесплатно Колония Дигнидад скачать торрент в хорошем качестве Колония Дигнидад смотреть онлайн бесплатно в хорошем качестве

Вы не можете начинать темыВы не можете отвечать на сообщенияВы не можете редактировать свои сообщенияВы не можете удалять свои сообщенияВы не можете голосовать в опросахВы не можете прикреплять файлы к сообщениямВы можете скачивать файлы

piratbit.ru

Скачать фильм Колония Дигнидад через торрент в хорошем качестве бесплатно 720p

ОбщееУникальный идентификатор : 203849747208273592033598499511453743511 (0x995C0881C9E797D1B300B625D155F997)Полное имя : E:\Колония Дигнидад. 2O15.D(iTunes).WEB-DL.720p.mkvФормат : MatroskaВерсия формата : Version 2Размер файла : 3,70 ГбайтПродолжительность : 1 ч. 49 м.Общий поток : 4815 Кбит/секНазвание фильма : -merci-Дата кодирования : UTC 2016-05-11 03:36:07Программа кодирования : mkvmerge v5.8.0 ('No Sleep / Pillow') built on Sep 2 2012 15:37:04Библиотека кодирования : libebml v1.2.3 + libmatroska v1.3.0DURATION : 01:49:58.272000000NUMBER_OF_FRAMES : 206196NUMBER_OF_BYTES : 316717056_STATISTICS_WRITING_APP : mkvmerge v9.1.0 ('Little Earthquakes') 64bit_STATISTICS_WRITING_DATE_UTC : 2016-05-10 23:00:09_STATISTICS_TAGS : BPS DURATION NUMBER_OF_FRAMES NUMBER_OF_BYTES

ВидеоИдентификатор : 1Формат : AVCФормат/Информация : Advanced Video CodecПрофиль формата : [email protected]Параметр CABAC формата : НетПараметр ReFrames формата : 2 кадраИдентификатор кодека : V_MPEG4/ISO/AVCПродолжительность : 1 ч. 49 м.Битрейт : 3951 Кбит/секШирина : 1280 пикселейВысота : 532 пикселяСоотношение сторон : 2,40:1Режим частоты кадров : ПостоянныйЧастота кадров : 23,976 кадра/секЦветовое пространство : YUVСубдискретизация насыщенности : 4:2:0Битовая глубина : 8 битТип развёртки : ПрогрессивнаяБит/(Пиксели*Кадры) : 0.242Размер потока : 3,03 Гбайт (82%)Заголовок : Колония Дигнидад. 2O15.WEB-DL.720p.x264.PLAYNOW[][VR56]Язык : EnglishDefault : ДаForced : НетОсновные цвета : BT.709Характеристики трансфера : BT.709Коэффициенты матрицы : BT.709

Аудио #1Идентификатор : 2Формат : AC-3Формат/Информация : Audio Coding 3Расширение режима : CM (complete main)Параметр Endianness формата : BigИдентификатор кодека : A_AC3Продолжительность : 1 ч. 49 м.Вид битрейта : ПостоянныйБитрейт : 384 Кбит/секКаналы : 6 каналовРасположение каналов : Front: L C R, Side: L R, LFEЧастота : 48,0 КГцБитовая глубина : 16 битМетод сжатия : С потерямиРазмер потока : 302 Мбайт (8%)Заголовок : Dub (iTunes)Язык : RussianDefault : ДаForced : Нет

Аудио #2Идентификатор : 3Формат : AC-3Формат/Информация : Audio Coding 3Расширение режима : CM (complete main)Параметр Endianness формата : BigИдентификатор кодека : A_AC3Продолжительность : 1 ч. 49 м.Вид битрейта : ПостоянныйБитрейт : 384 Кбит/секКаналы : 6 каналовРасположение каналов : Front: L C R, Side: L R, LFEЧастота : 48,0 КГцБитовая глубина : 16 битМетод сжатия : С потерямиРазмер потока : 302 Мбайт (8%)Заголовок : EngЯзык : EnglishDefault : НетForced : Нет

ТекстИдентификатор : 4Формат : UTF-8Идентификатор кодека : S_TEXT/UTF8Идентификатор кодека/Информация : UTF-8 Plain TextЗаголовок : engЯзык : EnglishDefault : НетForced : Нет

Меню00:00:00.000 : en:Chapter 100:12:00.720 : en:Chapter 200:20:21.220 : en:Chapter 300:29:54.793 : en:Chapter 400:40:16.414 : en:Chapter 500:53:45.222 : en:Chapter 601:00:05.602 : en:Chapter 701:13:43.419 : en:Chapter 801:23:27.002 : en:Chapter 901:31:10.465 : en:Chapter 1001:44:28.262 : en:Chapter 11[/code]

piratbit.ru


Смотрите также