Из парижа с любовью скачать торрент в хорошем качестве


/ From Paris with Love (2010) BDRip 720p

: : From Paris with Love: , : 2010: , ,

: 01:32:39: ( )

: : , , , , , , , , ,

: : , - , . , , , . . - . , , .

: BDRip 720p : Blu-ray: MKV : MPEG-4 AVC : AC3: AVC, 1280x546 (2.35:1) at 23.976 fps, AVC at 5377 kbps avg, 0.321 bit/pixel: 48 kHz, AC3 Dolby Digital, 3/2 (L,C,R,l,r) + LFE ch, 448.00 kbps - Russian: ,

* * * MediaInfo Mac 0.7.33.4 file analysis report.* * * MediaInfo Mac is 2010 by Diego Massanti - http://mediainfo.massanti.com* * * MediaInfoLib by Jerome Martinez - http://mediainfo.sourceforge.netCreated on: 29.08.2013 19:06:20 Report for file: From Paris with Love.2010.720p.BluRay.x264-LEONARDO_[scarabey.org].mkv

General / Container Stream #1Total Video Streams for this File.................1Total Audio Streams for this File.................1Total Subtitle Streams for this File..............4Video Codecs Used.................................AVCAudio Codecs Used.................................AC3SubTitle Codecs Used..............................UTF-8 / UTF-8 / UTF-8 / UTF-8Available Sutbitle Languages......................Russian / Russian / Russian / File Format.......................................MatroskaPlay Time.........................................1h 32mnTotal File Size...................................3.85 GiBTotal Stream BitRate..............................5 944 KbpsTitle (Tag).......................................-=LEONARDO=-Encoded with......................................mkvmerge v5.8.0 ('No Sleep / Pillow') built on Sep 2 2012 15:37:04Encoding Library..................................libebml v1.2.3 + libmatroska v1.3.0Video Stream #1Codec (Human Name)................................AVCCodec (FourCC)....................................V_MPEG4/ISO/AVCCodec [email protected]Frame Width.......................................1 280 pixelsFrame Height......................................546 pixelsFrame Rate........................................23.976 fpsTotal Frames......................................133293Display Aspect Ratio..............................2.35:1Scan Type.........................................ProgressiveColor Space.......................................YUVCodec Settings (Summary)..........................CABAC / 8 Ref FramesQF (like Gordian Knot)............................0.321Codec Settings (CABAC)............................YesCodec Settings (Reference Frames).................8Video Stream Length...............................1h 32mn 39s 434msVideo Stream BitRate..............................5 377 KbpsBit Depth.........................................8 bitsVideo Stream Size.................................3.48 GiB (90%)Video Encoder.....................................x264 - core 125 r2208 d9d2288Video Encoder (Settings)..........................cabac=1 / ref=8 / deblock=1:-3:-3 / analyse=0x3:0x133 / me=umh / subme=11 / psy=1 / psy_rd=1.00:0.15 / mixed_ref=1 / me_range=32 / chroma_me=1 / trellis=2 / 8x8dct=1 / cqm=0 / deadzone=21,11 / fast_pskip=0 / chroma_qp_offset=-3 / threads=12 / lookahead_threads=2 / sliced_threads=0 / nr=0 / decimate=1 / interlaced=0 / bluray_compat=0 / constrained_intra=0 / bframes=12 / b_pyramid=2 / b_adapt=2 / b_bias=0 / direct=1 / weightb=1 / open_gop=0 / weightp=2 / keyint=250 / keyint_min=23 / scenecut=40 / intra_refresh=0 / rc=crf / mbtree=0 / crf=17.6 / qcomp=0.60 / qpmin=0 / qpmax=69 / qpstep=4 / ip_ratio=1.40 / pb_ratio=1.30 / aq=2:1.00Audio Stream #1Codec.............................................AC-3Codec (FourCC)....................................A_AC3Audio Stream Length...............................1h 32mn 39s 429msAudio Stream BitRate..............................448 KbpsAudio Stream BitRate Mode.........................CBRNumber of Audio Channels..........................6Audio Channel's Positions.........................Front: L C R, Side: L R, LFESampling Rate.....................................48.0 KHzAudio Stream Size.................................297 MiB (8%)Audio Stream Language.............................RussianSubtitle Stream #1Language..........................................RussianFormat............................................UTF-8Codec ID..........................................S_TEXT/UTF8Codec Info........................................UTF-8 Plain TextSubtitle Stream #2Language..........................................RussianFormat............................................UTF-8Codec ID..........................................S_TEXT/UTF8Codec Info........................................UTF-8 Plain TextSubtitle Stream #3Language..........................................RussianFormat............................................UTF-8Codec ID..........................................S_TEXT/UTF8Codec Info........................................UTF-8 Plain TextSubtitle Stream #4Format............................................UTF-8Codec ID..........................................S_TEXT/UTF8Codec Info........................................UTF-8 Plain TextMenu / Chapters Stream #1

 

: 3.85 GB

[ ::Skidows.Ru::16696]

skidows.com

Скачать фильм Из Парижа с любовью через торрент в хорошем качестве бесплатно 720p

ОбщееУникальный идентификатор : 200914917585580057171733546998103796445 (0x9726CE3C24B92F0C9370AC054573EADD)Полное имя : D:\ From_Paris_with_Love.(2010).BDRip.720p.(60 Fps).mkvФормат : MatroskaВерсия формата : Version 4 / Version 2Размер файла : 4,45 ГбайтПродолжительность : 1 ч. 32 м.Общий поток : 6868 Кбит/секНазвание фильма : Из Парижа с любовью / From Paris with Love (2010) BDRip 720p 60 FpsДата кодирования : UTC 2015-04-10 10:46:32Программа кодирования : mkvmerge v6.2.0 ('Promised Land') built on Apr 28 2013 12:22:01Библиотека кодирования : libebml v1.3.0 + libmatroska v1.4.0Attachment : Yes / Yes / Yes

ВидеоИдентификатор : 1Формат : AVCФормат/Информация : Advanced Video CodecПрофиль формата : [email protected]Параметр CABAC формата : ДаПараметр ReFrames формата : 4 кадраИдентификатор кодека : V_MPEG4/ISO/AVCПродолжительность : 1 ч. 32 м.Битрейт : 5725 Кбит/секШирина : 1280 пикселейВысота : 544 пикселяСоотношение сторон : 2,35:1Режим частоты кадров : ПостоянныйЧастота кадров : 59,880 кадров/секЧастота кадров в оригинале : 59,940 кадров/секЦветовое пространство : YUVСубдискретизация насыщенности : 4:2:0Битовая глубина : 8 битТип развёртки : ПрогрессивнаяБит/(Пиксели*Кадры) : 0.137Размер потока : 3,62 Гбайт (81%)Заголовок : From Paris with Love (2010) BDRip 720p (60 Fps).mkvБиблиотека кодирования : x264 core 130 r2273 b3065e6Настройки программы : cabac=1 / ref=4 / deblock=1:-1:-1 / analyse=0x3:0x113 / me=umh / subme=7 / psy=1 / psy_rd=1.00:0.00 / mixed_ref=1 / me_range=24 / chroma_me=1 / trellis=2 / 8x8dct=1 / cqm=0 / deadzone=21,11 / fast_pskip=1 / chroma_qp_offset=-2 / threads=3 / lookahead_threads=1 / sliced_threads=0 / nr=0 / decimate=1 / interlaced=0 / bluray_compat=0 / constrained_intra=0 / bframes=4 / b_pyramid=2 / b_adapt=2 / b_bias=0 / direct=3 / weightb=1 / open_gop=0 / weightp=2 / keyint=250 / keyint_min=25 / scenecut=40 / intra_refresh=0 / rc_lookahead=50 / rc=2pass / mbtree=1 / bitrate=5725 / ratetol=1.0 / qcomp=0.60 / qpmin=0 / qpmax=69 / qpstep=4 / cplxblur=20.0 / qblur=0.5 / ip_ratio=1.40 / aq=1:1.00Язык : EnglishDefault : НетForced : Нет

Аудио #1Идентификатор : 2Формат : AC-3Формат/Информация : Audio Coding 3Расширение режима : CM (complete main)Параметр Endianness формата : BigИдентификатор кодека : A_AC3Продолжительность : 1 ч. 32 м.Вид битрейта : ПостоянныйБитрейт : 384 Кбит/секКаналы : 6 каналовРасположение каналов : Front: L C R, Side: L R, LFEЧастота : 48,0 КГцБитовая глубина : 16 битМетод сжатия : С потерямиРазмер потока : 255 Мбайт (6%)Заголовок : DubЯзык : RussianDefault : ДаForced : Нет

Аудио #2Идентификатор : 3Формат : AC-3Формат/Информация : Audio Coding 3Расширение режима : CM (complete main)Параметр Endianness формата : BigИдентификатор кодека : A_AC3Продолжительность : 1 ч. 32 м.Вид битрейта : ПостоянныйБитрейт : 384 Кбит/секКаналы : 6 каналовРасположение каналов : Front: L C R, Side: L R, LFEЧастота : 48,0 КГцБитовая глубина : 16 битМетод сжатия : С потерямиРазмер потока : 255 Мбайт (6%)Заголовок : DubЯзык : UkrainianDefault : НетForced : Нет

Аудио #3Идентификатор : 4Формат : AC-3Формат/Информация : Audio Coding 3Расширение режима : CM (complete main)Параметр Endianness формата : BigИдентификатор кодека : A_AC3Продолжительность : 1 ч. 32 м.Вид битрейта : ПостоянныйБитрейт : 384 Кбит/секКаналы : 6 каналовРасположение каналов : Front: L C R, Side: L R, LFEЧастота : 48,0 КГцБитовая глубина : 16 битМетод сжатия : С потерямиРазмер потока : 255 Мбайт (6%)Язык : EnglishDefault : НетForced : Нет

Текст #1Идентификатор : 5Формат : UTF-8Идентификатор кодека : S_TEXT/UTF8Идентификатор кодека/Информация : UTF-8 Plain TextЗаголовок : VoronineЯзык : RussianDefault : НетForced : Нет

Текст #2Идентификатор : 6Формат : UTF-8Идентификатор кодека : S_TEXT/UTF8Идентификатор кодека/Информация : UTF-8 Plain TextЗаголовок : Voronine colouredЯзык : RussianDefault : НетForced : Нет

Текст #3Идентификатор : 7Формат : UTF-8Идентификатор кодека : S_TEXT/UTF8Идентификатор кодека/Информация : UTF-8 Plain TextЗаголовок : Voronine SDH colouredЯзык : RussianDefault : НетForced : Нет

Текст #4Идентификатор : 8Формат : UTF-8Идентификатор кодека : S_TEXT/UTF8Идентификатор кодека/Информация : UTF-8 Plain TextЯзык : EnglishDefault : НетForced : Нет

Меню00:00:00.000 : en:00:00:00.00000:06:41.484 : en:00:06:41.48400:10:17.492 : en:00:10:17.49200:17:21.332 : en:00:17:21.33200:20:18.676 : en:00:20:18.67600:24:47.820 : en:00:24:47.82000:29:43.615 : en:00:29:43.61500:37:39.340 : en:00:37:39.34000:44:23.452 : en:00:44:23.45200:49:37.516 : en:00:49:37.51600:53:12.231 : en:00:53:12.23100:58:11.947 : en:00:58:11.94701:05:33.429 : en:01:05:33.42901:12:38.771 : en:01:12:38.77101:18:35.044 : en:01:18:35.04401:25:38.925 : en:01:25:38.925

piratbit.ru

Скачать фильм Из Парижа с любовью через торрент в хорошем качестве бесплатно 720p)

piratbit.ru

Размер: 2.22 GB | Добавлен: 6 лет 9 мес. назад | Торрент скачан:1330 раз
Реклама Дарим 3000 рублей за регистрацию, не упусти свой шанс получить шикарный бонус!!!

23-01-2011 17:45 Из Парижа с любовью Скачать торрент  

Из Парижа с любовью / From Paris with Love

Год выпуска: 2009Страна: ФранцияЖанр: боевик, триллер, комедия, криминалПродолжительность: 88 мин.Перевод: Профессиональный (полное дублирование)

Режиссер: Пьер МорельПродюссер: Люк Бессон, Энсон Даунс, Линда ФавилаСценарий: Ади Хасак, Люк БессонБюджет: $52 000 000Премьера в мире: 4 февраля 2010

R

-Лицам до 17 лет обязательно присутствие взрослогоМировой рейтинг IMDB 6.40 (25 857) В ролях: Джон Траволта, Джонатан Риз Мейерс, Касия Смутняк, Ричард Дерден, Бинг Йинг, Эмбер Роуз Рева, Эрик Годон, Франсуа Бредон, Чемс Дамани, Сами ДаОписание: Сюжет рассказывает о молодом работнике посольства и американском секретном агенте, чьи судьбы пересекаются во время работы над рискованной операцией в Париже.Качество: BDRip (720p)Формат: MKVВидео кодек: H.26xАудио кодек: AC3Видео: AVC, 1280x544 (2.35), 23.976 fps, 3 021 Kbps (0.175 bit/pixel)Аудио: AC-3, 48.0 KHz, 6 ch, 448 Kbps, CBR (Russian) Скачать Из Парижа с любовью через торрент http://i2.imageban.ru/out/2011/01/23/70f330a0adacce96f4416124ebdd9889.jpg Скачать фильм Из Парижа с любовью через торрент бесплантно в хорошем качестве Описание: Сюжет рассказывает о молодом работнике посольства и американском секретном агенте, чьи судьбы пересекаются во время работы ... 2011-01-23 18:02 9.9 10 16

Loading...

Loading...

Рекламный пират

30-12-2011 10:53 Из Парижа с любовью Скачать торрент  

30-03-2012 06:42 Из Парижа с любовью Скачать торрент  

прикольный фильм!

Дорогой пользователь! Огромная просьба, поблагодарите релизера, оцените раздачу и оставьте свои комментарий, если Вы скачали Из Парижа с любовью через торрент бесплатно! Внесите свою лепту в развитие PiratBit!

Комментировать посты могут только пользователи прошедшие не сложную регистрацию

Из Парижа с любовью через торрент Скачать бесплатно Из Парижа с любовью Из Парижа с любовью скачать торрент Из Парижа с любовью смотреть онлайн Cкачать фильм Из Парижа с любовью бесплатно Из Парижа с любовью скачать торрент в хорошем качестве Из Парижа с любовью смотреть онлайн бесплатно в хорошем качестве

Вы не можете начинать темыВы не можете отвечать на сообщенияВы не можете редактировать свои сообщенияВы не можете удалять свои сообщенияВы не можете голосовать в опросахВы не можете прикреплять файлы к сообщениямВы можете скачивать файлы

/ From Paris with Love ( / Pierre Morel) [2009, , , , , , BDRip 1080p] Dub + AVO [] + AVO [] + original eng

General Unique ID : 220058090480992967173016693327321318787 (0xA58DA587542559DFAC17ADB3920F4583) Complete name : From.Paris.with.Love.2009.D.2xP1.Rus.Eng.BDRip.1080p.x264.mkv Format : Matroska Format version : Version 2 File size : 9.67 GiB Duration : 1h 32mn Overall bit rate : 14.9 Mbps Encoded date : UTC 2011-09-07 03:31:56 Writing application : mkvmerge v4.9.1 ('Ich will') Jul 11 2011 23:53:15 Writing library : libebml v1.2.1 + libmatroska v1.1.1

Video

ID : 1 Format : AVC Format/Info : Advanced Video Codec Format profile : [email protected] Format settings, CABAC : Yes Format settings, ReFrames : 3 frames Codec ID : V_MPEG4/ISO/AVC Duration : 1h 32mn Bit rate mode : Variable Bit rate : 10.8 Mbps Maximum bit rate : 40.0 Mbps Width : 1 920 pixels Height : 816 pixels Display aspect ratio : 2.35:1 Frame rate : 23.976 fps Color space : YUV Chroma subsampling : 4:2:0 Bit depth : 8 bits Scan type : Progressive Bits/(Pixel*Frame) : 0.288 Stream size : 6.80 GiB (70%) Writing library : x264 core 80 r1376M 3feaec2 Encoding settings : cabac=1 / ref=4 / deblock=1:-3:-3 / analyse=0x3:0x113 / me=umh / subme=7 / psy=1 / psy_rd=0.9:0.1 / mixed_ref=1 / me_range=32 / chroma_me=1 / trellis=2 / 8x8dct=1 / cqm=0 / deadzone=21,11 / fast_pskip=0 / chroma_qp_offset=-6 / threads=6 / sliced_threads=0 / slices=4 / nr=0 / decimate=0 / mbaff=0 / constrained_intra=0 / bframes=7 / b_pyramid=1 / b_adapt=2 / b_bias=0 / direct=1 / wpredb=1 / wpredp=2 / keyint=250 / keyint_min=25 / scenecut=40 / rc_lookahead=0 / rc=2pass / mbtree=0 / bitrate=10813 / ratetol=1.0 / qcomp=0.60 / qpmin=10 / qpmax=51 / qpstep=4 / cplxblur=20.0 / qblur=0.5 / vbv_maxrate=40000 / vbv_bufsize=30000 / ip_ratio=1.40 / pb_ratio=1.30 / aq=1:1.00 Language : English

Audio #1

ID : 2 Format : DTS Format/Info : Digital Theater Systems Codec ID : A_DTS Duration : 1h 32mn Bit rate mode : Constant Bit rate : 1 510 Kbps Channel(s) : 6 channels Channel positions : Front: L C R, Side: L R, LFE Sampling rate : 48.0 KHz Bit depth : 16 bits Compression mode : Lossy Stream size : 1 001 MiB (10%) Language : Russian

Audio #2

ID : 3 Format : AC-3 Format/Info : Audio Coding 3 Mode extension : CM (complete main) Codec ID : A_AC3 Duration : 1h 32mn Bit rate mode : Constant Bit rate : 448 Kbps Channel(s) : 6 channels Channel positions : Front: L C R, Side: L R, LFE Sampling rate : 48.0 KHz Bit depth : 16 bits Compression mode : Lossy Stream size : 297 MiB (3%) Language : Russian

Audio #3

ID : 4 Format : AC-3 Format/Info : Audio Coding 3 Mode extension : CM (complete main) Codec ID : A_AC3 Duration : 1h 32mn Bit rate mode : Constant Bit rate : 448 Kbps Channel(s) : 6 channels Channel positions : Front: L C R, Side: L R, LFE Sampling rate : 48.0 KHz Bit depth : 16 bits Compression mode : Lossy Stream size : 297 MiB (3%) Language : Russian

Audio #4

ID : 5 Format : DTS Format/Info : Digital Theater Systems Codec ID : A_DTS Duration : 1h 32mn Bit rate mode : Constant Bit rate : 1 510 Kbps Channel(s) : 6 channels Channel positions : Front: L C R, Side: L R, LFE Sampling rate : 48.0 KHz Bit depth : 24 bits Compression mode : Lossy Stream size : 1 001 MiB (10%) Language : English

Audio #5

ID : 6 Format : AC-3 Format/Info : Audio Coding 3 Format profile : Dolby Digital Mode extension : CM (complete main) Codec ID : A_AC3 Duration : 1h 32mn Bit rate mode : Constant Bit rate : 224 Kbps Channel(s) : 2 channels Channel positions : Front: L R Sampling rate : 48.0 KHz Bit depth : 16 bits Compression mode : Lossy Stream size : 148 MiB (1%) Language : English

Text #1

ID : 7 Format : UTF-8 Codec ID : S_TEXT/UTF8 Codec ID/Info : UTF-8 Plain Text Language : Russian

Text #2

ID : 8 Format : UTF-8 Codec ID : S_TEXT/UTF8 Codec ID/Info : UTF-8 Plain Text Language : English

Menu

00:00:00.000 : en:00:00:00.000 00:06:41.484 : en:00:06:41.484 00:10:17.492 : en:00:10:17.492 00:17:21.332 : en:00:17:21.332 00:20:18.676 : en:00:20:18.676 00:24:47.820 : en:00:24:47.820 00:29:43.615 : en:00:29:43.615 00:37:39.340 : en:00:37:39.340 00:44:23.452 : en:00:44:23.452 00:49:37.516 : en:00:49:37.516 00:53:12.231 : en:00:53:12.231 00:58:11.947 : en:00:58:11.947 01:05:33.429 : en:01:05:33.429 01:12:38.771 : en:01:12:38.771 01:18:35.044 : en:01:18:35.044 01:25:38.925 : en:01:25:38.925

unionpeer.com


Смотрите также