Испытание огнем скачать через торрент бесплатно в хорошем качестве


Испытание огнём через торрент в хорошем качестве бесплатно 1080p

GeneralID                                       : 0 (0x0)Complete name                            : H:\MAZE_RUNNER_THE_SCORCH_TRIALS_HDCLUB\BDMV\STREAM\00800.m2tsFormat                                   : BDAVFormat/Info                              : Blu-ray VideoFile size                                : 32.1 GiBDuration                                 : 2h 11mnOverall bit rate mode                    : VariableOverall bit rate                         : 34.9 MbpsMaximum Overall bit rate                 : 48.0 Mbps

VideoID                                       : 4113 (0x1011)Menu ID                                  : 1 (0x1)Format                                   : AVCFormat/Info                              : Advanced Video CodecFormat profile                           : [email protected] settings, CABAC                   : YesFormat settings, ReFrames                : 2 framesCodec ID                                 : 27Duration                                 : 2h 11mnBit rate mode                            : VariableBit rate                                 : 28.0 MbpsWidth                                    : 1 920 pixelsHeight                                   : 1 080 pixelsDisplay aspect ratio                     : 16:9Frame rate                               : 23.976 fpsColor space                              : YUVChroma subsampling                       : 4:2:0Bit depth                                : 8 bitsScan type                                : ProgressiveBits/(Pixel*Frame)                       : 0.563Stream size                              : 25.8 GiB (80%)

Audio #1ID                                       : 4352 (0x1100)Menu ID                                  : 1 (0x1)Format                                   : DTSFormat/Info                              : Digital Theater SystemsFormat profile                           : MA / CoreMuxing mode                              : Stream extensionCodec ID                                 : 134Duration                                 : 2h 11mnBit rate mode                            : VariableBit rate                                 : 1 597 Kbps / 1 510 KbpsChannel(s)                               : 8 channels / 6 channelsChannel positions                        : Front: L C R, Side: L R, Back: L R, LFE / Front: L C R, Side: L R, LFESampling rate                            : 48.0 KHzBit depth                                : 24 bitsCompression mode                         : Lossless / Lossy

Audio #2ID                                       : 4353 (0x1101)Menu ID                                  : 1 (0x1)Format                                   : AC-3Format/Info                              : Audio Coding 3Mode extension                           : CM (complete main)Codec ID                                 : 129Duration                                 : 2h 11mnBit rate mode                            : ConstantBit rate                                 : 448 KbpsChannel(s)                               : 6 channelsChannel positions                        : Front: L C R, Side: L R, LFESampling rate                            : 48.0 KHzBit depth                                : 16 bitsCompression mode                         : LossyStream size                              : 422 MiB (1%)

Audio #3ID                                       : 4354 (0x1102)Menu ID                                  : 1 (0x1)Format                                   : DTSFormat/Info                              : Digital Theater SystemsCodec ID                                 : 130Duration                                 : 2h 11mnBit rate mode                            : ConstantBit rate                                 : 755 KbpsChannel(s)                               : 6 channelsChannel positions                        : Front: L C R, Side: L R, LFESampling rate                            : 48.0 KHzBit depth                                : 24 bitsCompression mode                         : LossyStream size                              : 711 MiB (2%)

Audio #4ID                                       : 4355 (0x1103)Menu ID                                  : 1 (0x1)Format                                   : DTSFormat/Info                              : Digital Theater SystemsCodec ID                                 : 130Duration                                 : 2h 11mnBit rate mode                            : ConstantBit rate                                 : 755 KbpsChannel(s)                               : 6 channelsChannel positions                        : Front: L C R, Side: L R, LFESampling rate                            : 48.0 KHzBit depth                                : 24 bitsCompression mode                         : LossyStream size                              : 711 MiB (2%)

Audio #5ID                                       : 4356 (0x1104)Menu ID                                  : 1 (0x1)Format                                   : AC-3Format/Info                              : Audio Coding 3Mode extension                           : CM (complete main)Codec ID                                 : 129Duration                                 : 2h 11mnBit rate mode                            : ConstantBit rate                                 : 448 KbpsChannel(s)                               : 6 channelsChannel positions                        : Front: L C R, Side: L R, LFESampling rate                            : 48.0 KHzBit depth                                : 16 bitsCompression mode                         : LossyStream size                              : 422 MiB (1%)

Audio #6ID                                       : 4357 (0x1105)Menu ID                                  : 1 (0x1)Format                                   : DTSFormat/Info                              : Digital Theater SystemsCodec ID                                 : 130Duration                                 : 2h 11mnBit rate mode                            : ConstantBit rate                                 : 755 KbpsChannel(s)                               : 6 channelsChannel positions                        : Front: L C R, Side: L R, LFESampling rate                            : 48.0 KHzBit depth                                : 24 bitsCompression mode                         : LossyStream size                              : 711 MiB (2%)

Audio #7ID                                       : 4358 (0x1106)Menu ID                                  : 1 (0x1)Format                                   : AC-3Format/Info                              : Audio Coding 3Mode extension                           : CM (complete main)Codec ID                                 : 129Duration                                 : 2h 11mnBit rate mode                            : ConstantBit rate                                 : 448 KbpsChannel(s)                               : 6 channelsChannel positions                        : Front: L C R, Side: L R, LFESampling rate                            : 48.0 KHzBit depth                                : 16 bitsCompression mode                         : LossyStream size                              : 422 MiB (1%)

Audio #8ID                                       : 4359 (0x1107)Menu ID                                  : 1 (0x1)Format                                   : AC-3Format/Info                              : Audio Coding 3Mode extension                           : CM (complete main)Codec ID                                 : 129Duration                                 : 2h 11mnBit rate mode                            : ConstantBit rate                                 : 224 KbpsChannel(s)                               : 2 channelsChannel positions                        : Front: L RSampling rate                            : 48.0 KHzBit depth                                : 16 bitsCompression mode                         : LossyStream size                              : 211 MiB (1%)

Text #1ID                                       : 4609 (0x1201)Menu ID                                  : 1 (0x1)Format                                   : PGSCodec ID                                 : 144

Text #2ID                                       : 4610 (0x1202)Menu ID                                  : 1 (0x1)Format                                   : PGSCodec ID                                 : 144

Text #3ID                                       : 4611 (0x1203)Menu ID                                  : 1 (0x1)Format                                   : PGSCodec ID                                 : 144

Text #4ID                                       : 4612 (0x1204)Menu ID                                  : 1 (0x1)Format                                   : PGSCodec ID                                 : 144

Text #5ID                                       : 4613 (0x1205)Menu ID                                  : 1 (0x1)Format                                   : PGSCodec ID                                 : 144

Text #6ID                                       : 4614 (0x1206)Menu ID                                  : 1 (0x1)Format                                   : PGSCodec ID                                 : 144

Text #7ID                                       : 4615 (0x1207)Menu ID                                  : 1 (0x1)Format                                   : PGSCodec ID                                 : 144

Text #8ID                                       : 4616 (0x1208)Menu ID                                  : 1 (0x1)Format                                   : PGSCodec ID                                 : 144

Text #9ID                                       : 4617 (0x1209)Menu ID                                  : 1 (0x1)Format                                   : PGSCodec ID                                 : 144

Text #10ID                                       : 4618 (0x120A)Menu ID                                  : 1 (0x1)Format                                   : PGSCodec ID                                 : 144

Text #11ID                                       : 4619 (0x120B)Menu ID                                  : 1 (0x1)Format                                   : PGSCodec ID                                 : 144

Text #12ID                                       : 4620 (0x120C)Menu ID                                  : 1 (0x1)Format                                   : PGSCodec ID                                 : 144

Text #13ID                                       : 4621 (0x120D)Menu ID                                  : 1 (0x1)Format                                   : PGSCodec ID                                 : 144

Text #14ID                                       : 4622 (0x120E)Menu ID                                  : 1 (0x1)Format                                   : PGSCodec ID                                 : 144

Text #15ID                                       : 4623 (0x120F)Menu ID                                  : 1 (0x1)Format                                   : PGSCodec ID                                 : 144Duration                                 : 2h 11mnDelay relative to video                  : 3s 336ms

Text #16ID                                       : 4624 (0x1210)Menu ID                                  : 1 (0x1)Format                                   : PGSCodec ID                                 : 144Duration                                 : 2h 11mnDelay relative to video                  : 3s 336ms

Text #17ID                                       : 4625 (0x1211)Menu ID                                  : 1 (0x1)Format                                   : PGSCodec ID                                 : 144Duration                                 : 2h 11mnDelay relative to video                  : 3s 336ms

Text #18ID                                       : 4626 (0x1212)Menu ID                                  : 1 (0x1)Format                                   : PGSCodec ID                                 : 144Duration                                 : 2h 11mnDelay relative to video                  : 3s 336ms

Text #19ID                                       : 4627 (0x1213)Menu ID                                  : 1 (0x1)Format                                   : PGSCodec ID                                 : 144Duration                                 : 2h 11mnDelay relative to video                  : 3s 336ms

Text #20ID                                       : 4628 (0x1214)Menu ID                                  : 1 (0x1)Format                                   : PGSCodec ID                                 : 144Duration                                 : 2h 11mnDelay relative to video                  : 3s 336ms

Text #21ID                                       : 4629 (0x1215)Menu ID                                  : 1 (0x1)Format                                   : PGSCodec ID                                 : 144Duration                                 : 2h 11mnDelay relative to video                  : 3s 336ms

piratbit.ru

The Scorch Trials (2015) BDRip-AVC New-Team |

: 205157808840845916096085068671132429447 (0x9A57F4ECB9BFE1A89C05D9627B5CEC87) : M:RipsMaze Runner The Scorch TrialsMaze.Runner.The.Scorch.Trials.2015.BDRip-AVC.Dub.2.18Gb...stalkerok.new-team.mkv : Matroska : 2,18 : 2 . 11 . : 2368 / : Maze Runner: The Scorch Trials (2015) (New-Team) (Rip by Stalker oK) : UTC 2015-11-22 12:53:46 : mkvmerge v7.9.0 ('Birds') 64bit : libebml v1.3.1 + libmatroska v1.4.2 : 1 : AVC / : Advanced Video Codec : [email protected] CABAC : ReFrames : 13 : V_MPEG4/ISO/AVC : 2 . 11 . : 1602 / : 1056 . : 440 . : 2,40:1 : 23,976 / : YUV : 4:2:0 : 8 : /(*) : 0.144 : 1,43 (66%) : Maze Runner: The Scorch Trials (2015) (New-Team) (Rip by Stalker oK) : x264 core 146 r2538kMod 121396c : cabac=1 / ref=13 / deblock=1:-3:-3 / analyse=0x3:0x133 / me=umh / subme=11 / psy=1 / fade_compensate=0.00 / psy_rd=1.00:0.10 / mixed_ref=1 / me_range=48 / chroma_me=1 / trellis=2 / 8x8dct=1 / cqm=0 / deadzone=21,11 / fast_pskip=0 / chroma_qp_offset=-3 / threads=12 / lookahead_threads=3 / sliced_threads=0 / nr=0 / decimate=0 / interlaced=0 / bluray_compat=0 / constrained_intra=0 / fgo=0 / bframes=13 / b_pyramid=2 / b_adapt=2 / b_bias=0 / direct=3 / weightb=1 / open_gop=0 / weightp=2 / keyint=240 / keyint_min=23 / scenecut=40 / intra_refresh=0 / rc_lookahead=60 / rc=2pass / mbtree=0 / bitrate=1602 / ratetol=1.0 / qcomp=0.70 / qpmin=0 / qpmax=69 / qpstep=4 / cplxblur=20.0 / qblur=0.5 / vbv_maxrate=50000 / vbv_bufsize=62500 / nal_hrd=none / filler=0 / ip_ratio=1.40 / pb_ratio=1.30 / aq=3:0.90

#1

: 2 : AC-3 / : Audio Coding 3 : CM (complete main) : A_AC3 : 2 . 11 . : : 384 / () : 6 () : Front: L C R, Side: L R, LFE : 48,0 : 16 : : 362 (16%) : Russian

#2

: 3 : AC-3 / : Audio Coding 3 : CM (complete main) : A_AC3 : 2 . 11 . : : 384 / () : 6 () : Front: L C R, Side: L R, LFE : 48,0 : 16 : : 362 (16%) : English

#1

: 4 : UTF-8 : S_TEXT/UTF8 / : UTF-8 Plain Text : Russian

#2

: 5 : UTF-8 : S_TEXT/UTF8 / : UTF-8 Plain Text : English 00:00:00.000 : en:Chapter 1 00:04:05.119 : en:Chapter 2 00:05:59.817 : en:Chapter 3 00:09:08.798 : en:Chapter 4 00:11:55.840 : en:Chapter 5 00:17:32.676 : en:Chapter 6 00:23:21.191 : en:Chapter 7 00:27:36.029 : en:Chapter 8 00:33:10.238 : en:Chapter 9 00:37:06.682 : en:Chapter 10 00:41:30.988 : en:Chapter 11 00:45:47.369 : en:Chapter 12 00:51:57.781 : en:Chapter 13 00:56:01.775 : en:Chapter 14 01:00:56.319 : en:Chapter 15 01:03:50.535 : en:Chapter 16 01:07:29.253 : en:Chapter 17 01:11:19.191 : en:Chapter 18 01:15:32.819 : en:Chapter 19 01:20:15.060 : en:Chapter 20 01:27:47.470 : en:Chapter 21 01:30:17.286 : en:Chapter 22 01:34:04.013 : en:Chapter 23 01:38:29.904 : en:Chapter 24 01:40:52.546 : en:Chapter 25 01:44:13.121 : en:Chapter 26 01:51:51.871 : en:Chapter 27 01:56:51.212 : en:Chapter 28 02:01:02.713 : en:Chapter 29 02:04:05.146 : en:Chapter 30

unionpeer.com

Испытание огнём через торрент в хорошем качестве бесплатно BDRip-AVC 60 fps от R.G. Resident

GeneralUnique ID                                : 175892419282950424178983939522540937218 (0x8453A5D18D90E8A0AAD496853C0D2002)Complete name                            : H:\Maze.Runne.TheScorch.Trials.2015.BDRip-AVC.R.G. Resident.mkvFormat                                   : MatroskaFormat version                           : Version 4 / Version 2File size                                : 3.66 GiBDuration                                 : 2h 11mnOverall bit rate                         : 3 983 KbpsMovie name                               : Maze Runner: The Scorch Trials (2015) BDRip-AVC by R.G. ResidentEncoded date                             : UTC 2015-12-04 15:39:53Writing application                      : mkvmerge v8.6.1 ('Flying') 64bitWriting library                          : libebml v1.3.3 + libmatroska v1.4.4DURATION                                 : 02:02:21.875000000NUMBER_OF_FRAMES                         : 1485NUMBER_OF_BYTES                          : 37391_STATISTICS_WRITING_APP                  : mkvmerge v8.6.1 ('Flying') 64bit_STATISTICS_WRITING_DATE_UTC             : 2015-12-04 15:39:53_STATISTICS_TAGS                         : BPS DURATION NUMBER_OF_FRAMES NUMBER_OF_BYTES

VideoID                                       : 1Format                                   : AVCFormat/Info                              : Advanced Video CodecFormat profile                           : [email protected] settings, CABAC                   : YesFormat settings, ReFrames                : 12 framesCodec ID                                 : V_MPEG4/ISO/AVCDuration                                 : 2h 11mnBit rate                                 : 3 082 KbpsWidth                                    : 1 056 pixelsHeight                                   : 440 pixelsDisplay aspect ratio                     : 2.40:1Frame rate                               : 59.940 fpsColor space                              : YUVChroma subsampling                       : 4:2:0Bit depth                                : 8 bitsScan type                                : ProgressiveBits/(Pixel*Frame)                       : 0.111Stream size                              : 2.77 GiB (76%)Title                                    : -Lexx-Writing library                          : x264 core 146 r2538 121396cEncoding settings                        : cabac=1 / ref=12 / deblock=1:0:0 / analyse=0x3:0x113 / me=umh / subme=11 / psy=1 / psy_rd=1.00:0.20 / mixed_ref=1 / me_range=24 / chroma_me=1 / trellis=2 / 8x8dct=1 / cqm=0 / deadzone=21,11 / fast_pskip=0 / chroma_qp_offset=-3 / threads=6 / lookahead_threads=2 / sliced_threads=0 / nr=0 / decimate=1 / interlaced=0 / bluray_compat=0 / constrained_intra=0 / bframes=9 / b_pyramid=2 / b_adapt=2 / b_bias=0 / direct=3 / weightb=1 / open_gop=0 / weightp=2 / keyint=250 / keyint_min=25 / scenecut=40 / intra_refresh=0 / rc=2pass / mbtree=0 / bitrate=3082 / ratetol=1.0 / qcomp=0.60 / qpmin=0 / qpmax=69 / qpstep=4 / cplxblur=20.0 / qblur=0.5 / ip_ratio=1.40 / pb_ratio=1.30 / aq=1:1.00Language                                 : EnglishDefault                                  : YesForced                                   : NoDURATION                                 : 02:11:42.829000000NUMBER_OF_FRAMES                         : 473696NUMBER_OF_BYTES                          : 3045378777_STATISTICS_WRITING_APP                  : mkvmerge v8.6.1 ('Flying') 64bit_STATISTICS_WRITING_DATE_UTC             : 2015-12-04 15:39:53_STATISTICS_TAGS                         : BPS DURATION NUMBER_OF_FRAMES NUMBER_OF_BYTES

Audio #1ID                                       : 2Format                                   : AC-3Format/Info                              : Audio Coding 3Mode extension                           : CM (complete main)Codec ID                                 : A_AC3Duration                                 : 2h 11mnBit rate mode                            : ConstantBit rate                                 : 448 KbpsChannel(s)                               : 6 channelsChannel positions                        : Front: L C R, Side: L R, LFESampling rate                            : 48.0 KHzBit depth                                : 16 bitsCompression mode                         : LossyStream size                              : 422 MiB (11%)Title                                    : ДубляжLanguage                                 : RussianDefault                                  : YesForced                                   : No

Audio #2ID                                       : 3Format                                   : AC-3Format/Info                              : Audio Coding 3Mode extension                           : CM (complete main)Codec ID                                 : A_AC3Duration                                 : 2h 11mnBit rate mode                            : ConstantBit rate                                 : 448 KbpsChannel(s)                               : 6 channelsChannel positions                        : Front: L C R, Side: L R, LFESampling rate                            : 48.0 KHzBit depth                                : 16 bitsCompression mode                         : LossyStream size                              : 422 MiB (11%)Title                                    : ОригиналLanguage                                 : EnglishDefault                                  : NoForced                                   : No

Text #1ID                                       : 4Format                                   : UTF-8Codec ID                                 : S_TEXT/UTF8Codec ID/Info                            : UTF-8 Plain TextTitle                                    : ForcedLanguage                                 : RussianDefault                                  : YesForced                                   : No

Text #2ID                                       : 5Format                                   : UTF-8Codec ID                                 : S_TEXT/UTF8Codec ID/Info                            : UTF-8 Plain TextTitle                                    : FullLanguage                                 : RussianDefault                                  : NoForced                                   : No

Text #3ID                                       : 6Format                                   : UTF-8Codec ID                                 : S_TEXT/UTF8Codec ID/Info                            : UTF-8 Plain TextTitle                                    : FullLanguage                                 : EnglishDefault                                  : NoForced                                   : No

Menu00:00:00.000                             : :(01)00:00:00:00000:04:05.119                             : :(02)00:04:05:11900:05:59.817                             : :(03)00:05:59:81700:09:08.798                             : :(04)00:09:08:79800:11:55.840                             : :(05)00:11:55:84000:17:32.675                             : :(06)00:17:32:67600:23:21.191                             : :(07)00:23:21:19100:27:36.029                             : :(08)00:27:36:02900:33:10.238                             : :(09)00:33:10:23800:37:06.682                             : :(10)00:37:06:68200:41:30.988                             : :(11)00:41:30:98800:45:47.369                             : :(12)00:45:47:36900:51:57.781                             : :(13)00:51:57:78100:56:01.775                             : :(14)00:56:01:77501:00:56.319                             : :(15)01:00:56:31901:03:50.535                             : :(16)01:03:50:53501:07:29.253                             : :(17)01:07:29:25301:11:19.191                             : :(18)01:11:19:19101:15:32.819                             : :(19)01:15:32:81901:20:15.060                             : :(20)01:20:15:06001:27:47.470                             : :(21)01:27:47:47001:30:17.286                             : :(22)01:30:17:28601:34:04.013                             : :(23)01:34:04:01301:38:29.904                             : :(24)01:38:29:90401:40:52.546                             : :(25)01:40:52:54601:44:13.121                             : :(26)01:44:13:12101:51:51.871                             : :(27)01:51:51:87101:56:51.212                             : :(28)01:56:51:21202:01:02.713                             : :(29)02:01:02:71302:04:05.146                             : :(30)02:04:05:146

piratbit.ru

Испытание огнём через торрент в хорошем качестве бесплатно HDRip-AVC

piratbit.ru

Раздают: 2 [ 0 KB/s ]
Размер: 2.18 GB | Добавлен: 1 год 11 мес. назад | Торрент скачан:1024 раза
Реклама Дарим 3000 рублей за регистрацию, не упусти свой шанс получить шикарный бонус!!!

19-11-2015 22:25 Бегущий в лабиринте: Испытание огнём Скачать торрент  

Бегущий в лабиринте: Испытание огнём / Maze Runner: The Scorch Trials Год выпуска: 2015Производство: СШАЖанр: фантастика, боевик, триллерПродолжительность: 02:11:42Перевод: Профессиональный (полное дублирование) [Лицензия]Субтитры: нет

Режиссер: Уэс БоллПродюсеры: Марти Бауэн, Вик Годфри, Эллен Голдсмит-Вейн

Актеры: Дилан О’Брайен, Кая Скоделарио, Натали Эммануэль, Томас Сэнгстер, Кэтрин МакНамара, Эйдан Гиллен, Роза Салазар, Джанкарло Эспозито, Патришия Кларксон, Барри Пеппер Лабиринт пройден, но Томасу, Терезе, Минхо и прочим глэйдерам не приходится расслабляться. Таинственное руководство ПОРОКА — секретной организации, устроившей гонки на выживание — назначает ребятам новые, смертельно опасные испытания. На сей раз их ждет переход по раскаленной пустыне и встреча с жертвами неизлечимой болезни, которые отличаются буйным нравом и непредсказуемым поведением.

Качество: HDRip-AVC Формат: MKVВидео кодек: AVCАудио кодек: AC3Видео: AVC at 1982 Кбит/сек, 1024 x 422 at 23.976 fpsАудио: AC3, 384 kb/s, 6 каналов, 48 Кгц • Rus

Автор рипа -- • Tarkin

Формат : MatroskaВерсия формата : Version 4 / Version 2Размер файла : 2,18 ГбайтПродолжительность : 2 ч. 11 м.Общий поток : 2368 Кбит/секДата кодирования : UTC 2015-11-19 21:58:59Программа кодирования : mkvmerge v8.3.0 ('Over the Horizon') 32bitБиблиотека кодирования : libebml v1.3.1 + libmatroska v1.4.2DURATION : 02:11:42.816000000NUMBER_OF_FRAMES : 246963NUMBER_OF_BYTES : 379335168_STATISTICS_WRITING_APP : mkvmerge v8.3.0 ('Over the Horizon') 32bit_STATISTICS_WRITING_DATE_UTC : 2015-11-19 21:58:59_STATISTICS_TAGS : BPS DURATION NUMBER_OF_FRAMES NUMBER_OF_BYTES

ВидеоИдентификатор : 1Формат : AVCФормат/Информация : Advanced Video CodecПрофиль формата : [email protected]Параметр CABAC формата : ДаПараметр ReFrames формата : 8 кадровИдентификатор кодека : V_MPEG4/ISO/AVCПродолжительность : 2 ч. 11 м.Битрейт : 1982 Кбит/секШирина : 1024 пикселяВысота : 422 пикселяСоотношение сторон : 2,40:1Режим частоты кадров : ПостоянныйЧастота кадров : 23,976 кадра/секЦветовое пространство : YUVСубдискретизация насыщенности : 4:2:0Битовая глубина : 8 битТип развёртки : ПрогрессивнаяБит/(Пиксели*Кадры) : 0.191Размер потока : 1,78 Гбайт (82%)Библиотека кодирования : x264 core 119 r2106 07efeb4Настройки программы : cabac=1 / ref=8 / deblock=1:-2:-2 / analyse=0x3:0x113 / me=umh / subme=9 / psy=1 / psy_rd=1.00:0.20 / mixed_ref=1 / me_range=24 / chroma_me=1 / trellis=2 / 8x8dct=1 / cqm=0 / deadzone=21,11 / fast_pskip=0 / chroma_qp_offset=-3 / threads=6 / sliced_threads=0 / nr=0 / decimate=0 / interlaced=0 / bluray_compat=0 / constrained_intra=0 / bframes=3 / b_pyramid=2 / b_adapt=2 / b_bias=0 / direct=3 / weightb=1 / open_gop=0 / weightp=2 / keyint=240 / keyint_min=23 / scenecut=40 / intra_refresh=0 / rc_lookahead=60 / rc=2pass / mbtree=1 / bitrate=1982 / ratetol=1.0 / qcomp=0.60 / qpmin=0 / qpmax=69 / qpstep=4 / cplxblur=20.0 / qblur=0.5 / vbv_maxrate=50000 / vbv_bufsize=50000 / nal_hrd=none / ip_ratio=1.40 / aq=1:1.00Default : ДаForced : Нет

АудиоИдентификатор : 2Формат : AC-3Формат/Информация : Audio Coding 3Расширение режима : CM (complete main)Параметр Endianness формата : BigИдентификатор кодека : A_AC3Продолжительность : 2 ч. 11 м.Вид битрейта : ПостоянныйБитрейт : 384 Кбит/секКаналы : 6 каналовРасположение каналов : Front: L C R, Side: L R, LFEЧастота : 48,0 КГцМетод сжатия : С потерямиРазмер потока : 362 Мбайт (16%)Язык : RussianDefault : ДаForced : Нет[/code]

Скачать Бегущий в лабиринте: Испытание огнём через торрент http://i73.fastpic.ru/big/2015/1103/2f/59bbe83d4a27e71ddeab4ea04b0bd22f.png Скачать фильм Бегущий в лабиринте: Испытание огнём через торрент бесплантно в хорошем качестве Год выпуска: 2015Производство: СШАЖанр: фантастика, боевик, триллерПродолжительность: 02:11:42Перевод: Профессиональный (полное ... 2015-11-20 06:48 9.3 10 27

Loading...

Loading...

% Раздел Тема Автор DL S | L
Фильмы (BDRip, HDrip-AVC) (48-60 fps) [ 3.66 GB ] Бегущий в лабиринте: Испытание огнём / Maze Runner: The Scorch Trials [2015 BDRip-AVC 60 fps от R.G. Resident] - [] -Lexx- Скачать
Фильмы 2015 [DVDrip, WEB-DLRip, HDrip] [ 1.46 GB ] Бегущий в лабиринте: Испытание огнём / Maze Runner: The Scorch Trials [2015 BDRip] DUB Twi7ter Скачать
Фильмы (DVD фильмы) [ 7.48 GB ] Бегущий в лабиринте: Испытание огнём / Maze Runner: The Scorch Trials [2015 DVD9] R5 voovaz Скачать
Фильмы [HD 720p, 1080p] (Хороший звук DUB, MVO) [ 7.73 GB ] Бегущий в лабиринте: Испытание огнём / Maze Runner: The Scorch Trials [2015 BDRip 1080p от еnvy / NNNB] DUB еnvy Скачать
Фильмы 2015 [DVDrip, WEB-DLRip, HDrip] [ 1.46 GB ] Бегущий в лабиринте: Испытание огнём / Maze Runner: The Scorch Trials [2015 BDRip-AVC от sokol_ok] DUB sokol_ok Скачать
Фильмы 2015 [DVDrip, WEB-DLRip, HDrip] [ 2.91 GB ] Бегущий в лабиринте: Испытание огнём / Maze Runner: The Scorch Trials [2015 BDRip-AVC] DUB potroks Скачать
Фильмы 2015 [DVDrip, WEB-DLRip, HDrip] [ 2.05 GB ] Бегущий в лабиринте: Испытание огнём / Maze Runner: The Scorch Trials [2015 HDRip [] MihailHD Скачать

Последний раз редактировалось: killermax2013 (2015-11-20 06:48), всего редактировалось 1 раз

Рекламный пират

20-11-2015 01:15 Бегущий в лабиринте: Испытание огнём Скачать торрент  

В этой раздаче первый фильм бегущего в лабиринте...

20-11-2015 04:16 Бегущий в лабиринте: Испытание огнём Скачать торрент  

nidom писал(а):

В этой раздаче первый фильм бегущего в лабиринте...

20-11-2015 06:28 Бегущий в лабиринте: Испытание огнём Скачать торрент  

действительно , автор   учитесь общаться!, выдал diletant

20-11-2015 06:49 Бегущий в лабиринте: Испытание огнём Скачать торрент  

Торент перезалит на правильный. Скачал 2 части и по ошибке не тот торент залил, извиняйте :pleasantry:

20-11-2015 08:52 Бегущий в лабиринте: Испытание огнём Скачать торрент  

Krowkiller писал(а):

действительно , автор д...л

То, что тебя за 3.5 года на сайте не отучили от хамства, упущение модераторов. Но, по жизни, неужели не понятно, что если тебе кто то предлагает что-нибудь бесплатно, то плевать в этого человека, по меньшей мере, некрасиво.

20-11-2015 09:27 Бегущий в лабиринте: Испытание огнём Скачать торрент  

Спасиб, давно ждал!))

20-11-2015 09:32 Бегущий в лабиринте: Испытание огнём Скачать торрент  

украйнский язык будет чипушило?   оскорбление, выдал DEVI

20-11-2015 10:44 Бегущий в лабиринте: Испытание огнём Скачать торрент  

Спасибо, 1 часть понравилась, посмотрим и 2 =)

Pекламный агент PB

20-11-2015 14:09 Бегущий в лабиринте: Испытание огнём Скачать торрент  

20-11-2015 16:28 Бегущий в лабиринте: Испытание огнём Скачать торрент  

killermax2013 писал(а):

кутарберды,

У него в жопе член, а во рту банан, он думать не может, только пишет)))

20-11-2015 20:55 Бегущий в лабиринте: Испытание огнём Скачать торрент  

Скачал 1 часть))) Прикол что ли?

Дорогой пользователь! Огромная просьба, поблагодарите релизера, оцените раздачу и оставьте свои комментарий, если Вы скачали Бегущий в лабиринте: Испытание огнём через торрент бесплатно! Внесите свою лепту в развитие PiratBit!

Комментировать посты могут только пользователи прошедшие не сложную регистрацию

Бегущий в лабиринте: Испытание огнём через торрент Скачать бесплатно Бегущий в лабиринте: Испытание огнём Бегущий в лабиринте: Испытание огнём скачать торрент Бегущий в лабиринте: Испытание огнём смотреть онлайн Cкачать фильм Бегущий в лабиринте: Испытание огнём бесплатно Бегущий в лабиринте: Испытание огнём скачать торрент в хорошем качестве Бегущий в лабиринте: Испытание огнём смотреть онлайн бесплатно в хорошем качестве

Вы не можете начинать темыВы не можете отвечать на сообщенияВы не можете редактировать свои сообщенияВы не можете удалять свои сообщенияВы не можете голосовать в опросахВы не можете прикреплять файлы к сообщениямВы можете скачивать файлы

Испытание огнём через торрент в хорошем качестве бесплатно HDRip by Dean24

piratbit.ru

Раздают: 2 [ 0 KB/s ]
Размер: 2.19 GB | Добавлен: 1 год 11 мес. назад | Торрент скачан:698 раз
Реклама Дарим 3000 рублей за регистрацию, не упусти свой шанс получить шикарный бонус!!!

20-11-2015 20:38 Бегущий в лабиринте: Испытание огнём Скачать торрент  

Бегущий в лабиринте: Испытание огнём / Maze Runner: The Scorch Trials

Год выпуска: 2015Страна: СШАЖанр: фантастика, боевик, триллерПродолжительность: 131 мин. / 02:11Перевод: Дубляж | ЛицензияСубтитры: Нет

Режиссер: Уэс БоллПродюссер: Марти Бауэн, Вик Годфри, Эллен Голдсмит-ВейнСценарий: Т.С. Наулин, Джеймс Дашнер

Бюджет: $61 000 000Премьера в мире: 1 сентября 2015

В ролях: Дилан О’Брайен, Кая Скоделарио, Ки Хонг Ли, Томас Сэнгстер, Декстер Дарден, Алекс Дж. Флорес, Джейкоб Лофленд, Роза Салазар, Джанкарло Эспозито, Патришия Кларксон

Описание: Лабиринт пройден, но Томасу, Терезе, Минхо и прочим глэйдерам не приходится расслабляться. Таинственное руководство ПОРОКА — секретной организации, устроившей гонки на выживание — назначает ребятам новые, смертельно опасные испытания. На сей раз их ждет переход по раскаленной пустыне и встреча с жертвами неизлечимой болезни, которые отличаются буйным нравом и непредсказуемым поведением.

Качество: HDRip | BDRip 720pФормат: AVIВидео кодек: XviDАудио кодек: AC3Видео: 720x304 (2.37:1), 23.976 fps, XviD build 50 ~1984 kbps avg, 0.38 bit/pixelАудио: 48 kHz, AC3 Dolby Digital, 3/2 (L,C,R,l,r) + LFE ch, ~384 kbps

Автор рипа: Dean24

| ОбщееПолное имя : D:\Мои документы\Фильмы\Сайт\Maze.Runner.The.Scorch.Trials.HDRip.aviФормат : AVIФормат/Информация : Audio Video InterleaveПрофиль формата : OpenDMLРазмер файла : 2,19 ГбайтПродолжительность : 2 ч. 11 м.Общий поток : 2375 Кбит/секПрограмма кодирования : VirtualDubMod 1.5.10.3 | www.virtualdub-fr.org || (build 2550/release)Библиотека кодирования : VirtualDubMod build 2550/release

ВидеоИдентификатор : 0Формат : MPEG-4 VisualПрофиль формата : Advanced [email protected]Параметр BVOP формата : 3Параметр QPel формата : НетПараметр GMC формата : Без точки переходаПараметр матрицы формата : Default (H.263)Идентификатор кодека : XVIDИдентификатор кодека/Подсказка : XviDПродолжительность : 2 ч. 11 м.Битрейт : 1980 Кбит/секШирина : 720 пикселейВысота : 304 пикселяСоотношение сторон : 2,35:1Частота кадров : 23,976 кадра/секЦветовое пространство : YUVСубдискретизация насыщенности : 4:2:0Битовая глубина : 8 битТип развёртки : ПрогрессивнаяМетод сжатия : С потерямиБит/(Пиксели*Кадры) : 0.377Размер потока : 1,82 Гбайт (83%)Библиотека кодирования : XviD 1.2.1 (UTC 2008-12-04)

АудиоИдентификатор : 1Формат : AC-3Формат/Информация : Audio Coding 3Расширение режима : CM (complete main)Параметр Endianness формата : BigИдентификатор кодека : 2000Продолжительность : 2 ч. 11 м.Вид битрейта : ПостоянныйБитрейт : 384 Кбит/секКаналы : 6 каналовРасположение каналов : Front: L C R, Side: L R, LFEЧастота : 48,0 КГцБитовая глубина : 16 битМетод сжатия : С потерямиРазмер потока : 362 Мбайт (16%)Выравнивание : Разделение по промежуткамПродолжительность промежутка : 42 мс. (1,00 видеокадр)Время предзагрузки промежутка : 500 мс.

Скачать Бегущий в лабиринте: Испытание огнём через торрент http://i75.fastpic.ru/big/2015/1120/5b/3fcbbf1958dd164a674991f7dac8765b.png Скачать фильм Бегущий в лабиринте: Испытание огнём через торрент бесплантно в хорошем качестве Описание: Лабиринт пройден, но Томасу, Терезе, Минхо и прочим глэйдерам не приходится расслабляться. Таинственное руководство ПОРОКА — ... 2015-11-20 20:38 9.8 10 15

Loading...

Loading...

% Раздел Тема Автор DL S | L
Фильмы (BDRip, HDrip-AVC) (48-60 fps) [ 3.66 GB ] Бегущий в лабиринте: Испытание огнём / Maze Runner: The Scorch Trials [2015 BDRip-AVC 60 fps от R.G. Resident] - [] -Lexx- Скачать
Фильмы 2015 [DVDrip, WEB-DLRip, HDrip] [ 1.46 GB ] Бегущий в лабиринте: Испытание огнём / Maze Runner: The Scorch Trials [2015 BDRip] DUB Twi7ter Скачать
Фильмы (DVD фильмы) [ 7.48 GB ] Бегущий в лабиринте: Испытание огнём / Maze Runner: The Scorch Trials [2015 DVD9] R5 voovaz Скачать
Фильмы [HD 720p, 1080p] (Хороший звук DUB, MVO) [ 7.73 GB ] Бегущий в лабиринте: Испытание огнём / Maze Runner: The Scorch Trials [2015 BDRip 1080p от еnvy / NNNB] DUB еnvy Скачать
Фильмы 2015 [DVDrip, WEB-DLRip, HDrip] [ 1.46 GB ] Бегущий в лабиринте: Испытание огнём / Maze Runner: The Scorch Trials [2015 BDRip-AVC от sokol_ok] DUB sokol_ok Скачать
Фильмы 2015 [DVDrip, WEB-DLRip, HDrip] [ 2.91 GB ] Бегущий в лабиринте: Испытание огнём / Maze Runner: The Scorch Trials [2015 BDRip-AVC] DUB potroks Скачать
Фильмы 2015 [DVDrip, WEB-DLRip, HDrip] [ 2.05 GB ] Бегущий в лабиринте: Испытание огнём / Maze Runner: The Scorch Trials [2015 HDRip [] MihailHD Скачать

Рекламный пират

21-11-2015 03:07 Бегущий в лабиринте: Испытание огнём Скачать торрент  

не уходите с раздачи!!! 70,8%

Дорогой пользователь! Огромная просьба, поблагодарите релизера, оцените раздачу и оставьте свои комментарий, если Вы скачали Бегущий в лабиринте: Испытание огнём через торрент бесплатно! Внесите свою лепту в развитие PiratBit!

Комментировать посты могут только пользователи прошедшие не сложную регистрацию

Бегущий в лабиринте: Испытание огнём через торрент Скачать бесплатно Бегущий в лабиринте: Испытание огнём Бегущий в лабиринте: Испытание огнём скачать торрент Бегущий в лабиринте: Испытание огнём смотреть онлайн Cкачать фильм Бегущий в лабиринте: Испытание огнём бесплатно Бегущий в лабиринте: Испытание огнём скачать торрент в хорошем качестве Бегущий в лабиринте: Испытание огнём смотреть онлайн бесплатно в хорошем качестве

Вы не можете начинать темыВы не можете отвечать на сообщенияВы не можете редактировать свои сообщенияВы не можете удалять свои сообщенияВы не можете голосовать в опросахВы не можете прикреплять файлы к сообщениямВы можете скачивать файлы

Испытание огнём через торрент в хорошем качестве бесплатно 720p

GeneralUnique ID : 227774852436151363084436401474597054616 (0xAB5BD74478472C2780A82647E9806898)Complete name : /media/sdb1/home/immortalseed/Torrents/Begus41y.v.Laber1nte.2.2015.D.BDRip.720p.mkvFormat : MatroskaFormat version : Version 2File size : 6.97 GiBDuration : 2h 11mnOverall bit rate : 7 576 KbpsEncoded date : UTC 2015-11-19 13:45:26Writing application : mkvmerge v8.3.0 ('Over the Horizon') 64bitWriting library : libebml v1.3.1 + libmatroska v1.4.2DURATION : 02:11:42.912000000NUMBER_OF_FRAMES : 246966NUMBER_OF_BYTES : 442563072_STATISTICS_WRITING_APP : mkvmerge v8.3.0 ('Over the Horizon') 64bit_STATISTICS_WRITING_DATE_UTC : 2015-11-19 13:45:26_STATISTICS_TAGS : BPS DURATION NUMBER_OF_FRAMES NUMBER_OF_BYTES

VideoID : 1Format : AVCFormat/Info : Advanced Video CodecFormat profile : [email protected] settings, CABAC : YesFormat settings, ReFrames : 5 framesCodec ID : V_MPEG4/ISO/AVCDuration : 2h 11mnBit rate : 5 618 KbpsWidth : 1 280 pixelsHeight : 536 pixelsDisplay aspect ratio : 2.40:1Frame rate mode : ConstantFrame rate : 23.976 fpsColor space : YUVChroma subsampling : 4:2:0Bit depth : 8 bitsScan type : ProgressiveBits/(Pixel*Frame) : 0.342Stream size : 5.03 GiB (72%)Writing library : x264 core 148 r2638 7599210Encoding settings : cabac=1 / ref=5 / deblock=1:0:0 / analyse=0x3:0x133 / me=umh / subme=7 / psy=1 / psy_rd=1.00:0.00 / mixed_ref=1 / me_range=16 / chroma_me=1 / trellis=1 / 8x8dct=1 / cqm=0 / deadzone=21,11 / fast_pskip=0 / chroma_qp_offset=-2 / threads=17 / lookahead_threads=2 / sliced_threads=0 / nr=0 / decimate=1 / interlaced=0 / bluray_compat=0 / constrained_intra=0 / bframes=3 / b_pyramid=2 / b_adapt=1 / b_bias=0 / direct=1 / weightb=1 / open_gop=0 / weightp=2 / keyint=250 / keyint_min=23 / scenecut=40 / intra_refresh=0 / rc_lookahead=40 / rc=2pass / mbtree=1 / bitrate=5618 / ratetol=1.0 / qcomp=0.60 / qpmin=0 / qpmax=69 / qpstep=4 / cplxblur=20.0 / qblur=0.5 / ip_ratio=1.40 / aq=1:1.00Language : EnglishDefault : YesForced : NoDURATION : 02:11:42.825000000NUMBER_OF_FRAMES : 189478NUMBER_OF_BYTES : 5548006837_STATISTICS_WRITING_APP : mkvmerge v8.3.0 ('Over the Horizon') 64bit_STATISTICS_WRITING_DATE_UTC : 2015-11-19 13:45:26_STATISTICS_TAGS : BPS DURATION NUMBER_OF_FRAMES NUMBER_OF_BYTES

Audio #1ID : 2Format : AC-3Format/Info : Audio Coding 3Mode extension : CM (complete main)Format settings, Endianness : BigCodec ID : A_AC3Duration : 2h 11mnBit rate mode : ConstantBit rate : 448 KbpsChannel(s) : 6 channelsChannel positions : Front: L C R, Side: L R, LFESampling rate : 48.0 KHzBit depth : 16 bitsCompression mode : LossyStream size : 422 MiB (6%)Language : RussianDefault : YesForced : No

Audio #2ID : 3Format : DTSFormat/Info : Digital Theater SystemsFormat profile : ESMode : 16Format settings, Endianness : BigCodec ID : A_DTSDuration : 2h 11mnBit rate mode : ConstantBit rate : 1 509 KbpsChannel(s) : 6 channelsChannel positions : Front: L C R, Side: L R, LFESampling rate : 48.0 KHzBit depth : 24 bitsCompression mode : LossyStream size : 1.39 GiB (20%)Language : EnglishDefault : NoForced : No

Menu00:00:00.000 : en:00:00:00.00000:04:05.120 : en:00:04:05.12000:05:59.818 : en:00:05:59.81800:09:08.798 : en:00:09:08.79800:11:55.840 : en:00:11:55.84000:17:32.677 : en:00:17:32.67700:23:21.191 : en:00:23:21.19100:27:36.029 : en:00:27:36.02900:33:10.238 : en:00:33:10.23800:37:06.683 : en:00:37:06.68300:41:30.988 : en:00:41:30.98800:45:47.370 : en:00:45:47.37000:51:57.781 : en:00:51:57.78100:56:01.775 : en:00:56:01.77501:00:56.319 : en:01:00:56.31901:03:50.535 : en:01:03:50.53501:07:29.254 : en:01:07:29.25401:11:19.192 : en:01:11:19.19201:15:32.820 : en:01:15:32.82001:20:15.060 : en:01:20:15.06001:27:47.471 : en:01:27:47.47101:30:17.287 : en:01:30:17.28701:34:04.013 : en:01:34:04.01301:38:29.904 : en:01:38:29.90401:40:52.546 : en:01:40:52.54601:44:13.122 : en:01:44:13.12201:51:51.872 : en:01:51:51.87201:56:51.213 : en:01:56:51.21302:01:02.714 : en:02:01:02.71402:04:05.146 : en:02:04:05.146

piratbit.ru


Смотрите также