Хижина в лесу скачать торрент в хорошем качестве


Скачать фильм Хижина в лесу через торрент в хорошем качестве бесплатно BDRip-AVC

GeneralUnique ID : 211770131728382516513177431598899661920 (0x9F51719D063ECFB3BE86E2DD483C0C60)Complete name : D:\_uTorrent_\Hizhina.v.lesu.2011.x264.BDRip.AVC.MediaClub.mkvFormat : MatroskaFormat version : Version 4 / Version 2File size : 3.08 GiBDuration : 1h 35mnOverall bit rate : 4 634 KbpsMovie name : = MediaClub = rip by krakatuqEncoded date : UTC 2015-02-19 13:46:24Writing application : mkvmerge v6.6.0 ('The Edge Of The In Between') built on Dec 1 2013 17:55:00Writing library : libebml v1.3.0 + libmatroska v1.4.1

VideoID : 1Format : AVCFormat/Info : Advanced Video CodecFormat profile : [email protected] settings, CABAC : YesFormat settings, ReFrames : 10 framesCodec ID : V_MPEG4/ISO/AVCDuration : 1h 35mnBit rate : 1 406 KbpsNominal bit rate : 1 500 KbpsWidth : 1 024 pixelsHeight : 426 pixelsDisplay aspect ratio : 2.40:1Frame rate : 23.976 fpsColor space : YUVChroma subsampling : 4:2:0Bit depth : 8 bitsScan type : ProgressiveBits/(Pixel*Frame) : 0.134Stream size : 956 MiB (30%)Title : Hizhina.v.lesu.2011.x264.BDRip.AVC.MediaClubWriting library : x264 core 142 r2409+42 04be48a tMod [[email protected]:2:0 X86]Encoding settings : cabac=1 / ref=10 / deblock=1:-3:-2 / analyse=0x3:0x133 / me=umh / subme=11 / psy=1 / fade_compensate=0.00 / psy_rd=1.00:0.15 / mixed_ref=1 / me_range=32 / chroma_me=1 / trellis=2 / 8x8dct=1 / cqm=0 / deadzone=21,11 / fast_pskip=0 / chroma_qp_offset=-3 / threads=3 / lookahead_threads=1 / sliced_threads=0 / nr=0 / decimate=0 / interlaced=0 / bluray_compat=0 / constrained_intra=0 / fgo=0 / bframes=8 / b_pyramid=2 / b_adapt=2 / b_bias=0 / direct=3 / weightb=1 / open_gop=0 / weightp=2 / keyint=240 / keyint_min=23 / scenecut=40 / intra_refresh=0 / rc=2pass / mbtree=0 / bitrate=1500 / ratetol=1.0 / qcomp=0.60 / qpmin=0:0:0 / qpmax=69:69:69 / qpstep=4 / cplxblur=20.0 / qblur=0.5 / ip_ratio=1.40 / pb_ratio=1.30 / aq=1:1.00 / aq-sensitivity=10.00 / aq-factor=1.00:1.00:1.00 / aq2=0 / aq3=0Language : EnglishDefault : YesForced : No

Audio #1ID : 2Format : AC-3Format/Info : Audio Coding 3Mode extension : CM (complete main)Codec ID : A_AC3Duration : 1h 35mnBit rate mode : ConstantBit rate : 448 KbpsChannel(s) : 6 channelsChannel positions : Front: L C R, Side: L R, LFESampling rate : 48.0 KHzBit depth : 16 bitsCompression mode : LossyStream size : 305 MiB (10%)Title : TRACK_01_DUB_RUSLanguage : RussianDefault : YesForced : Yes

Audio #2ID : 3Format : AC-3Format/Info : Audio Coding 3Mode extension : CM (complete main)Codec ID : A_AC3Duration : 1h 35mnBit rate mode : ConstantBit rate : 448 KbpsChannel(s) : 6 channelsChannel positions : Front: L C R, Side: L R, LFESampling rate : 48.0 KHzBit depth : 16 bitsCompression mode : LossyStream size : 305 MiB (10%)Title : TRACK_02_AVO_RUS_KARPOVSKIJLanguage : RussianDefault : NoForced : No

Audio #3ID : 4Format : AC-3Format/Info : Audio Coding 3Mode extension : CM (complete main)Codec ID : A_AC3Duration : 1h 35mnBit rate mode : ConstantBit rate : 448 KbpsChannel(s) : 6 channelsChannel positions : Front: L C R, Side: L R, LFESampling rate : 48.0 KHzBit depth : 16 bitsCompression mode : LossyStream size : 305 MiB (10%)Title : TRACK_03_AVO_RUS_NEMAHOVLanguage : RussianDefault : NoForced : No

Audio #4ID : 5Format : AC-3Format/Info : Audio Coding 3Mode extension : CM (complete main)Codec ID : A_AC3Duration : 1h 35mnBit rate mode : ConstantBit rate : 448 KbpsChannel(s) : 6 channelsChannel positions : Front: L C R, Side: L R, LFESampling rate : 48.0 KHzBit depth : 16 bitsCompression mode : LossyStream size : 305 MiB (10%)Title : TRACK_04_VO_RUS_zamezLanguage : RussianDefault : NoForced : No

Audio #5ID : 6Format : AC-3Format/Info : Audio Coding 3Mode extension : CM (complete main)Codec ID : A_AC3Duration : 1h 35mnBit rate mode : ConstantBit rate : 448 KbpsChannel(s) : 6 channelsChannel positions : Front: L C R, Side: L R, LFESampling rate : 48.0 KHzBit depth : 16 bitsCompression mode : LossyStream size : 305 MiB (10%)Title : TRACK_05_VO_RUS_Doctor JokerLanguage : RussianDefault : NoForced : No

Audio #6ID : 7Format : AC-3Format/Info : Audio Coding 3Mode extension : CM (complete main)Codec ID : A_AC3Duration : 1h 35mnBit rate mode : ConstantBit rate : 448 KbpsChannel(s) : 6 channelsChannel positions : Front: L C R, Side: L R, LFESampling rate : 48.0 KHzBit depth : 16 bitsCompression mode : LossyStream size : 305 MiB (10%)Title : TRACK_06_MVO_UKR_ОмикронLanguage : UkrainianDefault : NoForced : No

Audio #7ID : 8Format : AC-3Format/Info : Audio Coding 3Mode extension : CM (complete main)Codec ID : A_AC3Duration : 1h 35mnBit rate mode : ConstantBit rate : 448 KbpsChannel(s) : 6 channelsChannel positions : Front: L C R, Side: L R, LFESampling rate : 48.0 KHzBit depth : 16 bitsCompression mode : LossyStream size : 305 MiB (10%)Title : TRACK_07_ORIGINAL_ENGLanguage : EnglishDefault : NoForced : No

Text #1ID : 9Format : UTF-8Codec ID : S_TEXT/UTF8Codec ID/Info : UTF-8 Plain TextTitle : TEXT_01_SUB_RUSLanguage : RussianDefault : NoForced : No

Text #2ID : 10Format : UTF-8Codec ID : S_TEXT/UTF8Codec ID/Info : UTF-8 Plain TextTitle : TEXT_02_SUB_ENGLanguage : EnglishDefault : NoForced : No

Menu00:00:00.000 : en:00:00:00.00000:05:41.966 : en:00:05:41.96600:12:32.333 : en:00:12:32.33300:18:39.617 : en:00:18:39.61700:24:22.042 : en:00:24:22.04200:29:26.681 : en:00:29:26.68100:35:02.224 : en:00:35:02.22400:41:39.704 : en:00:41:39.70400:46:43.300 : en:00:46:43.30000:50:57.344 : en:00:50:57.34400:54:44.239 : en:00:54:44.23901:06:48.711 : en:01:06:48.71101:12:51.240 : en:01:12:51.24001:16:46.518 : en:01:16:46.51801:21:33.595 : en:01:21:33.59501:26:59.087 : en:01:26:59.087

[/code]

piratbit.ru

Скачать фильм Хижина в лесу через торрент в хорошем качестве бесплатно HDRip

piratbit.ru

Раздают: 5 [ 0 KB/s ]
Размер: 1.46 GB | Добавлен: 7 мес. назад | Торрент скачан:188 раз
Реклама Дарим 3000 рублей за регистрацию, не упусти свой шанс получить шикарный бонус!!!

18-09-2012 14:12 Хижина в лесу Скачать торрент  

Хижина в лесу / The Cabin in the WoodsГод выпуска: 2011Страна: СШАЖанр: ужасы, триллерПродолжительность: 01:35:00Перевод: Профессиональный (полное дублирование)Тип релиза: Лицензия

Режиссер: Дрю Годдард

В ролях: Ричард Дженкинс, Брэдли Уитфорд, Джесси Уильямс, Крис Хемсворт, Фрэн Кранц, Кристин Нора Коннолли, Анна Хатчисон, Брайан Дж. Уайт, Эми Эккер, Джоделль Ферланд

Описание: Группе друзей, молодым клеркам, предстоит провести ночь в лесу в стенах причудливого дома. За закрытыми дверями происходит что-то странное и ужасное. Молодые люди даже не успевают понять, что именно им угрожает, но единственное, что они знают — что время быстро уходит.

Качество: HDRipФормат: AVIВидео кодек: XviDАудио кодек: AC3Видео: 720x304 (2.37:1), 23.976 fps, XviD build 64 ~1707 kbps avg, 0.33 bit/pixelАудио: 48 kHz, AC3 Dolby Digital, 3/2 (L,C,R,l,r) + LFE ch, ~384 kbps

Скачать Хижина в лесу через торрент http://i78.fastpic.ru/big/2016/0908/0b/2b9446e2ab27265e5c2381d4109bf60b.png Скачать фильм Хижина в лесу через торрент бесплантно в хорошем качестве Описание: Группе друзей, молодым клеркам, предстоит провести ночь в лесу в стенах причудливого дома. За закрытыми дверями происходит что-то ... 2017-03-25 16:31 9.5 10 28

Loading...

Loading...

% Раздел Тема Автор DL S | L
Фильмы [HD 720p, 1080p] (Хороший звук DUB, MVO) [ 5.76 GB ] Хижина в лесу / The Cabin in the Woods [2011 BDRip 1080p] DUB [] bober100 Скачать
Фильмы [HD 720p, 1080p] (Хороший звук DUB, MVO) [ 6.38 GB ] Хижина в лесу / The Cabin in the Woods [2011 BDRip 720p] DUB + AVO + VO potroks Скачать
Фильмы [HD 720p, 1080p] (Хороший звук DUB, MVO) [ 4.62 GB ] Хижина в лесу / The Cabin in the Woods [2011 BDRip ] DUB+Original -=Cherry=- Скачать
Фильмы 2011 [ 3.08 GB ] Хижина в лесу / The Cabin in the Woods [2011 BDRip-AVC] DUB _KaisiK_ Скачать
Фильмы [HD 720p, 1080p] (Хороший звук DUB, MVO) [ 13.46 GB ] Хижина в лесу / The Cabin in the Woods [2011 BDRip 1080p] DUB + VO + AVO + VO + Orig + Sub Зайчина Скачать
Фильмы [HD 720p, 1080p] (Хороший звук DUB, MVO) [ 7.13 GB ] Хижина в лесу / The Cabin in the Woods [2011 BDRip 720p] [DUB MVO AVO VO] Kavasar Скачать
Фильмы 2011 [ 2.16 GB ] Хижина в лесу / The Cabin in the Woods [2011 BDRip-AVC DUB + Оригинал] slaventi-69 Скачать

Последний раз редактировалось: SD (2012-09-19 06:38), всего редактировалось 6 раз(а)

Рекламный пират

18-09-2012 14:48 Хижина в лесу Скачать торрент  

Дождались,Спасибо

18-09-2012 14:57 Хижина в лесу Скачать торрент  

18-09-2012 14:58 Хижина в лесу Скачать торрент  

Чего, хороший фильм?

18-09-2012 15:35 Хижина в лесу Скачать торрент  

18-09-2012 15:38 Хижина в лесу Скачать торрент  

фильм вроде хорош, надо на досуге глянуть

19-09-2012 02:15 Хижина в лесу Скачать торрент  

домик прям из зловещих мертвецов

19-09-2012 03:11 Хижина в лесу Скачать торрент  

Люди с больной фантазией снимали этот фильм.

19-09-2012 03:54 Хижина в лесу Скачать торрент  

Цитата:

Перевод: Дубляж Чистый

А на главной странице HDRip Лиц. это как понять? Зачем людей вводить в заблуждение?

Pекламный агент PB

19-09-2012 03:58 Хижина в лесу Скачать торрент  

win1806 писал(а):

Цитата:

Перевод: Дубляж Чистый

А на главной странице HDRip Лиц. это как понять? Зачем людей вводить в заблуждение?И кого же ввели в заблуждение? Это лицензия, что вам еще нужно?

19-09-2012 04:12 Хижина в лесу Скачать торрент  

PiratMan писал(а):

win1806 писал(а):

Цитата:

Перевод: Дубляж Чистый

А на главной странице HDRip Лиц. это как понять? Зачем людей вводить в заблуждение?И кого же ввели в заблуждение? Это лицензия, что вам еще нужно?Лицензия

Цитата:

Перевод: Дубляж, ЛицензияТип релиза: Лицензия

Ну как-то так!

19-09-2012 05:16 Хижина в лесу Скачать торрент  

19-09-2012 06:16 Хижина в лесу Скачать торрент  

смотрел в хреновом качестве теперь можно и в норм посмотреть

19-09-2012 06:25 Хижина в лесу Скачать торрент  

Который был релиз это Чистый звук в рипе были недочеты.Сейчас торрент файл обновлен, на Лицензию.

19-09-2012 06:29 Хижина в лесу Скачать торрент  

клевый фильм! особенно концовка - фарш ))

19-09-2012 06:44 Хижина в лесу Скачать торрент  

гениально , почему раньше никто не догадался так снять

19-09-2012 07:07 Хижина в лесу Скачать торрент  

Pекламный агент PB

19-09-2012 07:23 Хижина в лесу Скачать торрент  

Спасибо, засмотрим.

19-09-2012 08:11 Хижина в лесу Скачать торрент  

Как они в это затянули Сигурни?

19-09-2012 09:30 Хижина в лесу Скачать торрент  

бред какой то...

19-09-2012 09:48 Хижина в лесу Скачать торрент  

Пожалуй посмотрю

19-09-2012 09:55 Хижина в лесу Скачать торрент  

Настоящее название "Домик в деревне: дачные байки" или "Как я провел лето" :doubledown:

19-09-2012 10:50 Хижина в лесу Скачать торрент  

lunohod29 писал(а):

Чего, хороший фильм?

гамно!!!!

19-09-2012 11:05 Хижина в лесу Скачать торрент  

Ох народ честно не пойму, что Вы в этом "фильме" нашли, как по по мне это Г"№;%:?*-ще с большой буквы, причем все быквы этого слово заглавные!) :jest3:

19-09-2012 11:08 Хижина в лесу Скачать торрент  

Полнейший бред.

Pекламный агент PB

Дорогой пользователь! Огромная просьба, поблагодарите релизера, оцените раздачу и оставьте свои комментарий, если Вы скачали Хижина в лесу через торрент бесплатно! Внесите свою лепту в развитие PiratBit!

Комментировать посты могут только пользователи прошедшие не сложную регистрацию

Хижина в лесу через торрент Скачать бесплатно Хижина в лесу Хижина в лесу скачать торрент Хижина в лесу смотреть онлайн Cкачать фильм Хижина в лесу бесплатно Хижина в лесу скачать торрент в хорошем качестве Хижина в лесу смотреть онлайн бесплатно в хорошем качестве

Вы не можете начинать темыВы не можете отвечать на сообщенияВы не можете редактировать свои сообщенияВы не можете удалять свои сообщенияВы не можете голосовать в опросахВы не можете прикреплять файлы к сообщениямВы можете скачивать файлы

Скачать фильм Хижина в лесу через торрент в хорошем качестве бесплатно BDRip-AVC

ОбщееУникальный идентификатор : 246314421431087504229377054495743985419 (0xB94E6E97588B91C09DBC6E7F863CC70B)Полное имя : D:\DVD\The.Cabin.in.the.Woods.2011.BDRip.720p.mkvФормат : MatroskaВерсия формата : Version 2Размер файла : 2,16 ГбайтПродолжительность : 1 ч. 35 м.Общий поток : 3253 Кбит/секНазвание фильма : The.Cabin.in.the.Woods.2011.BDRIP.720P.h364Дата кодирования : UTC 2012-09-18 14:34:31Программа кодирования : mkvmerge v3.4.0 ('Rapunzel') сборка от May 15 2010 09:38:20Библиотека кодирования : libebml v0.8.0 + libmatroska v0.9.0

ВидеоИдентификатор : 1Формат : AVCФормат/Информация : Advanced Video CodecПрофиль формата : [email protected]Параметр CABAC формата : ДаПараметр ReFrames формата : 12 кадровИдентификатор кодека : V_MPEG4/ISO/AVCПродолжительность : 1 ч. 35 м.Ширина : 1280 пикселейВысота : 528 пикселейСоотношение сторон : 2,40:1Режим частоты кадров : ПостоянныйЧастота кадров : 23,976 кадра/секЦветовое пространство : YUVСубдискретизация насыщенности : 4:2:0Битовая глубина : 8 битТип развёртки : ПрогрессивнаяЗаголовок : The.Cabin.in.the.Woods.2011.BDRIP.720P.h364.mkvБиблиотека кодирования : x264 core 125 r2200 999b753Настройки программы : cabac=1 / ref=12 / deblock=1:0:0 / analyse=0x3:0x133 / me=umh / subme=10 / psy=1 / psy_rd=1.00:0.00 / mixed_ref=1 / me_range=24 / chroma_me=1 / trellis=2 / 8x8dct=1 / cqm=0 / deadzone=21,11 / fast_pskip=1 / chroma_qp_offset=-2 / threads=9 / lookahead_threads=1 / sliced_threads=0 / nr=0 / decimate=1 / interlaced=0 / bluray_compat=0 / constrained_intra=0 / bframes=3 / b_pyramid=2 / b_adapt=2 / b_bias=0 / direct=3 / weightb=1 / open_gop=0 / weightp=2 / keyint=100 / keyint_min=10 / scenecut=40 / intra_refresh=0 / rc_lookahead=60 / rc=crf / mbtree=1 / crf=19.0 / qcomp=0.60 / qpmin=0 / qpmax=69 / qpstep=4 / vbv_maxrate=40000 / vbv_bufsize=30000 / crf_max=0.0 / nal_hrd=none / ip_ratio=1.40 / aq=1:1.00Язык : EnglishDefault : ДаForced : Нет

Аудио #1Идентификатор : 2Формат : AC-3Формат/Информация : Audio Coding 3Расширение режима : CM (complete main)Параметр Endianness формата : BigИдентификатор кодека : A_AC3Продолжительность : 1 ч. 35 м.Вид битрейта : ПостоянныйБитрейт : 384 Кбит/секКаналы : 6 каналовРасположение каналов : Front: L C R, Side: L R, LFEЧастота : 48,0 КГцБитовая глубина : 16 битМетод сжатия : С потерямиЗадержка видео : 1 с. 0 мс.Размер потока : 261 Мбайт (12%)Заголовок : DubЯзык : RussianDefault : ДаForced : Да

Аудио #2Идентификатор : 3Формат : AACФормат/Информация : Advanced Audio CodecПрофиль формата : LCИдентификатор кодека : A_AACПродолжительность : 1 ч. 35 м.Каналы : 6 каналовРасположение каналов : Front: L C R, Side: L R, LFEЧастота : 48,0 КГцМетод сжатия : С потерямиЯзык : EnglishDefault : НетForced : Нет

piratbit.ru

Хижина в лесу (2011) HD 1080p скачать торрент в хорошем качестве

Информация о фильмеНазвание: Хижина в лесуОригинальное название: The Cabin in the WoodsГод выхода: 2011Жанр: ужасы, триллерРежиссер: Дрю ГоддардВ ролях: Кристен Коннолли, Крис Хемсворт, Анна Хатчисон, Фрэн Кранц, Джесси Уильямс, Брэдли Уитфорд, Ричард Дженкинс, Сигурни Уивер, Брайан Дж. Уайт, Эми Эккер

О фильме: Шумная компания из пяти друзей сбегает на уик-энд подебоширить в изолированную от всего мира деревенскую хижину. Звучит знакомо? Ну так вы и не представляете, что вас ждёт на самом деле.

Выпущено: LionsgateПродолжительность: 01:35:01Перевод: Дублированный (лицензия)

ФайлКодек: x264Качество: BDRip (источник: Blu-ray Disc)Видео: 1920x800 (2,40:1), 23.976 fps, 7785 kbpsАудио #1: AC-3, 6 ch, 448 kbps (Rus)Аудио #2: AC-3, 6 ch, 448 kbps (Eng)Субтитры: Русские, Английские

ОбщееУникальный идентификатор : 249458146131612259216232475411168836826 (0xBBABE42F8DE1B83B831CAF3931FB3CDA)Полное имя : The.Cabin.in.the.Woods.2011.BDRip.1080p.Rus.Eng.mkvФормат : MatroskaВерсия формата : Version 2Размер файла : 5,76 ГбайтПродолжительность : 1 ч. 35 м.Общий поток : 8678 Кбит/секНазвание фильма : Хижина в лесу / The Cabin in the Woods (2011)Дата кодирования : UTC 2012-09-21 14:38:02Программа кодирования : mkvmerge v5.8.0 ('No Sleep / Pillow') built on Sep 2 2012 15:37:04Библиотека кодирования : libebml v1.2.3 + libmatroska v1.3.0

ВидеоИдентификатор : 1Формат : AVCФормат/Информация : Advanced Video CodecПрофиль формата : [email protected]Параметр CABAC формата : ДаПараметр ReFrames формата : 5 кадровИдентификатор кодека : V_MPEG4/ISO/AVCПродолжительность : 1 ч. 35 м.Битрейт : 7785 Кбит/секШирина : 1920 пикселейВысота : 800 пикселейСоотношение сторон : 2,40:1Частота кадров : 23,976 кадра/секЦветовое пространство : YUVСубдискретизация насыщенности : 4:2:0Битовая глубина : 8 битТип развёртки : ПрогрессивнаяБит/(Пиксели*Кадры) : 0.211Размер потока : 5,05 Гбайт (88%)Заголовок : Release by AlexKaБиблиотека кодирования : x264 core 125 r2208 d9d2288Настройки программы : cabac=1 / ref=5 / deblock=1:-3:-3 / analyse=0x3:0x133 / me=umh / subme=10 / psy=1 / psy_rd=1.00:0.10 / mixed_ref=1 / me_range=32 / chroma_me=1 / trellis=2 / 8x8dct=1 / cqm=0 / deadzone=21,11 / fast_pskip=0 / chroma_qp_offset=-3 / threads=12 / lookahead_threads=2 / sliced_threads=0 / nr=0 / decimate=0 / interlaced=0 / bluray_compat=0 / constrained_intra=0 / bframes=5 / b_pyramid=2 / b_adapt=2 / b_bias=0 / direct=3 / weightb=1 / open_gop=0 / weightp=2 / keyint=240 / keyint_min=23 / scenecut=40 / intra_refresh=0 / rc=2pass / mbtree=0 / bitrate=7785 / ratetol=1.0 / qcomp=0.60 / qpmin=0 / qpmax=69 / qpstep=4 / cplxblur=20.0 / qblur=0.5 / ip_ratio=1.40 / pb_ratio=1.30 / aq=1:0.80Язык : English

Аудио #1Идентификатор : 2Формат : AC-3Формат/Информация : Audio Coding 3Расширение режима : CM (complete main)Идентификатор кодека : A_AC3Продолжительность : 1 ч. 35 м.Вид битрейта : ПостоянныйБитрейт : 448 Кбит/секКаналы : 6 каналовРасположение каналов : Front: L C R, Side: L R, LFEЧастота : 48,0 КГцБитовая глубина : 16 битМетод сжатия : С потерямиРазмер потока : 304 Мбайт (5%)Заголовок : RusЯзык : Russian

Аудио #2Идентификатор : 3Формат : AC-3Формат/Информация : Audio Coding 3Расширение режима : CM (complete main)Идентификатор кодека : A_AC3Продолжительность : 1 ч. 35 м.Вид битрейта : ПостоянныйБитрейт : 448 Кбит/секКаналы : 6 каналовРасположение каналов : Front: L C R, Side: L R, LFEЧастота : 48,0 КГцБитовая глубина : 16 битМетод сжатия : С потерямиРазмер потока : 304 Мбайт (5%)Заголовок : EngЯзык : English

Текст #1Идентификатор : 4Формат : UTF-8Идентификатор кодека : S_TEXT/UTF8Идентификатор кодека/Информация : UTF-8 Plain TextЗаголовок : RusЯзык : Russian

Текст #2Идентификатор : 5Формат : UTF-8Идентификатор кодека : S_TEXT/UTF8Идентификатор кодека/Информация : UTF-8 Plain TextЗаголовок : EngЯзык : English

Меню00:00:00.000 : :Chapter 0100:09:10.550 : :Chapter 0200:18:42.121 : :Chapter 0300:24:21.251 : :Chapter 0400:33:08.653 : :Chapter 0500:39:39.627 : :Chapter 0600:44:18.614 : :Chapter 0700:51:25.291 : :Chapter 0801:00:24.412 : :Chapter 0901:07:18.034 : :Chapter 1001:15:44.540 : :Chapter 1101:21:32.763 : :Chapter 1201:29:54.639 : :Chapter 13

x264 [info]: frame I:1154 Avg QP:15.15 size:153401x264 [info]: frame P:31672 Avg QP:17.02 size: 67062x264 [info]: frame B:103854 Avg QP:19.59 size: 31227

rutorg2.ru

Скачать фильм Хижина в лесу через торрент в хорошем качестве бесплатно 720p)

Уникальный идентификатор : 204619980128850296174164503389017711750 (0x99F05FEC0312BD1AB282BBFAB3B7A486)Полное имя : F:\ФИЛЬМЫ ТОРРЕНТА\Hijina.v.lesy.2011.D.BDRip.720p.mkvФормат : MatroskaВерсия формата : Version 2Размер файла : 4,62 ГбайтПродолжительность : 1 ч. 35 м.Общий поток : 6967 Кбит/секДата кодирования : UTC 2012-09-18 12:42:27Программа кодирования : mkvmerge v4.9.1 ('Ich will') built on Jul 11 2011 23:53:15Библиотека кодирования : libebml v1.2.1 + libmatroska v1.1.1

ВидеоИдентификатор : 1Формат : AVCФормат/Информация : Advanced Video CodecПрофиль формата : [email protected]Параметр CABAC формата : ДаПараметр ReFrames формата : 5 кадровРежим смешивания : Header strippingИдентификатор кодека : V_MPEG4/ISO/AVCПродолжительность : 1 ч. 35 м.Битрейт : 5076 Кбит/секШирина : 1280 пикселейВысота : 536 пикселейСоотношение сторон : 2,40:1Частота кадров : 23,976 кадра/секЦветовое пространство : YUVСубдискретизация насыщенности : 4:2:0Битовая глубина : 8 битТип развёртки : ПрогрессивнаяБит/(Пиксели*Кадры) : 0.309Размер потока : 3,27 Гбайт (71%)Библиотека кодирования : x264 core 125 r2208 d9d2288Настройки программы : cabac=1 / ref=5 / deblock=1:0:0 / analyse=0x3:0x113 / me=umh / subme=8 / psy=1 / psy_rd=1.00:0.00 / mixed_ref=1 / me_range=16 / chroma_me=1 / trellis=1 / 8x8dct=1 / cqm=0 / deadzone=21,11 / fast_pskip=1 / chroma_qp_offset=-2 / threads=12 / lookahead_threads=2 / sliced_threads=0 / nr=0 / decimate=1 / interlaced=0 / bluray_compat=0 / constrained_intra=0 / bframes=3 / b_pyramid=2 / b_adapt=2 / b_bias=0 / direct=3 / weightb=1 / open_gop=0 / weightp=2 / keyint=240 / keyint_min=24 / scenecut=40 / intra_refresh=0 / rc_lookahead=50 / rc=2pass / mbtree=1 / bitrate=5076 / ratetol=1.0 / qcomp=0.60 / qpmin=0 / qpmax=69 / qpstep=4 / cplxblur=20.0 / qblur=0.5 / ip_ratio=1.40 / aq=1:1.00Язык : English

Аудио #1Идентификатор : 2Формат : AC-3Формат/Информация : Audio Coding 3Расширение режима : CM (complete main)Идентификатор кодека : A_AC3Продолжительность : 1 ч. 35 м.Вид битрейта : ПостоянныйБитрейт : 384 Кбит/секКаналы : 6 каналовРасположение каналов : Front: L C R, Side: L R, LFEЧастота : 48,0 КГцБитовая глубина : 16 битМетод сжатия : С потерямиЗадержка видео : 1 с. 0 мс.Размер потока : 261 Мбайт (6%)Язык : Russian

Аудио #2Идентификатор : 3Формат : DTSФормат/Информация : Digital Theater SystemsРежим смешивания : Header strippingИдентификатор кодека : A_DTSПродолжительность : 1 ч. 35 м.Вид битрейта : ПостоянныйБитрейт : 1510 Кбит/секКаналы : 6 каналовРасположение каналов : Front: L C R, Side: L R, LFEЧастота : 48,0 КГцБитовая глубина : 24 битМетод сжатия : С потерямиРазмер потока : 1,00 Гбайт (22%)Язык : English

Текст #1Идентификатор : 4Формат : UTF-8Идентификатор кодека : S_TEXT/UTF8Идентификатор кодека/Информация : UTF-8 Plain TextЯзык : Dutch

Текст #2Идентификатор : 5Формат : UTF-8Идентификатор кодека : S_TEXT/UTF8Идентификатор кодека/Информация : UTF-8 Plain TextЯзык : French

Меню00:00:00.000 : en:00:00:00.00000:09:10.550 : en:00:09:10.55000:18:42.121 : en:00:18:42.12100:24:21.251 : en:00:24:21.25100:33:08.653 : en:00:33:08.65300:39:39.627 : en:00:39:39.62700:44:18.614 : en:00:44:18.61400:51:25.291 : en:00:51:25.29101:00:24.412 : en:01:00:24.41201:07:18.034 : en:01:07:18.03401:15:44.540 : en:01:15:44.54001:21:32.763 : en:01:21:32.76301:29:54.639 : en:01:29:54.639

piratbit.ru

(2011) - HELLYWOOD

x264 info: frame I:1100 Avg QP:12.61 size:114697

x264 info: frame P:30317 Avg QP:14.91 size: 43868

x264 info: frame B:105284 Avg QP:17.25 size: 17883

x264 info: consecutive B-frames: 2.5% 3.9% 10.8% 13.1% 14.0% 45.2% 4.6% 1.3% 1.6% 1.3% 1.3%

x264 info: mb I I16..4: 14.4% 68.3% 17.3%

x264 info: mb P I16..4: 2.9% 17.8% 1.5% P16..4: 24.7% 30.4% 12.6% 2.1% 0.2% skip: 7.7%

x264 info: mb B I16..4: 0.5% 2.8% 0.2% B16..8: 34.3% 22.5% 4.5% direct: 6.2% skip:29.1% L0:46.5% L1:41.7% BI:11.9%

x264 info: 8x8 transform intra:79.2% inter:55.5%

x264 info: direct mvs spatial:98.2% temporal:1.8%

x264 info: coded y,uvDC,uvAC intra: 80.2% 87.6% 81.4% inter: 29.1% 29.6% 18.0%

x264 info: i16 v,h,dc,p: 76% 8% 7% 10%

x264 info: i8 v,h,dc,ddl,ddr,vr,hd,vl,hu: 11% 7% 17% 9% 11% 11% 10% 11% 12%

x264 info: i4 v,h,dc,ddl,ddr,vr,hd,vl,hu: 18% 8% 16% 8% 11% 11% 10% 9% 10%

x264 info: i8c dc,h,v,p: 59% 16% 12% 13%

x264 info: Weighted P-Frames: Y:3.4% UV:2.1%

x264 info: ref P L0: 45.8% 6.6% 19.4% 7.7% 6.9% 4.5% 4.3% 2.2% 2.4% 0.2% 0.0%

x264 info: ref B L0: 66.0% 14.5% 8.0% 4.2% 3.0% 2.5% 1.4% 0.4%

x264 info: ref B L1: 93.1% 6.9%

: 180247874911971643996515467215128570117 (0x879A7A5C468A36B9AE482B5CAB092905) : Hizhyna.6xRus.Ukr.Eng.BDRip.720p.-HELLYWOOD.mkv : Matroska : Version 4 / Version 2 : 6,38 : 1 . 35 . : 9612 / : The Cabin in the Woods (2011) : UTC 2016-06-18 08:19:24 : mkvmerge v5.9.0 ('On The Loose') built on Dec 15 2012 16:39:58 : libebml v1.3.0 + libmatroska v1.4.0

: 1 : AVC / : Advanced Video Codec : [email protected] CABAC : ReFrames : 9 : V_MPEG4/ISO/AVC : 1 . 35 . : 4691 / : 1280 : 534 : 2,40:1 : : 23,976 (24000/1001) / : YUV : 4:2:0 : 8 : /(*) : 0.286 : 2,98 (47%) : potroks : x264 core 148 r2705M 3f5ed56 : cabac=1 / ref=9 / deblock=1:-3:-3 / analyse=0x3:0x133 / me=umh / subme=11 / psy=1 / psy_rd=1.00:0.05 / mixed_ref=1 / me_range=48 / chroma_me=1 / trellis=2 / 8x8dct=1 / cqm=0 / deadzone=21,11 / fast_pskip=0 / chroma_qp_offset=-3 / threads=9 / lookahead_threads=2 / sliced_threads=0 / nr=0 / decimate=0 / interlaced=0 / bluray_compat=0 / constrained_intra=0 / bframes=10 / b_pyramid=2 / b_adapt=2 / b_bias=0 / direct=3 / weightb=1 / open_gop=0 / weightp=2 / keyint=240 / keyint_min=23 / scenecut=40 / intra_refresh=0 / rc_lookahead=100 / rc=2pass / mbtree=0 / bitrate=4691 / ratetol=1.0 / qcomp=0.70 / qpmin=0 / qpmax=69 / qpstep=4 / cplxblur=20.0 / qblur=0.5 / vbv_maxrate=50000 / vbv_bufsize=60000 / nal_hrd=none / filler=0 / ip_ratio=1.40 / pb_ratio=1.30 / aq=1:0.80 : Russian Default : Forced :

#1 : 2 : AC-3 / : Audio Coding 3 : CM (complete main) Endianness : Big : A_AC3 : 1 . 35 . : : 640 / : 6 : Front: L C R, Side: L R, LFE : 48,0 : 31,250 / (1536 spf) : : 435 (7%) : Dub | DD 5.1 @ 640 kbps - Blu-ray Rus : Russian Default : Forced :

#2 : 3 : AC-3 / : Audio Coding 3 : CM (complete main) Endianness : Big : A_AC3 : 1 . 35 . : : 448 / : 6 : Front: L C R, Side: L R, LFE : 48,0 : 31,250 / (1536 spf) : : 305 (5%) : AVO | DD 5.1 @ 448 kbps - A.Gavrilov : Russian Default : Forced :

#3 : 4 : AC-3 / : Audio Coding 3 : CM (complete main) Endianness : Big : A_AC3 : 1 . 35 . : : 640 / : 6 : Front: L C R, Side: L R, LFE : 48,0 : 31,250 / (1536 spf) : : 435 (7%) : AVO | DD 5.1 @ 640 kbps - Yu.Nemahov : Russian Default : Forced :

#4 : 5 : AC-3 / : Audio Coding 3 : CM (complete main) Endianness : Big : A_AC3 : 1 . 35 . : : 640 / : 6 : Front: L C R, Side: L R, LFE : 48,0 : 31,250 / (1536 spf) : : 435 (7%) : AVO | DD 5.1 @ 640 kbps - A. Karpovsky : Russian Default : Forced :

#5 : 6 : AC-3 / : Audio Coding 3 : CM (complete main) Endianness : Big : A_AC3 : 1 . 35 . : : 640 / : 6 : Front: L C R, Side: L R, LFE : 48,0 : 31,250 / (1536 spf) : : 435 (7%) : AVO | DD 5.1 @ 640 kbps - A.Matveev : Russian Default : Forced :

#6 : 7 : AC-3 / : Audio Coding 3 : CM (complete main) Endianness : Big : A_AC3 : 1 . 35 . : : 640 / : 6 : Front: L C R, Side: L R, LFE : 48,0 : 31,250 / (1536 spf) : : 435 (7%) : VO | DD 5.1 @ 640 kbps - V.Zamez : Russian Default : Forced :

#7 : 8 : AC-3 / : Audio Coding 3 : CM (complete main) Endianness : Big : A_AC3 : 1 . 35 . : : 640 / : 6 : Front: L C R, Side: L R, LFE : 48,0 : 31,250 / (1536 spf) : : 435 (7%) : MVO | DD 5.1 @ 640 kbps - Omikron : Ukrainian Default : Forced :

#8 : 9 : AC-3 / : Audio Coding 3 : CM (complete main) Endianness : Big : A_AC3 : 1 . 35 . : : 640 / : 6 : Front: L C R, Side: L R, LFE : 48,0 : 31,250 / (1536 spf) : : 435 (7%) : Original | DD 5.1 @ 640 kbps : English Default : Forced :

#1 : 10 : UTF-8 : S_TEXT/UTF8 / : UTF-8 Plain Text : R5 : Russian Default : Forced :

#2 : 11 : UTF-8 : S_TEXT/UTF8 / : UTF-8 Plain Text : romero007 : Russian Default : Forced :

#3 : 12 : UTF-8 : S_TEXT/UTF8 / : UTF-8 Plain Text : Den 107miller : Russian Default : Forced :

#4 : 13 : UTF-8 : S_TEXT/UTF8 / : UTF-8 Plain Text : Voronine : Russian Default : Forced :

#5 : 14 : UTF-8 : S_TEXT/UTF8 / : UTF-8 Plain Text : Full : English Default : Forced :

#6 : 15 : UTF-8 : S_TEXT/UTF8 / : UTF-8 Plain Text : SDH : English Default : Forced :

#7 : 16 : UTF-8 : S_TEXT/UTF8 / : UTF-8 Plain Text : SDH-Colored : English Default : Forced :

00:00:00.000 : :(01)00:00:00:000 00:05:41.966 : :(02)00:05:41:966 00:12:32.333 : :(03)00:12:32:333 00:18:39.617 : :(04)00:18:39:617 00:24:22.041 : :(05)00:24:22:041 00:29:26.681 : :(06)00:29:26:681 00:35:02.224 : :(07)00:35:02:224 00:41:39.704 : :(08)00:41:39:704 00:46:43.300 : :(09)00:46:43:300 00:50:57.344 : :(10)00:50:57:344 00:54:44.239 : :(11)00:54:44:239 01:06:48.711 : :(12)01:06:48:711 01:12:51.240 : :(13)01:12:51:240 01:16:46.518 : :(14)01:16:46:518 01:21:33.595 : :(15)01:21:33:595 01:26:59.087 : :(16)01:26:59:087

hellywood.ru


Смотрите также