Грань будущего скачать торрент в хорошем качестве


rutor.org :: Грань будущего / Edge of Tomorrow (2014) BDRip 1080p от NNNB

main-rutor.org

Информация о фильме
    Русское название: Грань будущего Оригинальное название: Edge of TomorrowГод выхода: 2014Жанр: Фантастика, боевикРежиссер: Даг ЛайманВыпущено: СШАПродолжительность: 01:53:29Перевод: ДублированныйВ ролях: Том Круз, Эмили Блант, Брендан Глисон, Билл Пэкстон, Джонас Армстронг, Тони Вэй, Кик Гарри, Франц Драмех, Драгомир Мрсич, Шарлотта Райли
Сюжет фильма
    В недалёком будущем раса инопланетян вторгается на Землю. Никакая армия в мире не может противостоять им. Майор Уильям Кейдж умирает в бою, но случается невозможное — он оказывается во временной петле. Раз за разом он попадает в один и тот же бой, сражается и умирает… снова и снова. И каждое повторяющееся сражение приближает его к разгадке того, как победить врага.
Файл
    Качество: BDRip 1080p (исходник Blu-ray Disc Remux)Видео: 1920x800, 10655 Кбит/сек, 60.000 кадр/сек, AVC, x264, [email protected], 2.40:1, 0.113 Бит/[Пиксели*Кадры]Аудио 1: AC-3, 640 Кбит/сек, 6 канала(ов), 48,0 КГц - Дублированный / РусскийАудио 2: AC-3, 640 Кбит/сек, 6 канала(ов), 48,0 КГц - Оригинал / АнглийскийСубтитры: Русские | Полные, Английские | ПолныеФорсированные субтитры: РусскиеЧаптеры (Главы): Есть
Автор Рипа: Сообщество:

MediaInfo

Format : Matroska Format version : Version 2 File size : 9.47 GiB Duration : 1h 53mn Overall bit rate : 11.9 Mbps Movie name : Грань будущего.(2014).BDRip.1080p.[envy].[60fps] Encoded date : UTC 2015-08-18 05:02:14 Writing application : mkvmerge v5.8.0 ('No Sleep / Pillow') built on Sep 2 2012 15:37:04 Writing library : libebml v1.2.3 + libmatroska v1.3.0

Video ID : 1 Format : AVC Format/Info : Advanced Video Codec Format profile : [email protected] Format settings, CABAC : Yes Format settings, ReFrames : 4 frames Codec ID : V_MPEG4/ISO/AVC Duration : 1h 53mn Bit rate : 10.4 Mbps Width : 1 920 pixels Height : 800 pixels Display aspect ratio : 2.40:1 Frame rate mode : Constant Frame rate : 60.000 fps Color space : YUV Chroma subsampling : 4:2:0 Bit depth : 8 bits Scan type : Progressive Bits/(Pixel*Frame) : 0.113 Stream size : 8.26 GiB (87%) Title : Грань будущего.(2014).BDRip.1080p.[envy].[60fps] Writing library : x264 core 146 r2538 121396c Encoding settings : cabac=1 / ref=4 / deblock=1:0:0 / analyse=0x3:0x113 / me=umh / subme=11 / psy=1 / psy_rd=1.00:0.00 / mixed_ref=1 / me_range=24 / chroma_me=1 / trellis=2 / 8x8dct=1 / cqm=0 / deadzone=21,11 / fast_pskip=1 / chroma_qp_offset=-2 / threads=12 / lookahead_threads=1 / sliced_threads=0 / nr=0 / decimate=1 / interlaced=0 / bluray_compat=0 / constrained_intra=0 / bframes=5 / b_pyramid=2 / b_adapt=2 / b_bias=0 / direct=3 / weightb=1 / open_gop=0 / weightp=2 / keyint=250 / keyint_min=25 / scenecut=40 / intra_refresh=0 / rc_lookahead=50 / rc=crf / mbtree=1 / crf=18.0 / qcomp=0.60 / qpmin=0 / qpmax=69 / qpstep=4 / vbv_maxrate=14000 / vbv_bufsize=14000 / crf_max=0.0 / nal_hrd=none / filler=0 / ip_ratio=1.40 / aq=3:1.00 Language : English Default : Yes Forced : No

Audio #1 ID : 2 Format : AC-3 Format/Info : Audio Coding 3 Mode extension : CM (complete main) Format settings, Endianness : Big Codec ID : A_AC3 Duration : 1h 53mn Bit rate mode : Constant Bit rate : 640 Kbps Channel(s) : 6 channels Channel positions : Front: L C R, Side: L R, LFE Sampling rate : 48.0 KHz Compression mode : Lossy Stream size : 520 MiB (5%) Title : Dub Language : Russian Default : Yes Forced : No

Audio #2 ID : 3 Format : AC-3 Format/Info : Audio Coding 3 Mode extension : CM (complete main) Format settings, Endianness : Big Codec ID : A_AC3 Duration : 1h 53mn Bit rate mode : Constant Bit rate : 640 Kbps Channel(s) : 6 channels Channel positions : Front: L C R, Side: L R, LFE Sampling rate : 48.0 KHz Compression mode : Lossy Stream size : 520 MiB (5%) Title : Eng Language : English Default : No Forced : No

Text #1 ID : 4 Format : UTF-8 Codec ID : S_TEXT/UTF8 Codec ID/Info : UTF-8 Plain Text Title : Rus forced Language : Russian Default : Yes Forced : Yes

Text #2 ID : 5 Format : UTF-8 Codec ID : S_TEXT/UTF8 Codec ID/Info : UTF-8 Plain Text Title : Rus full Language : Russian Default : No Forced : No

Text #3 ID : 6 Format : UTF-8 Codec ID : S_TEXT/UTF8 Codec ID/Info : UTF-8 Plain Text Title : Eng full Language : English Default : No Forced : No

Menu 00:00:00.000 : en:Chapter 01 00:10:28.127 : en:Chapter 02 00:17:38.724 : en:Chapter 03 00:24:50.155 : en:Chapter 04 00:35:57.905 : en:Chapter 05 00:46:27.242 : en:Chapter 06 00:54:34.479 : en:Chapter 07 01:04:59.520 : en:Chapter 08 01:12:53.035 : en:Chapter 09 01:23:08.858 : en:Chapter 10 01:32:34.131 : en:Chapter 11 01:42:53.542 : en:Chapter 12 01:45:46.173 : en:Chapter 13

ВАЖНО!

Прежде чем скачивать фильм полностью, скачайте "сэмпл", и проверьте будет ли воспроизводится видео на вашем устройстве!

Q: Присутствуют ли артефакты на изображении?A: Да, есть, и будут, какие настройки скритпа не вписывай они будут постоянно! + Видео ряд обработан фильтром "Sharp"

Q: У меня не запускается видео на компьютере?A: Обновите кодеки. (попробуйте другие видео проигрыватели)

Q: У меня идет рассинхрон звука и видео?A: Проблема в мощности компьютера. (возможно также нужно обновить кодеки)

Q: Что нужно для воспроизведения данного видео.A: Что рекомендуется для воспроизведения мной: Процессор: 4х ядерный Видео карта: минимум 512Мб. И желательно включить обработку изображения с помощью видео карты. (Деинтерлейсинг, подавление блочности и т.д.) ОЗУ: 2-4Гб

Проигрыватели. MPC-HC (Media Player Classic - Home Cinema) The KMPlayer (Korean Multimedia Player) (оптимальный вариант) Mirillis Splash PRO (Если что то проигрыватель сам может преобразовывать видео вплоть до частоты кадров монитора. Или тех же 60fps.)

^Прежде чем отписывать комментарии по качеству, прочитайте спойлер!

Внимание: Данные фильмы делаются только под заказ (кому нужно знает где) с обязательным указанием ||60FPS|| !

Скачать торрент Грань будущего / Edge of Tomorrow (2014) BDRip 1080p

Файлы для обмена предоставлены пользователями сайта. Администрация не несёт ответственности за их содержание. На сервере хранятся только торрент-файлы. Это значит, что мы не храним никаких нелегальных материалов, а так же материалов охраняемых авторским правом.

krutor.org

Информация о фильмеНазвание: Грань будущегоОригинальное название: Edge of TomorrowГод выхода: 2014Жанр: фантастика, боевикРежиссер: Даг ЛайманВ ролях: Том Круз, Эмили Блант, Билл Пэкстон, Брендан Глисон, Джонас Армстронг, Тони Вэй, Кик Гарри, Франц Драмех, Драгомир Мрсич, Шарлотта Райли

О фильме: В недалёком будущем раса инопланетян вторгается на Землю. Никакая армия в мире не может противостоять им. Майор Уильям Кейдж умирает в бою, но случается невозможное — он оказывается во временной петле. Раз за разом он попадает в один и тот же бой, сражается и умирает… снова и снова. И каждое повторяющееся сражение приближает его к разгадке того, как победить врага.

Выпущено: Warner Bros.Продолжительность: 01:53:29Перевод: Дублированный (лицензия)

ФайлКодек: x264Качество: BDRip \(источник: Blu-ray Disc\)Видео: 1920x800 (2,40:1), 23.976 fps, 8510 kbpsАудио #1: AC-3, 6 ch, 640 kbps (Rus)Аудио #2: AC-3, 6 ch, 640 kbps (Eng)Субтитры: Русские (форс,полные), АнглийскиеСкачать: сэмпл

Скриншоты

MI

Общее Уникальный идентификатор : 252409524387394287655194548695916972290 (0xBDE44E5E50772F3098EBB78177E18902) Полное имя : Edge.of.Tomorrow.2014.BDRip.1080p.Rus.Eng.mkv Формат : Matroska Версия формата : Version 2 Размер файла : 7,76 Гбайт Продолжительность : 1 ч. 53 м. Общий поток : 9789 Кбит/сек Название фильма : Грань будущего / Edge of Tomorrow (2014) Дата кодирования : UTC 2014-09-28 04:38:25 Программа кодирования : mkvmerge v5.8.0 ('No Sleep / Pillow') built on Sep 2 2012 15:37:04 Библиотека кодирования : libebml v1.2.3 + libmatroska v1.3.0

Видео Идентификатор : 1 Формат : AVC Формат/Информация : Advanced Video Codec Профиль формата : [email protected] Параметр CABAC формата : Да Параметр ReFrames формата : 5 кадров Идентификатор кодека : V_MPEG4/ISO/AVC Продолжительность : 1 ч. 53 м. Битрейт : 8510 Кбит/сек Ширина : 1920 пикселей Высота : 800 пикселей Соотношение сторон : 2,40:1 Режим частоты кадров : Постоянный Частота кадров : 23,976 кадра/сек Цветовое пространство : YUV Субдискретизация насыщенности : 4:2:0 Битовая глубина : 8 бит Тип развёртки : Прогрессивная Бит/(Пиксели*Кадры) : 0.231 Размер потока : 6,59 Гбайт (85%) Заголовок : Release by AlexKa Библиотека кодирования : x264 core 142 r2479 dd79a61 Настройки программы : cabac=1 / ref=5 / deblock=1:-3:-3 / analyse=0x3:0x133 / me=umh / subme=11 / psy=1 / psy_rd=1.00:0.00 / mixed_ref=1 / me_range=32 / chroma_me=1 / trellis=2 / 8x8dct=1 / cqm=0 / deadzone=21,11 / fast_pskip=0 / chroma_qp_offset=-2 / threads=12 / lookahead_threads=2 / sliced_threads=0 / nr=0 / decimate=0 / interlaced=0 / bluray_compat=0 / constrained_intra=0 / bframes=9 / b_pyramid=2 / b_adapt=2 / b_bias=0 / direct=3 / weightb=1 / open_gop=0 / weightp=2 / keyint=240 / keyint_min=23 / scenecut=40 / intra_refresh=0 / rc=2pass / mbtree=0 / bitrate=8510 / ratetol=1.0 / qcomp=0.60 / qpmin=0 / qpmax=69 / qpstep=4 / cplxblur=20.0 / qblur=0.5 / ip_ratio=1.40 / pb_ratio=1.30 / aq=1:0.70 Язык : English

Аудио #1 Идентификатор : 2 Формат : AC-3 Формат/Информация : Audio Coding 3 Расширение режима : CM (complete main) Параметр Endianness формата : Big Идентификатор кодека : A_AC3 Продолжительность : 1 ч. 53 м. Вид битрейта : Постоянный Битрейт : 640 Кбит/сек Каналы : 6 каналов Расположение каналов : Front: L C R, Side: L R, LFE Частота : 48,0 КГц Битовая глубина : 16 бит Метод сжатия : С потерями Размер потока : 520 Мбайт (7%) Заголовок : Rus Язык : Russian

Аудио #2 Идентификатор : 3 Формат : AC-3 Формат/Информация : Audio Coding 3 Расширение режима : CM (complete main) Параметр Endianness формата : Big Идентификатор кодека : A_AC3 Продолжительность : 1 ч. 53 м. Вид битрейта : Постоянный Битрейт : 640 Кбит/сек Каналы : 6 каналов Расположение каналов : Front: L C R, Side: L R, LFE Частота : 48,0 КГц Битовая глубина : 16 бит Метод сжатия : С потерями Размер потока : 520 Мбайт (7%) Заголовок : Eng Язык : English

Текст #1 Идентификатор : 4 Формат : UTF-8 Идентификатор кодека : S_TEXT/UTF8 Идентификатор кодека/Информация : UTF-8 Plain Text Заголовок : Rus forced Язык : Russian

Текст #2 Идентификатор : 5 Формат : UTF-8 Идентификатор кодека : S_TEXT/UTF8 Идентификатор кодека/Информация : UTF-8 Plain Text Заголовок : Rus Язык : Russian

Текст #3 Идентификатор : 6 Формат : UTF-8 Идентификатор кодека : S_TEXT/UTF8 Идентификатор кодека/Информация : UTF-8 Plain Text Заголовок : Eng Язык : English

Меню 00:00:00.000 : :Chapter 01 00:10:28.168 : :Chapter 02 00:17:39.098 : :Chapter 03 00:24:50.195 : :Chapter 04 00:35:57.947 : :Chapter 05 00:46:27.283 : :Chapter 06 00:54:34.770 : :Chapter 07 01:04:59.561 : :Chapter 08 01:12:53.077 : :Chapter 09 01:23:08.899 : :Chapter 10 01:32:34.131 : :Chapter 11 01:42:53.583 : :Chapter 12 01:45:46.213 : :Chapter 13 01:53:29.219 : :Chapter 14

x264

x264 [info]: frame I:1073 Avg QP:15.09 size:185260 x264 [info]: frame P:40325 Avg QP:18.31 size: 79180 x264 [info]: frame B:121866 Avg QP:20.51 size: 31580 x264 [info]: consecutive B-frames: 3.8% 5.0% 9.5% 27.7% 15.1% 22.9% 6.9% 7.4% 1.2% 0.5%
volodya146 26-Фев-2017 23:55 (7 месяцев назад)
Спасибо! Лучшее качество видео, которое нашёл. Фильм великолепен, отличная фантастика, Том Круз неподражаем
 
IR-n 26-Фев-2017 23:55 (7 месяцев назад)
Качество рипа на высоте. Фильм классный, потому что я тоже хочу иметь такой эффект. Вот.
 
LAKIRO 26-Фев-2017 23:55 (7 месяцев назад) Оценил на: 10
Фильм норм на один раз сойдёт.Смотреть его ещё раз желания нет даже спустя пару лет.
 
SuperJet45 26-Фев-2017 23:55 (7 месяцев назад) Оценил на: 10
классный фильмец...жду продолжения
 
russiankratos 26-Фев-2017 23:55 (7 месяцев назад)
evlampi

Скрытый текст

Она была первой из известных ей с такой способностью,а Круз уже услышал от неё эту историю.Сомневаюсь,что человек,который постоянно возрождается изо дня в день,просто по ощущениям откажется от чувства,что практически бессмертен.
 
momantus 26-Фев-2017 23:55 (7 месяцев назад) Оценил на: 10
Сравнивать "День сурка"и этот фильм неблагодарное дело,в первом фильме мораль была в том что бы человек "притозмозил" и у видел как красив окружающий мир,а в этом фильме "флешбак" нужен для того чтобы успеть и опередить.
 
HOLLYWOOD27 26-Фев-2017 23:55 (7 месяцев назад) Оценил на: 10
Фантастика бесподобная, что то новое замутили из "День сурка"
 
[email protected] 26-Фев-2017 23:55 (7 месяцев назад) Оценил на: 10
Спасибо за фильм.
 
OldDemon 26-Фев-2017 23:55 (7 месяцев назад) Оценил на: 10
Спасибо !
 
alex7777 26-Фев-2017 23:55 (7 месяцев назад) Оценил на: 10
 
torleech 26-Фев-2017 23:55 (7 месяцев назад) Оценил на: 10
Спасибо! Фильм супер...
 
Soroka1989 26-Фев-2017 23:55 (7 месяцев назад) Оценил на: 10
Большое Спасибо за релиз!
 
Dreamkeeper 85 26-Фев-2017 23:55 (7 месяцев назад) Оценил на: 10
 
Марио 26-Фев-2017 23:55 (7 месяцев назад) Оценил на: 10
Большое спасибо! Том Круз радует - Обливион, Джек Ричер, теперь засмотрим и этот фильм.
 
Smart-1000 26-Фев-2017 23:55 (7 месяцев назад) Оценил на: 10
Этому суперфильму, ну просто нельзя не поставить 10+
 
Dimulka23 26-Фев-2017 23:55 (7 месяцев назад)
С нетерпением жду все новинки в Вашем исполнении.Не будет-ли Капитана Харлока?
 
abkmvs 26-Фев-2017 23:55 (7 месяцев назад) Оценил на: 10
Огромное спасибо за фильм!
 
yzon 26-Фев-2017 23:55 (7 месяцев назад) Оценил на: 10
посмотрел с удовольствием
 
kakleeff95 26-Фев-2017 23:55 (7 месяцев назад) Оценил на: 10
Спасибо тебе огромное! я ждал этого рипа)
 
Darklein 26-Фев-2017 23:55 (7 месяцев назад) Оценил на: 10
Большое спасибо, Александр! Ждал вашего релиза, в коллекцию!
 
VaDeP 26-Фев-2017 23:55 (7 месяцев назад) Оценил на: 10
 
Knet 26-Фев-2017 23:55 (7 месяцев назад) Оценил на: 10
. Alexka будет ли релиз "Города грехов-2" в размере 7,75 гб? Заранее благодарен
 
Dori36961 26-Фев-2017 23:55 (7 месяцев назад) Оценил на: 10
 
John Carter 26-Фев-2017 23:55 (7 месяцев назад) Оценил на: 10
А вот и качество от гуру рипинга,
 
Thunderbird 26-Фев-2017 23:55 (7 месяцев назад) Оценил на: 10
"День сурка" удался, посмотрел с удовольствием +10 за рип!
 
Quentin_MiX 26-Фев-2017 23:55 (7 месяцев назад) Оценил на: 10
 
alex260680 26-Фев-2017 23:55 (7 месяцев назад) Оценил на: 10
Комментарии излишни
 
ptizelow 26-Фев-2017 23:55 (7 месяцев назад) Оценил на: 10
AlexKa дружище, его бы на 11,5gb для коллекции! Фильм то достойный!
 
kocur 26-Фев-2017 23:55 (7 месяцев назад) Оценил на: 10
Спасибо)
 
Джэб 26-Фев-2017 23:55 (7 месяцев назад) Оценил на: 10
Большое спасибо!!!!
 
adge 26-Фев-2017 23:55 (7 месяцев назад) Оценил на: 10
AlexKa спасибо дождался Вашего релиза. Как всегда качество без вопросов!!
 
semicwetik 26-Фев-2017 23:55 (7 месяцев назад) Оценил на: 10
Отлично!!! Огромное спасибо за фильм! Забираю
 
какойнибутьник 26-Фев-2017 23:55 (7 месяцев назад) Оценил на: 10
 
Dimasssty 26-Фев-2017 23:55 (7 месяцев назад) Оценил на: 10
 

Скачать фильм Грань будущего через торрент в хорошем качестве бесплатно HDRip

piratbit.ru

Раздают: 1 [ 0 KB/s ]
Размер: 1.45 GB | Добавлен: 3 года назад | Торрент скачан:5193 раза
Реклама Дарим 3000 рублей за регистрацию, не упусти свой шанс получить шикарный бонус!!!

10-09-2014 20:03 Грань будущего Скачать торрент  

Грань будущего / Edge of Tomorrow«Живи. Умри. И снова» Год выпуска: 2014 Страна:США, Австралия Жанр:фантастика, боевик Продолжительность: 01:53:29 Перевод:Дубляж - [Лицензия] Режиссер:Даг Лайман В ролях: Том Круз (Cage), Эмили Блант (Rita), Билл Пэкстон (Master Sergeant Farell), Брендан Глисон (General Brigham), Джонас Армстронг (Skinner), Тони Вэй (Kimmel), Кик Гарри (Griff), Франц Драмех (Ford), Драгомир Мрсич (Kuntz), Шарлотта Райли (Nance), Масаёси Ханеда (Takeda), Теренс Мэйнард (Cruel Sergeant)
  • Описание:В недалёком будущем раса инопланетян вторгается на Землю. Никакая армия в мире не может противостоять им. Майор Уильям Кейдж умирает в бою, но случается невозможное - он оказывается во временной петле. Раз за разом он попадает в один и тот же бой, сражается и умирает... снова и снова. И каждое повторяющееся сражение приближает его к разгадке того, как победить врага. Качество:HDRip Формат:AVI Видео кодек: XviD Аудио кодек:AC3 Видео: XviD, 720x304 (2.35:1), 1377 kbps, 23,976 fps, 0,262 bpp Аудио: AC3 / 5.1 / 48 kHz / 448 kbps / 16 bit

    Код:

    GeneralComplete name                            : D:\Торенты\Edge.of.Tomorrow.2014.HDRip.ExKinoRay.aviFormat                                   : AVIFormat/Info                              : Audio Video InterleaveFile size                                : 1.45 GiBDuration                                 : 1h 53mnOverall bit rate                         : 1 835 KbpsWriting application                      : VirtualDubMod 1.5.10.2 (build 2540/release)Writing library                          : VirtualDubMod build 2540/release

    VideoID                                       : 0Format                                   : MPEG-4 VisualFormat profile                           : Advanced [email protected] settings, BVOP                    : 1Format settings, QPel                    : NoFormat settings, GMC                     : No warppointsFormat settings, Matrix                  : CustomCodec ID                                 : XVIDCodec ID/Hint                            : XviDDuration                                 : 1h 53mnBit rate                                 : 1 377 KbpsWidth                                    : 720 pixelsHeight                                   : 304 pixelsDisplay aspect ratio                     : 2.35:1Frame rate                               : 23.976 fpsColor space                              : YUVChroma subsampling                       : 4:2:0Bit depth                                : 8 bitsScan type                                : ProgressiveCompression mode                         : LossyBits/(Pixel*Frame)                       : 0.262Stream size                              : 1.09 GiB (75%)Writing library                          : XviD 1.2.1 (UTC 2008-12-04)

    AudioID                                       : 1Format                                   : AC-3Format/Info                              : Audio Coding 3Mode extension                           : CM (complete main)Codec ID                                 : 2000Duration                                 : 1h 53mnBit rate mode                            : ConstantBit rate                                 : 448 KbpsChannel(s)                               : 6 channelsChannel positions                        : Front: L C R, Side: L R, LFESampling rate                            : 48.0 KHzBit depth                                : 16 bitsCompression mode                         : LossyStream size                              : 364 MiB (24%)Alignment                                : Split accross interleavesInterleave, duration                     : 42 ms (1.00 video frame)Interleave, preload duration             : 500 ms

    Скриншоты: © Оформление by Raven
  • Скачать Грань будущего через торрент http://pic.pb.wtf/images/6/ordi9.jpg Скачать фильм Грань будущего через торрент бесплантно в хорошем качестве Описание:В недалёком будущем раса инопланетян вторгается на Землю. Никакая армия в мире не может противостоять им. Майор Уильям Кейдж ... 2014-09-27 06:40 9.8 10 183

    Loading...

    Loading...

    Последний раз редактировалось: Ворон (2014-09-27 06:40), всего редактировалось 1 раз

    Рекламный пират

    11-09-2014 03:57 Грань будущего Скачать торрент  

    Как филь ? отпишитесь кто смотрел, потому что друг глянул ему не понравился

    11-09-2014 05:32 Грань будущего Скачать торрент  

    мне понравился))

    11-09-2014 08:52 Грань будущего Скачать торрент  

    отличный фильм,10 из 10 жду авторскую озвучку и пересмотрю однозначно

    11-09-2014 16:03 Грань будущего Скачать торрент  

    День Сурка с роботами. Мутноватое начало, но потом неплохо.

    11-09-2014 18:46 Грань будущего Скачать торрент  

    Фильм хорош,Том Кукуруз удивил!

    12-09-2014 18:29 Грань будущего Скачать торрент  

    Фильм отличный

    12-09-2014 20:18 Грань будущего Скачать торрент  

    Фильм класс. За сюжет просто +500 Круз восхитителен.

    13-09-2014 05:41 Грань будущего Скачать торрент  

    фильм понравился!

    Pекламный агент PB

    14-09-2014 13:04 Грань будущего Скачать торрент  

    очень понравился фильм. спасибо автору. Фильм из серии не думать) но хуже от этого не становится) всем рекомендую

    14-09-2014 14:33 Грань будущего Скачать торрент  

    фильм - пушка!! реально давненько не было блокбастера дорогущего с таким офигенным сюжетом!!!

    17-09-2014 08:48 Грань будущего Скачать торрент  

    это же ремейк Дня сурка , мать его))))

    18-09-2014 09:26 Грань будущего Скачать торрент  

    классный фильм. давно таких не смотрел

    19-09-2014 06:38 Грань будущего Скачать торрент  

    Смотреть!Однозначно !! Идея сюжета не нова но там есть экзоскелеты + пришельцы !

    21-09-2014 14:24 Грань будущего Скачать торрент  

    Качать фильм только фанатам Тома Круза и Трансформеров.Оценка 2 из 10.

    22-09-2014 19:03 Грань будущего Скачать торрент  

    Фильм классный всем советую!!! порадовал в начале фильма видео ролик падения Челябинского метеорита )))

    26-09-2014 14:48 Грань будущего Скачать торрент  

    Концовка все испортила. Неплохой фильм, но конец должен был быть другим.

    Pекламный агент PB

    28-09-2014 20:33 Грань будущего Скачать торрент  

    Я уже писал, но повторюсь--- После ентих (Люди ..., человек - бздюк... и тому подобных) этот фильм просто круть!!! из 10 балов по сравнению с этими премьерами (Транспердеры.. ) 11 сто пудов!!!!!!

    01-10-2014 15:44 Грань будущего Скачать торрент  

    Очень глубокий фильм очень.В коллекцию однозначно, релизеру очень респект и здоровья)ждём продолжения "Ангел Вердена"

    06-10-2014 21:40 Грань будущего Скачать торрент  

    фильм огонь ходил в кино на 3д, теперь хочу дома с женой пересмотреть!!!!!

    10-10-2014 17:46 Грань будущего Скачать торрент  

    Забавно было видеть кадры падения метеорита в Челябинске, подписанные как Германия)

    12-10-2014 11:11 Грань будущего Скачать торрент  

    Фильм посредственный, на 1 раз посмотреть .

    13-10-2014 07:53 Грань будущего Скачать торрент  

    Фильм шикарный. Заставляет держаться в напряжении с начала и до конца. Аналог с днем сурка(возвращение в тот же день), только в сотни раз круче. В дне сурка не было и сотой доли той интриги и драйва, как тут. Том Круз тащит.Однозначно Всем смотреть! :shoot2:

    17-10-2014 21:31 Грань будущего Скачать торрент  

    16-12-2014 20:42 Грань будущего Скачать торрент  

    Спасибо, будет что посмотреть в дороге

    Pекламный агент PB

    Дорогой пользователь! Огромная просьба, поблагодарите релизера, оцените раздачу и оставьте свои комментарий, если Вы скачали Грань будущего через торрент бесплатно! Внесите свою лепту в развитие PiratBit!

    Комментировать посты могут только пользователи прошедшие не сложную регистрацию

    Грань будущего через торрент Скачать бесплатно Грань будущего Грань будущего скачать торрент Грань будущего смотреть онлайн Cкачать фильм Грань будущего бесплатно Грань будущего скачать торрент в хорошем качестве Грань будущего смотреть онлайн бесплатно в хорошем качестве

    Вы не можете начинать темыВы не можете отвечать на сообщенияВы не можете редактировать свои сообщенияВы не можете удалять свои сообщенияВы не можете голосовать в опросахВы не можете прикреплять файлы к сообщениямВы можете скачивать файлы

    Фильм Грань будущего в 3Д (2014) скачать торрент в хорошем качестве hd

    Жанр: Фантастика, Боевик

    Продолжительность: 1:53:29

    Перевод: Профессиональный дублированный + Одноголосый закадровый (Д. Есарев)

    Режиссер: Даг Лайман / Doug Liman

    Роли исполняли (дублировали): Cage - Том Круз (Всеволод Кузнецов) Rita - Эмили Блант (Мария Фортунатова) General Brigham - Брендан Глисон (Алексей Рязанцев) Master Sergeant Farell - Билл Пэкстон (Андрей Градов) Skinner - Джонас Армстронг (Борис Шувалов) Kimmel - Тони Вэй (Сергей Чихачев) Griff - Кик Гарри (Илья Исаев) Ford - Франц Драмех Kuntz - Драгомир Мрсич

    Nance - Шарлотта Райли Takeda - Масаёси Ханеда Cruel Sergeant - Теренс Мэйнард Dr. Carter - Ноа Тейлор (Андрей Казанцев) Karen Lord - Лара Пулвер Julie - Мадлен Манток Infirmary Nurse - Ассли Зандри Secretary - Iris - Бет Годдар

     

    В недалёком будущем раса инопланетян вторгается на Землю. Никакая армия в мире не может противостоять им. Майор Уильям Кейдж умирает в бою, но случается невозможное — он оказывается во временной петле. Раз за разом он попадает в один и тот же бой, сражается и умирает… снова и снова. И каждое повторяющееся сражение приближает его к разгадке того, как победить врага.

    Качество: BDRip (by Ash61)

    Контейнер: MKV

    Формат 3D: Half OverUnder / Вертикальная анаморфная стереопара

    Порядок ракурсов: левый ракурс первый

    Видео кодек: x264

    Аудио кодек: AC3

    Видео: AVC / 23,976 fps / 1920х1080p / 9.8 Mbps

    Аудио:

    #1 - Русский / AC3 / 48 KHz / 5.1 ch / 640 Kbps (Дубляж - BD CEE)

    #2 - Русский / AC3 / 48 KHz / 5.1 ch / 640 Kbps (AVO - Д. Есарев)

    #3 - Украинский / AC3 / 48 KHz / 5.1 ch / 640 Kbps (Дубляж - BD CEE)

    #4 - Английский / AC3 / 48 KHz / 5.1 ch / 640 Kbps (Original - BD 3D)

    Субтитры: (SRT)

    Вшитые (softsub):

    #1 - Русские Форсированные (включены по умолчанию)

    #2 - Русские Полные

    #3 - Украинские Форсированные

    #4 - Украинские Полные

    #5 - English Full

    #6 - English SDH

    #7 - English SDH-Colored

    Внешние (UTF-8):

    #1 - Русские Форсированные (включены по умолчанию)

    #2 - Украинские Форсированные 

    Поиск торрент раздач, пожалуйста подождите!

    Информация о торрент файле

    Скачать торрент Торрент: Зарегистрирован Статус: v Проверено Просмотров: 5 016 Категория: фантастика 3D Общий размер: 9.98 GB

    Поделитесь ссылкой на наш сайт с друзьями в соц.сетях ↓

    mega-torrent.co

    Скачать фильм Грань будущего через торрент в хорошем качестве бесплатно 1080p 60fps от еnvy / NNNB

    Format : MatroskaFormat version : Version 2File size : 9.47 GiBDuration : 1h 53mnOverall bit rate : 11.9 MbpsMovie name : Грань будущего.(2014).BDRip.1080p.[envy].[60fps]Encoded date : UTC 2015-08-18 05:02:14Writing application : mkvmerge v5.8.0 ('No Sleep / Pillow') built on Sep 2 2012 15:37:04Writing library : libebml v1.2.3 + libmatroska v1.3.0

    VideoID : 1Format : AVCFormat/Info : Advanced Video CodecFormat profile : [email protected] settings, CABAC : YesFormat settings, ReFrames : 4 framesCodec ID : V_MPEG4/ISO/AVCDuration : 1h 53mnBit rate : 10.4 MbpsWidth : 1 920 pixelsHeight : 800 pixelsDisplay aspect ratio : 2.40:1Frame rate mode : ConstantFrame rate : 60.000 fpsColor space : YUVChroma subsampling : 4:2:0Bit depth : 8 bitsScan type : ProgressiveBits/(Pixel*Frame) : 0.113Stream size : 8.26 GiB (87%)Title : Грань будущего.(2014).BDRip.1080p.[envy].[60fps]Writing library : x264 core 146 r2538 121396cEncoding settings : cabac=1 / ref=4 / deblock=1:0:0 / analyse=0x3:0x113 / me=umh / subme=11 / psy=1 / psy_rd=1.00:0.00 / mixed_ref=1 / me_range=24 / chroma_me=1 / trellis=2 / 8x8dct=1 / cqm=0 / deadzone=21,11 / fast_pskip=1 / chroma_qp_offset=-2 / threads=12 / lookahead_threads=1 / sliced_threads=0 / nr=0 / decimate=1 / interlaced=0 / bluray_compat=0 / constrained_intra=0 / bframes=5 / b_pyramid=2 / b_adapt=2 / b_bias=0 / direct=3 / weightb=1 / open_gop=0 / weightp=2 / keyint=250 / keyint_min=25 / scenecut=40 / intra_refresh=0 / rc_lookahead=50 / rc=crf / mbtree=1 / crf=18.0 / qcomp=0.60 / qpmin=0 / qpmax=69 / qpstep=4 / vbv_maxrate=14000 / vbv_bufsize=14000 / crf_max=0.0 / nal_hrd=none / filler=0 / ip_ratio=1.40 / aq=3:1.00Language : EnglishDefault : YesForced : No

    Audio #1ID : 2Format : AC-3Format/Info : Audio Coding 3Mode extension : CM (complete main)Format settings, Endianness : BigCodec ID : A_AC3Duration : 1h 53mnBit rate mode : ConstantBit rate : 640 KbpsChannel(s) : 6 channelsChannel positions : Front: L C R, Side: L R, LFESampling rate : 48.0 KHzCompression mode : LossyStream size : 520 MiB (5%)Title : DubLanguage : RussianDefault : YesForced : No

    Audio #2ID : 3Format : AC-3Format/Info : Audio Coding 3Mode extension : CM (complete main)Format settings, Endianness : BigCodec ID : A_AC3Duration : 1h 53mnBit rate mode : ConstantBit rate : 640 KbpsChannel(s) : 6 channelsChannel positions : Front: L C R, Side: L R, LFESampling rate : 48.0 KHzCompression mode : LossyStream size : 520 MiB (5%)Title : EngLanguage : EnglishDefault : NoForced : No

    Text #1ID : 4Format : UTF-8Codec ID : S_TEXT/UTF8Codec ID/Info : UTF-8 Plain TextTitle : Rus forcedLanguage : RussianDefault : YesForced : Yes

    Text #2ID : 5Format : UTF-8Codec ID : S_TEXT/UTF8Codec ID/Info : UTF-8 Plain TextTitle : Rus fullLanguage : RussianDefault : NoForced : No

    Text #3ID : 6Format : UTF-8Codec ID : S_TEXT/UTF8Codec ID/Info : UTF-8 Plain TextTitle : Eng fullLanguage : EnglishDefault : NoForced : No

    Menu00:00:00.000 : en:Chapter 0100:10:28.127 : en:Chapter 0200:17:38.724 : en:Chapter 0300:24:50.155 : en:Chapter 0400:35:57.905 : en:Chapter 0500:46:27.242 : en:Chapter 0600:54:34.479 : en:Chapter 0701:04:59.520 : en:Chapter 0801:12:53.035 : en:Chapter 0901:23:08.858 : en:Chapter 1001:32:34.131 : en:Chapter 1101:42:53.542 : en:Chapter 1201:45:46.173 : en:Chapter 13

    piratbit.ru


    Смотрите также