Город героев скачать торрент в хорошем качестве торрент


Скачать торрент Город героев / Big Hero 6 (2014) BDRip 720p от HQCLUB

krutor.org

Город героев / Big Hero 6 (2014) BDRip 720p от HQCLUB

Информация о фильмеНазвание: Город героевОригинальное название: Big Hero 6Год выхода: 2014Жанр: Мультфильм, Фантастика, Комедия, Семейный, БоевикРежиссёр: Дон Холл / Don Hall, Крис Уильямс / Chris WilliamsВ ролях: Райан Поттер, Скотт Эдсит, Джейми Чунг, ТиДжей Миллер, Дженесис Родригес, Дэймон Уайанс мл., Майя Рудольф, Джеймс Кромуэлл, Алан Тьюдик, Чарльз АдлерРоли дублировали: Даниил Рагин, Максим Сергеев, Игорь Сергеев, Валерий Смекалов, Аделина Червякова, Артём Николаев, Юлия Рудина, Юрий Лазарев, Валерий Соловьев, Елена Терновая

О фильме: Юный Хиро Хамада — прирожденный изобретатель и гений конструирования роботов. Вместе со старшим братом Тадаши они воплощают в жизнь самые передовые идеи в Техническом университете города будущего Сан-Франсокио. После серии загадочных событий друзья оказываются в центре коварного заговора. Отчаявшись, Хиро решает использовать веселого и добродушного экспериментального робота Бэймакса, перепрограммировав его в неуязвимую боевую машину.

Релиз от - Автор рипа: Rensler

Выпущено: США / Walt Disney Pictures, Walt Disney Animation StudiosПродолжительность: 01:41:52Перевод: • Профессиональный (полное дублирование) BD CEE • Авторский (одноголосый, закадровый) «Юрий Сербин» • Авторский (одноголосый, закадровый) «Юрий Живов» Оригинальная аудиодорожка: АнглийскаяСубтитры: Русские (полные, форсированные), Английские (полные, полные SDH, полные SDH цветные)Главы: Сохранены и подписаны чаптеры с оригинального Blu-ray Disc

Файл:Формат: MKVКачество: BDRip 720p (источник: / Blu-ray CEE / 1080p)Видео: 1280x536 (2,40:1) at 23.976, [email protected], 2pass ~ 4225 kbps avg, 0.257 bit/pixelАудио #1: 48 kHz/16-bit, AC3 Dolby Digital, 3/2 (L,C,R,l,r) + LFE ch, ~ 640 kbps avg | RUS, Blu-ray CEEАудио #2: 48 kHz/16-bit, AC3 Dolby Digital, 3/2 (L,C,R,l,r) + LFE ch, ~ 640 kbps avg | RUS, Y.SerbinАудио #3: 48 kHz/16-bit, AC3 Dolby Digital, 3/2 (L,C,R,l,r) + LFE ch, ~ 640 kbps avg | RUS, Y.ZhivovАудио #4: 48 kHz/16-bit, AC3 Dolby Digital, 3/2 (L,C,R,l,r) + LFE ch, ~ 640 kbps avg | ENGСкачать: Семпл Размер: 4,83 GB

MediaInfo

Уникальный идентификатор : 217852217467318462624319709110706173229 (0xA3E4CF979C5BE196961BC26F4598F52D) Полное имя : K:Rip' Release HQCLUBBig.Hero.6.2014.720p.BluRay.3xRus.Eng.-HQCLUB.mkv Формат : Matroska Версия формата : Version 4 / Version 2 Размер файла : 4,83 Гбайт Продолжительность : 1 ч. 41 м. Общий поток : 6789 Кбит/сек Название фильма : Город героев / Big Hero 6 (2014) BDRip [720p] Дата кодирования : UTC 2010-02-22 21:41:31 Программа кодирования : mkvmerge v5.8.0 ('No Sleep / Pillow') built on Sep 30 2012 10:57:14 Библиотека кодирования : libebml v1.3.0 + libmatroska v1.4.0 Attachements : folder.png

Видео Идентификатор : 1 Формат : AVC Формат/Информация : Advanced Video Codec Профиль формата : [email protected] Параметр CABAC формата : Да Параметр ReFrames формата : 11 кадров Идентификатор кодека : V_MPEG4/ISO/AVC Продолжительность : 1 ч. 41 м. Битрейт : 4225 Кбит/сек Ширина : 1280 пикселей Высота : 536 пикселей Соотношение сторон : 2,40:1 Режим частоты кадров : Постоянный Частота кадров : 23,976 кадра/сек Цветовое пространство : YUV Субдискретизация насыщенности : 4:2:0 Битовая глубина : 8 бит Тип развёртки : Прогрессивная Бит/(Пиксели*Кадры) : 0.257 Размер потока : 2,91 Гбайт (60%) Заголовок : Release by HQCLUB Библиотека кодирования : x264 core 142 r2431 ac76440 Настройки программы : cabac=1 / ref=11 / deblock=1:-3:-3 / analyse=0x3:0x113 / me=tesa / subme=11 / psy=1 / psy_rd=0.95:0.00 / mixed_ref=1 / me_range=32 / chroma_me=1 / trellis=2 / 8x8dct=1 / cqm=0 / deadzone=21,11 / fast_pskip=1 / chroma_qp_offset=-2 / threads=3 / lookahead_threads=1 / sliced_threads=0 / nr=0 / decimate=0 / interlaced=0 / bluray_compat=0 / constrained_intra=0 / bframes=10 / b_pyramid=2 / b_adapt=2 / b_bias=0 / direct=3 / weightb=1 / open_gop=0 / weightp=2 / keyint=240 / keyint_min=23 / scenecut=40 / intra_refresh=0 / rc_lookahead=60 / rc=2pass / mbtree=0 / bitrate=4225 / ratetol=1.0 / qcomp=0.60 / qpmin=0 / qpmax=69 / qpstep=4 / cplxblur=20.0 / qblur=0.5 / vbv_maxrate=50000 / vbv_bufsize=62500 / nal_hrd=none / filler=0 / ip_ratio=1.40 / pb_ratio=1.30 / aq=2:0.70 Язык : Russian Default : Да Forced : Нет

Аудио #1 Идентификатор : 2 Формат : AC-3 Формат/Информация : Audio Coding 3 Расширение режима : CM (complete main) Параметр Endianness формата : Big Идентификатор кодека : A_AC3 Продолжительность : 1 ч. 41 м. Вид битрейта : Постоянный Битрейт : 640 Кбит/сек Каналы : 6 каналов Расположение каналов : Front: L C R, Side: L R, LFE Частота : 48,0 КГц Битовая глубина : 16 бит Метод сжатия : С потерями Размер потока : 466 Мбайт (9%) Заголовок : BD CEE Язык : Russian Default : Да Forced : Нет

Аудио #2 Идентификатор : 3 Формат : AC-3 Формат/Информация : Audio Coding 3 Расширение режима : CM (complete main) Параметр Endianness формата : Big Идентификатор кодека : A_AC3 Продолжительность : 1 ч. 41 м. Вид битрейта : Постоянный Битрейт : 640 Кбит/сек Каналы : 6 каналов Расположение каналов : Front: L C R, Side: L R, LFE Частота : 48,0 КГц Битовая глубина : 16 бит Метод сжатия : С потерями Размер потока : 466 Мбайт (9%) Заголовок : Serbin Язык : Russian Default : Нет Forced : Нет

Аудио #3 Идентификатор : 4 Формат : AC-3 Формат/Информация : Audio Coding 3 Расширение режима : CM (complete main) Параметр Endianness формата : Big Идентификатор кодека : A_AC3 Продолжительность : 1 ч. 41 м. Вид битрейта : Постоянный Битрейт : 640 Кбит/сек Каналы : 6 каналов Расположение каналов : Front: L C R, Side: L R, LFE Частота : 48,0 КГц Битовая глубина : 16 бит Метод сжатия : С потерями Размер потока : 466 Мбайт (9%) Заголовок : Zhivov Язык : Russian Default : Нет Forced : Нет

Аудио #4 Идентификатор : 5 Формат : AC-3 Формат/Информация : Audio Coding 3 Расширение режима : CM (complete main) Параметр Endianness формата : Big Идентификатор кодека : A_AC3 Продолжительность : 1 ч. 41 м. Вид битрейта : Постоянный Битрейт : 640 Кбит/сек Каналы : 6 каналов Расположение каналов : Front: L C R, Side: L R, LFE Частота : 48,0 КГц Битовая глубина : 16 бит Метод сжатия : С потерями Размер потока : 466 Мбайт (9%) Заголовок : Original Язык : English Default : Нет Forced : Нет

Текст #1 Идентификатор : 6 Формат : UTF-8 Идентификатор кодека : S_TEXT/UTF8 Идентификатор кодека/Информация : UTF-8 Plain Text Заголовок : Forced Язык : Russian Default : Да Forced : Нет

Текст #2 Идентификатор : 7 Формат : UTF-8 Идентификатор кодека : S_TEXT/UTF8 Идентификатор кодека/Информация : UTF-8 Plain Text Заголовок : Full Язык : Russian Default : Нет Forced : Нет

Текст #3 Идентификатор : 8 Формат : UTF-8 Идентификатор кодека : S_TEXT/UTF8 Идентификатор кодека/Информация : UTF-8 Plain Text Заголовок : Full Язык : English Default : Нет Forced : Нет

Текст #4 Идентификатор : 9 Формат : UTF-8 Идентификатор кодека : S_TEXT/UTF8 Идентификатор кодека/Информация : UTF-8 Plain Text Заголовок : SDH Язык : English Default : Нет Forced : Нет

Текст #5 Идентификатор : 10 Формат : UTF-8 Идентификатор кодека : S_TEXT/UTF8 Идентификатор кодека/Информация : UTF-8 Plain Text Заголовок : SDH colored Язык : English Default : Нет Forced : Нет

Меню 00:00:00.000 : ru: Cуета 00:07:15.642 : ru: Ботаник школы 00:14:37.793 : ru: Демонстрация 00:21:49.141 : ru: Трагедия 00:24:32.846 : ru: Новый Друг 00:29:34.689 : ru: Быть полезным 00:36:58.048 : ru: Модернизация 00:44:18.280 : ru: Погоня 00:50:49.045 : ru: Апгрейд 00:54:32.978 : ru: Тренировка 01:00:44.097 : ru: Тайное логово 01:07:12.570 : ru: Большое преображение 01:11:54.600 : ru: Собираем все вместе 01:16:26.622 : ru: сохранение 01:24:44.119 : ru: Портал 01:31:52.715 : ru: Конец

x264 [info]: frame I:1264 Avg QP:14.54 size:110235 x264 [info]: frame P:36934 Avg QP:16.57 size: 46131 x264 [info]: frame B:108360 Avg QP:18.01 size: 12696 x264 [info]: consecutive B-frames: 4.9% 5.6% 9.8% 19.8% 16.3% 34.2% 5.1% 2.0% 1.0% 0.8% 0.6% x264 [info]: ref P L0: 45.7% 7.3% 18.4% 6.5% 6.1% 3.9% 4.0% 2.0% 2.2% 1.6% 1.8% 0.4% 0.0%

Скачать фильм Город героев через торрент в хорошем качестве бесплатно HDRip

piratbit.ru

Раздают: 7 [ 0 KB/s ]
Размер: 1.46 GB | Добавлен: 2 года 7 мес. назад | Торрент скачан:9362 раза
Реклама Дарим 3000 рублей за регистрацию, не упусти свой шанс получить шикарный бонус!!!

17-01-2015 22:30 Город героев Скачать торрент  

Город героев / Big Hero 6 Год выпуска: 2014Страна: СШАЖанр: мультфильм, фантастика, комедия, семейный, боевикПродолжительность: 01:41:51Перевод: Дубляж - [Лицензия / iTunes]Субтитры: Отсутствует Режиссер: Дон Холл / Don Hall, Крис Уильямс / Chris WilliamsВ ролях: Райан Поттер (Hiro, озвучка), Скотт Эдсит (Baymax, озвучка), Дэниэл Хенни (Tadashi, озвучка), ТиДжей Миллер (Fred, озвучка), Джейми Чунг (Go Go, озвучка), Дэймон Уайанс мл. (Wasabi, озвучка), Дженезис Родригез (Honey Lemon, озвучка), Джеймс Кромуэлл (Robert Callaghan, озвучка), Алан Тьюдик (Alistair Krei, озвучка), Майя Рудольф (Cass, озвучка), Абрахам Бенруби (General, озвучка), Кэти Лоус (Abigail, озвучка)Описание: Юный Хиро Хамада - прирожденный изобретатель и гений конструирования роботов. Вместе со старшим братом Тадаши они воплощают в жизнь самые передовые идеи в Техническом университете города будущего Сан-Франсокио. После серии загадочных событий друзья оказываются в центре коварного заговора. Отчаявшись, Хиро решает использовать веселого и добродушного экспериментального робота Бэймакса, перепрограммировав его в неуязвимую боевую машину.Рейтинг: Бюджет: $165 000 000MPAA: PG - Рекомендуется присутствие родителейКачество: HDRipФормат: AVIВидео кодек:XviDАудио кодек:AC3Видео: XviD, 720x304 (2.35:1), 1660 kbps, 23,976 fps, 0,316 bppАудио: AC3 / 5.1 / 48 kHz / 384 kbps / 16 bit - Дубляж - [Лицензия / iTunes] Торрент обновлен просьба перекачать торрент файл! ОбщееПолное имя : D:\_uTorrent_\G0rod.Geroev.2014.D.HDRip.1.46GB.aviФормат : AVIФормат/Информация : Audio Video InterleaveРазмер файла : 1,46 ГбайтПродолжительность : 1 ч. 41 м.Общий поток : 2053 Кбит/секПрограмма кодирования : VirtualDubMod 1.5.10.3 | www.virtualdub-fr.org || (build 2550/release)Библиотека кодирования : VirtualDubMod build 2550/release

ВидеоИдентификатор : 0Формат : MPEG-4 VisualПрофиль формата : Advanced [email protected]Параметр BVOP формата : 2Параметр QPel формата : НетПараметр GMC формата : Без точки переходаПараметр матрицы формата : Default (MPEG)Идентификатор кодека : XVIDИдентификатор кодека/Подсказка : XviDПродолжительность : 1 ч. 41 м.Битрейт : 1660 Кбит/секШирина : 720 пикселейВысота : 304 пикселяСоотношение сторон : 2,35:1Частота кадров : 23,976 кадра/секЦветовое пространство : YUVСубдискретизация насыщенности : 4:2:0Битовая глубина : 8 битТип развёртки : ПрогрессивнаяМетод сжатия : С потерямиБит/(Пиксели*Кадры) : 0.316Размер потока : 1,18 Гбайт (81%)Библиотека кодирования : XviD 1.2.1 (UTC 2008-12-04)

АудиоИдентификатор : 1Формат : AC-3Формат/Информация : Audio Coding 3Расширение режима : CM (complete main)Параметр Endianness формата : BigИдентификатор кодека : 2000Продолжительность : 1 ч. 41 м.Вид битрейта : ПостоянныйБитрейт : 384 Кбит/секКаналы : 6 каналовРасположение каналов : Front: L C R, Side: L R, LFEЧастота : 48,0 КГцБитовая глубина : 16 битМетод сжатия : С потерямиРазмер потока : 280 Мбайт (19%)Выравнивание : Разделение по промежуткамПродолжительность промежутка : 42 мс. (1,00 видеокадр)Время предзагрузки промежутка : 500 мс.[/code]

Скачать Город героев через торрент http://i68.fastpic.ru/big/2015/0118/a0/b5f36a22866a64df470aa6a5c11ad2a0.png Скачать фильм Город героев через торрент бесплантно в хорошем качестве Описание: Юный Хиро Хамада - прирожденный изобретатель и гений конструирования роботов. Вместе со старшим братом Тадаши они воплощают в ... 2015-02-26 22:46 9.7 10 213

Loading...

Loading...

Последний раз редактировалось: _KaisiK_ (2015-02-26 23:10), всего редактировалось 6 раз(а)

Рекламный пират

18-01-2015 16:29 Город героев Скачать торрент  

Мульт четкий, спсб!!!

18-01-2015 18:22 Город героев Скачать торрент  

Мульт понравился

20-01-2015 19:46 Город героев Скачать торрент  

сегодня смотрел с младшим, качество нормальное, мульт хороший, спасибо

23-01-2015 18:05 Город героев Скачать торрент  

мультик великолепный

24-01-2015 04:47 Город героев Скачать торрент  

Мульт шикарный!Спасибо!!!!

28-02-2015 09:20 Город героев Скачать торрент  

Просто Мега мульт! Лучшее что я смотрел, блин мне 25 а радости от мультика как у ребенка 5-ти лет!))) Просто Шик! Автору спасибо за раздачу!

02-03-2015 07:06 Город героев Скачать торрент  

прикольный мульт.жена смеялась когда смотрела

03-03-2015 17:25 Город героев Скачать торрент  

Очень понравился мульт))) 8/10

Pекламный агент PB

05-03-2015 16:22 Город героев Скачать торрент  

Зачетный мульт, спасибо за раздачу.

07-03-2015 10:24 Город героев Скачать торрент  

Да хороший мульт, сидели смотрели с мальком, оба довольны)

07-03-2015 19:20 Город героев Скачать торрент  

мульт хороший, спасибо

11-03-2015 20:14 Город героев Скачать торрент  

на логотипе,с далека кажется что это укуреный осел,а не робот красный :pleasantry: а мульт хорош

14-03-2015 15:54 Город героев Скачать торрент  

165 лямов баксов, чтобы снять мультик??? Да он должно быть волшебный и лечит болезни! Посмотрю!

15-03-2015 06:42 Город героев Скачать торрент  

Офигенский мульт!!!

16-03-2015 14:08 Город героев Скачать торрент  

классный мульт.есть в нём пару мест где можно обоссаться со смеху))

29-03-2015 12:23 Город героев Скачать торрент  

задумка неплохая, но есть одно но весь фильм ощущение буд то бы он для детей, начальных классов.

Pекламный агент PB

05-04-2015 15:19 Город героев Скачать торрент  

Классный мульт! Всем смотреть, и большим и маленьким :))

Дорогой пользователь! Огромная просьба, поблагодарите релизера, оцените раздачу и оставьте свои комментарий, если Вы скачали Город героев через торрент бесплатно! Внесите свою лепту в развитие PiratBit!

Комментировать посты могут только пользователи прошедшие не сложную регистрацию

Город героев через торрент Скачать бесплатно Город героев Город героев скачать торрент Город героев смотреть онлайн Cкачать фильм Город героев бесплатно Город героев скачать торрент в хорошем качестве Город героев смотреть онлайн бесплатно в хорошем качестве

Вы не можете начинать темыВы не можете отвечать на сообщенияВы не можете редактировать свои сообщенияВы не можете удалять свои сообщенияВы не можете голосовать в опросахВы не можете прикреплять файлы к сообщениямВы можете скачивать файлы

Скачать фильм Город героев через торрент в хорошем качестве бесплатно 720p от potroks

GeneralUnique ID                                : 213097932799684548779609407520341566050 (0xA0512B42B492FE25B025C61565352262)Complete name                            : N:\Мульты\Gorod.Geroyev.2014.TRIPLE.BDRip.720p.-HELLYWOOD.mkvFormat                                   : MatroskaFormat version                           : Version 4 / Version 2File size                                : 4.01 GiBDuration                                 : 1h 41mnOverall bit rate                         : 5 631 KbpsMovie name                               : Big Hero 6 (2014) - HELLYWOODEncoded date                             : UTC 2015-03-22 09:03:09Writing application                      : mkvmerge v5.9.0 ('On The Loose') built on Dec 15 2012 16:39:58Writing library                          : libebml v1.3.0 + libmatroska v1.4.0

VideoID                                       : 1Format                                   : AVCFormat/Info                              : Advanced Video CodecFormat profile                           : [email protected] settings, CABAC                   : YesFormat settings, ReFrames                : 9 framesCodec ID                                 : V_MPEG4/ISO/AVCDuration                                 : 1h 41mnBit rate                                 : 3 964 KbpsWidth                                    : 1 280 pixelsHeight                                   : 536 pixelsDisplay aspect ratio                     : 2.40:1Frame rate                               : 23.976 fpsColor space                              : YUVChroma subsampling                       : 4:2:0Bit depth                                : 8 bitsScan type                                : ProgressiveBits/(Pixel*Frame)                       : 0.241Stream size                              : 2.74 GiB (68%)Title                                    : potroksWriting library                          : x264 core 130 r2273 b3065e6Encoding settings                        : cabac=1 / ref=9 / deblock=1:-1:-1 / analyse=0x3:0x133 / me=umh / subme=11 / psy=1 / psy_rd=1.04:0.08 / mixed_ref=1 / me_range=48 / chroma_me=1 / trellis=2 / 8x8dct=1 / cqm=0 / deadzone=21,11 / fast_pskip=0 / chroma_qp_offset=-3 / threads=9 / lookahead_threads=6 / sliced_threads=0 / nr=0 / decimate=0 / interlaced=0 / bluray_compat=0 / constrained_intra=0 / bframes=10 / b_pyramid=2 / b_adapt=2 / b_bias=0 / direct=3 / weightb=1 / open_gop=0 / weightp=2 / keyint=250 / keyint_min=23 / scenecut=40 / intra_refresh=0 / rc_lookahead=60 / rc=2pass / mbtree=0 / bitrate=3964 / ratetol=1.0 / qcomp=0.70 / qpmin=0 / qpmax=69 / qpstep=4 / cplxblur=20.0 / qblur=0.5 / vbv_maxrate=50000 / vbv_bufsize=62500 / nal_hrd=none / ip_ratio=1.35 / pb_ratio=1.25 / aq=1:0.70Language                                 : EnglishDefault                                  : YesForced                                   : No

Audio #1ID                                       : 2Format                                   : AC-3Format/Info                              : Audio Coding 3Mode extension                           : CM (complete main)Codec ID                                 : A_AC3Duration                                 : 1h 41mnBit rate mode                            : ConstantBit rate                                 : 640 KbpsChannel(s)                               : 6 channelsChannel positions                        : Front: L C R, Side: L R, LFESampling rate                            : 48.0 KHzBit depth                                : 16 bitsCompression mode                         : LossyStream size                              : 466 MiB (11%)Title                                    : Dub | DD 5.1 @ 640 kbps - Blu-Ray CEELanguage                                 : RussianDefault                                  : YesForced                                   : No

Audio #2ID                                       : 3Format                                   : AC-3Format/Info                              : Audio Coding 3Mode extension                           : CM (complete main)Codec ID                                 : A_AC3Duration                                 : 1h 41mnBit rate mode                            : ConstantBit rate                                 : 384 KbpsChannel(s)                               : 6 channelsChannel positions                        : Front: L C R, Side: L R, LFESampling rate                            : 48.0 KHzBit depth                                : 16 bitsCompression mode                         : LossyStream size                              : 280 MiB (7%)Title                                    : Dub | DD 5.1 @ 384 kbps - iTunesLanguage                                 : UkrainianDefault                                  : NoForced                                   : No

Audio #3ID                                       : 4Format                                   : AC-3Format/Info                              : Audio Coding 3Mode extension                           : CM (complete main)Codec ID                                 : A_AC3Duration                                 : 1h 41mnBit rate mode                            : ConstantBit rate                                 : 640 KbpsChannel(s)                               : 6 channelsChannel positions                        : Front: L C R, Side: L R, LFESampling rate                            : 48.0 KHzBit depth                                : 16 bitsCompression mode                         : LossyStream size                              : 466 MiB (11%)Title                                    : Original | DD 5.1 @ 640 kbpsLanguage                                 : EnglishDefault                                  : NoForced                                   : No

Text #1ID                                       : 5Format                                   : UTF-8Codec ID                                 : S_TEXT/UTF8Codec ID/Info                            : UTF-8 Plain TextTitle                                    : форс.Language                                 : RussianDefault                                  : YesForced                                   : No

Text #2ID                                       : 6Format                                   : UTF-8Codec ID                                 : S_TEXT/UTF8Codec ID/Info                            : UTF-8 Plain TextTitle                                    : Blu-RayLanguage                                 : RussianDefault                                  : NoForced                                   : No

Text #3ID                                       : 7Format                                   : UTF-8Codec ID                                 : S_TEXT/UTF8Codec ID/Info                            : UTF-8 Plain TextTitle                                    : форс.Language                                 : UkrainianDefault                                  : NoForced                                   : No

Text #4ID                                       : 8Format                                   : UTF-8Codec ID                                 : S_TEXT/UTF8Codec ID/Info                            : UTF-8 Plain TextTitle                                    : Blu-RayLanguage                                 : UkrainianDefault                                  : NoForced                                   : No

Text #5ID                                       : 9Format                                   : UTF-8Codec ID                                 : S_TEXT/UTF8Codec ID/Info                            : UTF-8 Plain TextLanguage                                 : EnglishDefault                                  : NoForced                                   : No

Text #6ID                                       : 10Format                                   : UTF-8Codec ID                                 : S_TEXT/UTF8Codec ID/Info                            : UTF-8 Plain TextTitle                                    : SDHLanguage                                 : EnglishDefault                                  : NoForced                                   : No

Text #7ID                                       : 11Format                                   : UTF-8Codec ID                                 : S_TEXT/UTF8Codec ID/Info                            : UTF-8 Plain TextTitle                                    : SDH-ColoredLanguage                                 : EnglishDefault                                  : NoForced                                   : No

Menu00:00:00.000                             : en:(01)00:00:00:00000:07:15.685                             : en:(02)00:07:15:68500:14:37.835                             : en:(03)00:14:37:83500:21:49.182                             : en:(04)00:21:49:18200:24:32.885                             : en:(05)00:24:32:88500:29:34.730                             : en:(06)00:29:34:73000:36:58.090                             : en:(07)00:36:58:09000:44:18.322                             : en:(08)00:44:18:32200:50:49.085                             : en:(09)00:50:49:08500:54:33.018                             : en:(10)00:54:33:01801:00:44.139                             : en:(11)01:00:44:13901:07:12.610                             : en:(12)01:07:12:61001:11:54.643                             : en:(13)01:11:54:64301:16:26.662                             : en:(14)01:16:26:66201:24:44.162                             : en:(15)01:24:44:16201:31:52.756                             : en:(16)01:31:52:75601:41:52.479                             : en:(17)01:41:52:479

piratbit.ru

город+героев+big+hero+6 торрент скачать | Скачать торренты в BDRip и HDRip качестве

Город героев / Big Hero 6 (2014) BDRip 1080p | Чистый звук4.98 GBГород героев / Big Hero 6 / 2014 / ДБ / BDRip / 1.42 ГБ1.42 GBГород героев / Big Hero 6 (Дон Холл / Don Hall, Крис Уильямс / Chris Williams) [2014 г., мультфильм, фантастика, комедия, семейный, боевик, BDRip] Dub1.45 GBГород героев / Big Hero 6 (2014) BDRip 1080p5.77 GBГород героев / Big Hero 6 (2014) BDRip 720p от HQCLUB | Лицензия4.83 GBГород героев / Big Hero 6 (Дон Холл / Don Hall, Крис Уильямс / Chris Williams) [2014, США, Мультфильм, фантастика, комедия, семейный, боевик, BDRip] [Оригинальный видеоряд] Dub1.46 GBГород героев / Big Hero 6 (2014) BDRip 1080p | 3D-Video | HSBS | Лицензия8.34 GBГород героев / Big Hero 6 (2014) BDRip 720p от Leonardo and Scarabey | Чистый звук2.26 GBГород героев / Big Hero 6 (Дон Холл / Don Hall, Крис Уильямс / Chris Williams) [2014, фантастика, комедия, семейный BDRip 720p] DUB (Rus, Ukr) + 2 AVO + ENG + Subs5.14 GBГород героев / Big Hero 6 (2014) BDRip от HQ-ViDEO | D, A2.18 GBГород героев / Big Hero 6 (Дон Холл / Don Hall, Крис Уильямс / Chris Williams) [2014, фантастика, комедия, семейный BDRip 1080p] DUB (Rus, Ukr) + 2 AVO + ENG + Subs13.21 GBГород героев / Big Hero 6 / 2014 / ДБ, АП (Живов, Сербин), СТ / BDRip (1080p) / 11.52 ГБ11.52 GBГород героев / Big Hero 6 (Дон Холл / Don Hall, Крис Уильямс / Chris Williams) [2014 г., мультфильм, фантастика, комедия, семейный, боевик, BDRip 720p] Dub + Subs2.63 GBГород героев / Big Hero 6 (Дон Холл / Don Hall, Крис Уильямс / Chris Williams) [2014, фантастика, комедия, семейный BDRip-AVC] DUB (Rus) + ENG + Subs1.51 GBГород героев / Big Hero 6 / 2014 / ДБ, АП (Живов, Сербин), СТ / BDRip (720p) / 7.93 ГБ7.93 GBГород героев / Big Hero 6 (2014) BDRip 1080p | 3D-Video | halfOU | Лицензия5.62 GBГород героев / Big Hero 6 (Дон Холл / Don Hall, Крис Уильямс / Chris Williams) [2014, США, мультфильм, фантастика, комедия, семейный, боевик, BDRip-AVC] [Локализованный видеоряд] Dub + Original Eng + Sub (Rus, Ukr, Eng)2.18 GBГород героев / Big Hero 6 (Дон Холл / Don Hall, Крис Уильямс / Chris Williams) [2014, США, фантастика, комедия, семейный, BDRip-AVC] Dub + Original Eng + Sub Rus, Eng748.7 MBГород героев / Big Hero 6 / 2014 / ДБ / HDRip / 2.18 ГБ2.18 GBГород героев / Big Hero 6 (2014) BDRip 720p от HELLYWOOD | Лицензия4.01 GBГород героев / Big Hero 6 / 2014 / ДБ, АП (Сербин, Живов), СТ / HDRip (AVC) / 2.68 ГБ2.68 GB(Score/MF) Город героев / Big Hero 6 (by Henry Jackman) - 2014, FLAC (tracks+.cue) lossless284.6 MBГород героев / Big Hero 6 (2014) BDRip от New-Team | D | iTunes Russia743.6 MB(Score/MF) Город героев / Big Hero 6 (by Henry Jackman) - 2014, MP3 (tracks) 320 kbps124.2 MBГород героев / Big Hero 6 (Дон Холл / Don Hall, Крис Уильямс / Chris Williams) [2014, мультфильм, боевик, комедия, семейный, HDRip] Dub744.8 MBГород героев / Big Hero 6 (2014) BDRip-AVC от HQCLUB | Лицензия2.18 GBГород героев / Big Hero 6 (2014) HDRip от Scarabey | Чистый звук744.77 MBГород героев / Big Hero 6 (2014) BDRip от Twi7ter | D | Лицензия1.46 GBГород героев / Big Hero 6 (2014) HDRip от -=HD-NET=- | КПК | iTunes399.63 MBГород героев / Big Hero 6 (2014) BDRip 1080p от Ash61 | 3D-Video | halfOU | iTunes5.17 GBГород героев / Big Hero 6 (2014) HDRip от Scarabey | Чистый звук744.77 MBГород героев / Big Hero 6 (Дон Холл / Don Hall, Крис Уильямс / Chris Williams) [2014 г., мультфильм, фантастика, комедия, семейный, боевик, BDRip 720p] Dub (чистый звук) + Original (Eng)3.37 GB(Score) Город героев / Big Hero 6 (by Henry Jackman) - 2014 {WEB}, AAC (tracks), VBR 256 kbps115 MBГород героев / Big Hero 6 (Дон Холл / Don Hall, Крис Уильямс / Chris Williams) [2014 г., мультфильм, фантастика, комедия, семейный, боевик, BDRip 1080p] 2xDub (Rus, Ukr) + 2xAVO (Сербин, Живов) + Original (Eng) + Subs11.52 GBГород героев / Big Hero 6 (Дон Холл, Крис Уильямс / Don Hall, Chris Williams) [2014, мультфильм, фантастика, комедия, Blu-Ray > DVD5 (Custom)] Dub + Original Eng + rus, eng sub4.36 GBГород героев / Big Hero 6 / 2014 / ДБ / HDRip / 744 МБ744 MBГород героев / Big Hero 6 (2014) BDRip 1080p by ZHz | 60 FPS6.66 GBГород героев / Big Hero 6 (2014) BDRip 1080p от NNNB8.02 GBГород героев в 3Д / Big Hero 6 3D (Дон Холл / Don Hall, Крис Уильямс / Chris Williams) [2014, мультфильм, фантастика, комедия, семейный, боевик, BDRip] Half SideBySide / Горизонтальная анаморфная стереопара8.34 GBГород героев / Big Hero 6 (2014) HDRip-1080p | D | Трейлер108.75 MBГород героев / Big Hero 6 (2014) BDRemux 1080p от HDTracker31.08 GBГород героев / Big Hero 6 (2014) BDRip 1080p | D, А | iTunes Russia8.3 GBГород героев / Big Hero 6 / 2014 / ДБ / HDRip / 1.36 ГБ1.36 GBГород героев / Big Hero 6 (2014) BDRip 720p | KinoGadget | iPad1.28 GBГород героев в 3Д / Big Hero 6 3D (Дон Холл, Крис Уильямс / Don Hall, Chris Williams) [2014, Мультфильм, Фантастика, Комедия, Семейный, Боевик, BDrip-AVC] Half OverUnder / Вертикальная анаморфная стереопара5.62 GBГород героев / Big Hero 6 (Дон Холл / Don Hall, Крис Уильямс / Chris Williams) [2014, фантастика, комедия, семейный BDRip-AVC] DUB (Rus, Ukr) + 2 AVO + ENG + Subs3.6 GBГород героев / Big Hero 6 (Дон Холл / Don Hall, Крис Уильямс / Chris Williams) [2014, мультфильм, фантастика, комедия, семейный, боевик, Blu-ray Disc 1080p] DUB + ENG + Subs39.1 GBГород героев / Big Hero 6 / 2014 / ДБ, АП (Сербин, Живов), СТ / 3D (HSBS) / BDRip (1080p) / 11.4 ГБ11.4 GBГород героев / Big Hero 6 (Дон Холл / Don Hall, Крис Уильямс / Chris Williams) [2014 г., мультфильм, фантастика, комедия, семейный, боевик, BDRip 1080p] Dub + 2xAVO (Сербин, Живов) + Original (Eng) + Sub (Rus, Eng)8.48 GB(Score) Город героев / Big Hero 6 (by Henry Jackman) (2014) [iTunes AAC M4A, 256 kbps VBR] Web115 MB tparser.org – торрент поисковик по популярным торрент трекерам. Находить и скачивать новинки кино в HDRip и BDRip качестве через tparser намного проще! Добро пожаловать на крупный торрент архив фильмов и игр tparser.org. Вам больше не придется искать торренты на основных торрент трекерах в поисках нужной раздачи – мы предлагаем найти и скачать фильмы в хорошем качестве прямо на нашем сайте. Наш сервис поиска торрентов в реальном времени собирает информацию с крупных торрент трекеров и сортирует полученные результаты в удобную таблицу. Скачивайте торренты без ограничений и без всяких регистраций на трекерах. Начните скачивать торрент город героев big hero 6 прямо сейчас!

tparser.org

Скачать фильм Город героев через торрент в хорошем качестве бесплатно 720p / 60 fps

Format : MatroskaFormat version : Version 2File size : 3.78 GiBDuration : 1h 41mnOverall bit rate : 5 312 KbpsMovie name : Город героев.(2014).BDRip.720p.[envy].[60fps]Encoded date : UTC 2015-02-09 19:26:47Writing application : mkvmerge v5.8.0 ('No Sleep / Pillow') built on Sep 2 2012 15:37:04Writing library : libebml v1.2.3 + libmatroska v1.3.0

VideoID : 1Format : AVCFormat/Info : Advanced Video CodecFormat profile : [email protected] settings, CABAC : YesFormat settings, ReFrames : 9 framesCodec ID : V_MPEG4/ISO/AVCDuration : 1h 41mnBit rate : 4 375 KbpsWidth : 1 280 pixelsHeight : 536 pixelsDisplay aspect ratio : 2.40:1Frame rate mode : ConstantFrame rate : 59.880 fpsOriginal frame rate : 59.940 fpsColor space : YUVChroma subsampling : 4:2:0Bit depth : 8 bitsScan type : ProgressiveBits/(Pixel*Frame) : 0.106Stream size : 3.11 GiB (82%)Title : Город героев.(2014).BDRip.720p.[envy].[60fps]Writing library : x264 core 130 r2273 b3065e6Encoding settings : cabac=1 / ref=9 / deblock=1:0:0 / analyse=0x3:0x133 / me=umh / subme=11 / psy=1 / psy_rd=1.00:0.00 / mixed_ref=1 / me_range=28 / chroma_me=1 / trellis=2 / 8x8dct=1 / cqm=0 / deadzone=21,11 / fast_pskip=0 / chroma_qp_offset=-2 / threads=12 / lookahead_threads=1 / sliced_threads=0 / nr=0 / decimate=1 / interlaced=0 / bluray_compat=0 / constrained_intra=0 / bframes=5 / b_pyramid=2 / b_adapt=2 / b_bias=0 / direct=3 / weightb=1 / open_gop=0 / weightp=2 / keyint=250 / keyint_min=25 / scenecut=40 / intra_refresh=0 / rc=crf / mbtree=0 / crf=18.0 / qcomp=0.60 / qpmin=0 / qpmax=69 / qpstep=4 / ip_ratio=1.40 / pb_ratio=1.30 / aq=2:0.90Language : EnglishDefault : YesForced : No

Audio #1ID : 2Format : AC-3Format/Info : Audio Coding 3Mode extension : CM (complete main)Format settings, Endianness : BigCodec ID : A_AC3Duration : 1h 41mnBit rate mode : ConstantBit rate : 192 KbpsChannel(s) : 2 channelsChannel positions : Front: L RSampling rate : 48.0 KHzBit depth : 16 bitsCompression mode : LossyStream size : 140 MiB (4%)Title : Dub clear soundLanguage : RussianDefault : YesForced : No

Audio #2ID : 3Format : AC-3Format/Info : Audio Coding 3Mode extension : CM (complete main)Format settings, Endianness : BigCodec ID : A_AC3Duration : 1h 41mnBit rate mode : ConstantBit rate : 640 KbpsChannel(s) : 6 channelsChannel positions : Front: L C R, Side: L R, LFESampling rate : 48.0 KHzBit depth : 16 bitsCompression mode : LossyStream size : 466 MiB (12%)Title : EngLanguage : EnglishDefault : NoForced : No

Text #1ID : 4Format : UTF-8Codec ID : S_TEXT/UTF8Codec ID/Info : UTF-8 Plain TextTitle : fullLanguage : RussianDefault : NoForced : No

Text #2ID : 5Format : UTF-8Codec ID : S_TEXT/UTF8Codec ID/Info : UTF-8 Plain TextTitle : fullLanguage : EnglishDefault : NoForced : No

Menu00:00:00.000 : en:00:00:00.00000:07:15.685 : en:00:07:15.68500:14:37.835 : en:00:14:37.83500:21:49.183 : en:00:21:49.18300:24:32.888 : en:00:24:32.88800:29:34.731 : en:00:29:34.73100:36:58.091 : en:00:36:58.09100:44:18.322 : en:00:44:18.32200:50:49.088 : en:00:50:49.08800:54:33.020 : en:00:54:33.02001:00:44.140 : en:01:00:44.14001:07:12.612 : en:01:07:12.61201:11:54.644 : en:01:11:54.64401:16:26.665 : en:01:16:26.66501:24:44.162 : en:01:24:44.16201:31:52.757 : en:01:31:52.757

piratbit.ru

Скачать фильм Город героев через торрент в хорошем качестве бесплатно BDRip-AVC] Дубляж+ Sub (Rus

GeneralUnique ID                                : 230935129074341629632957591937759032812 (0xADBC7CEF80AE6B909661668F3CE7B5EC)Complete name                            : D:\Торенты\Раздачи\Город героев_BDRip-AVC__Piratbit.net_by Ворон.mkvFormat                                   : MatroskaFormat version                           : Version 4 / Version 2File size                                : 2.16 GiBDuration                                 : 1h 41mnOverall bit rate                         : 3 033 KbpsMovie name                               : Рип by Ворон для ПиратБит.НетEncoded date                             : UTC 2015-03-31 12:10:35Writing application                      : mkvmerge v6.7.0 ('Back to the Ground') 64bit built on Jan  8 2014 15:10:52Writing library                          : libebml v1.3.0 + libmatroska v1.4.1Attachment                               : Yes

VideoID                                       : 1Format                                   : AVCFormat/Info                              : Advanced Video CodecFormat profile                           : [email protected] settings, CABAC                   : YesFormat settings, ReFrames                : 4 framesCodec ID                                 : V_MPEG4/ISO/AVCDuration                                 : 1h 41mnBit rate                                 : 2 263 KbpsWidth                                    : 1 024 pixelsHeight                                   : 428 pixelsDisplay aspect ratio                     : 2.40:1Frame rate                               : 23.976 fpsColor space                              : YUVChroma subsampling                       : 4:2:0Bit depth                                : 8 bitsScan type                                : ProgressiveBits/(Pixel*Frame)                       : 0.215Stream size                              : 1.57 GiB (73%)Title                                    : Рип by Ворон для ПиратБит.НетWriting library                          : x264 core 125 r2208 d9d2288Encoding settings                        : cabac=1 / ref=4 / deblock=1:-2:-2 / analyse=0x3:0x113 / me=hex / subme=9 / psy=1 / psy_rd=1.00:0.05 / mixed_ref=1 / me_range=16 / chroma_me=1 / trellis=1 / 8x8dct=1 / cqm=0 / deadzone=21,11 / fast_pskip=0 / chroma_qp_offset=-3 / threads=6 / lookahead_threads=1 / sliced_threads=0 / nr=0 / decimate=0 / interlaced=0 / bluray_compat=0 / constrained_intra=0 / bframes=7 / b_pyramid=2 / b_adapt=1 / b_bias=0 / direct=1 / weightb=1 / open_gop=0 / weightp=2 / keyint=240 / keyint_min=24 / scenecut=40 / intra_refresh=0 / rc_lookahead=40 / rc=2pass / mbtree=1 / bitrate=2263 / ratetol=1.0 / qcomp=0.60 / qpmin=0 / qpmax=69 / qpstep=4 / cplxblur=20.0 / qblur=0.5 / ip_ratio=1.35 / aq=1:1.00Language                                 : RussianDefault                                  : YesForced                                   : No

Audio #1ID                                       : 2Format                                   : AC-3Format/Info                              : Audio Coding 3Mode extension                           : CM (complete main)Codec ID                                 : A_AC3Duration                                 : 1h 41mnBit rate mode                            : ConstantBit rate                                 : 384 KbpsChannel(s)                               : 6 channelsChannel positions                        : Front: L C R, Side: L R, LFESampling rate                            : 48.0 KHzBit depth                                : 16 bitsCompression mode                         : LossyStream size                              : 280 MiB (13%)Title                                    : ДубляжLanguage                                 : RussianDefault                                  : YesForced                                   : Yes

Audio #2ID                                       : 3Format                                   : AC-3Format/Info                              : Audio Coding 3Mode extension                           : CM (complete main)Codec ID                                 : A_AC3Duration                                 : 1h 41mnBit rate mode                            : ConstantBit rate                                 : 384 KbpsChannel(s)                               : 6 channelsChannel positions                        : Front: L C R, Side: L R, LFESampling rate                            : 48.0 KHzBit depth                                : 16 bitsCompression mode                         : LossyStream size                              : 280 MiB (13%)Title                                    : AC3 5.1 @ 384 kbps - DUB, iTunesLanguage                                 : UkrainianDefault                                  : NoForced                                   : No

Text #1ID                                       : 4Format                                   : UTF-8Codec ID                                 : S_TEXT/UTF8Codec ID/Info                            : UTF-8 Plain TextLanguage                                 : RussianDefault                                  : NoForced                                   : No

Text #2ID                                       : 5Format                                   : UTF-8Codec ID                                 : S_TEXT/UTF8Codec ID/Info                            : UTF-8 Plain TextTitle                                    : ForcedLanguage                                 : UkrainianDefault                                  : NoForced                                   : No

Text #3ID                                       : 6Format                                   : UTF-8Codec ID                                 : S_TEXT/UTF8Codec ID/Info                            : UTF-8 Plain TextLanguage                                 : UkrainianDefault                                  : NoForced                                   : No

piratbit.ru


Смотрите также