Гнездо дракона 2 трон эльфов скачать торрент в хорошем качестве


РУТОРГ :: Гнездо дракона 2: Трон эльфов / Throne of Elves (2016) WEB-DLRip 1080p

xn--c1avfbif.org

Информация о фильме

Название : Гнездо дракона 2: Трон эльфовОригинальное название : Throne of ElvesГод выхода : 2016Жанр : Мультфильм, фэнтези, приключения, семейныйРежиссер : И Гэ, Сун Юэфэн / Yi Ge, Yuefeng Song

Описание : Спустя два года после событий первого фильма юный Ламберт получает послание из Страны Эльфов о том, что состоится свадьба принцессы, на которую он также приглашен. Обрадованный возможностью вновь увидеться с молодой эльфийкой Лийей, он собирается в путь на воздушном корабле. В краю эльфов между тем не все спокойно — владычица Темных Эльфов Елена планирует нарушить свадебную церемонию, чтобы, застав врасплох придворных, захватить древний артефакт Альтеры — кристалл Черного Дракона.

Страна : США, КитайПроизводство : Mili Pictures Продолжительность : 01:44:23Перевод: Любительский (многоголосый закадровый) озвучивали: Студийная Банда AD, Esther, Влад Дуров, BalFor, Торгиль, Demetra, Cuba77 [Studio AD]

Релиз : Cuba77

ФайлФормат видео : mp4Качество : WEB-DLRip 1080p

Видео : AVC, 1920x1080 (16:9), 24.0 fps, ~3663 kbps avg, 0.074 bit/pixelАудио: Русский, AAC, 48.0 kHz, 2 ch, ~128 kbps Субтитры: Китайские (неотключаемые)

MediaInfo

General Complete name : E:/Torrent_2/[AniDub]_Dragon_Nest_Throne_Of_Elves_[1080p]_[Studio_AD].mp4 Format : MPEG-4 Format profile : Base Media Codec ID : isom File size : 2.77 GiB Duration : 1h 44mn Overall bit rate mode : Variable Overall bit rate : 3 795 Kbps Encoded date : UTC 1970-01-01 00:00:00 Tagged date : UTC 1970-01-01 00:00:00 Writing application : AVM.EXE

Video #1 ID : 1 Format : AVC Format/Info : Advanced Video Codec Format profile : [email protected] Format settings, CABAC : No Format settings, ReFrames : 3 frames Codec ID : avc1 Codec ID/Info : Advanced Video Coding Duration : 1h 44mn Bit rate mode : Constant Bit rate : 3 663 Kbps Nominal bit rate : 4 000 Kbps / 4 000 Kbps Width : 1 920 pixels Height : 1 080 pixels Display aspect ratio : 16:9 Frame rate mode : Constant Frame rate : 24.000 fps Standard : NTSC Color space : YUV Chroma subsampling : 4:2:0 Bit depth : 8 bits Scan type : Progressive Bits/(Pixel*Frame) : 0.074 Stream size : 2.67 GiB (97%) Writing library : x264 core 115 Encoding settings : cabac=0 / ref=3 / deblock=1:0:0 / analyse=0x3:0x113 / me=hex / subme=7 / psy=1 / psy_rd=1.00:0.00 / mixed_ref=1 / me_range=16 / chroma_me=1 / trellis=1 / 8x8dct=1 / cqm=2 / deadzone=21,11 / fast_pskip=1 / chroma_qp_offset=-2 / threads=12 / sliced_threads=0 / slices=1 / nr=0 / decimate=1 / interlaced=0 / bluray_compat=0 / constrained_intra=0 / bframes=3 / b_pyramid=0 / b_adapt=1 / b_bias=0 / direct=1 / weightb=1 / open_gop=0 / weightp=2 / keyint=250 / keyint_min=24 / scenecut=40 / intra_refresh=0 / rc_lookahead=40 / rc=cbr / mbtree=1 / bitrate=4000 / ratetol=1.0 / qcomp=0.60 / qpmin=3 / qpmax=69 / qpstep=4 / vbv_maxrate=4000 / vbv_bufsize=3997 / nal_hrd=cbr / ip_ratio=1.40 / aq=1:1.00 Encoded date : UTC 1970-01-01 00:00:00 Tagged date : UTC 1970-01-01 00:00:00 Color primaries : BT.709 Transfer characteristics : BT.709 Matrix coefficients : BT.709

Audio #2 ID : 2 Format : AAC Format/Info : Advanced Audio Codec Format profile : LC Codec ID : 40 Duration : 1h 44mn Bit rate mode : Variable Bit rate : 128 Kbps Channel(s) : 2 channels Channel positions : Front: L R Sampling rate : 48.0 KHz Compression mode : Lossy Stream size : 95.5 MiB (3%) Encoded date : UTC 1970-01-01 00:00:00 Tagged date : UTC 1970-01-01 00:00:00

Моя максимальная скорость отдачи 100КБ/c Раздаю с 7:00 до 1:00 по Москве

Скачать торрент Гнездо дракона 2: Трон эльфов / Dragon Nest: Throne of Elves (2016) WEB-DLRip 1080p

Информация о фильме

Название : Гнездо дракона 2: Трон эльфовОригинальное название : Dragon Nest: Throne of ElvesГод выхода : 2016Жанр : Мультфильм, фэнтези, приключения, семейныйРежиссер : И Гэ, Сун Юэфэн / Yi Ge, Yuefeng Song

Описание : Спустя два года после событий первого фильма юный Ламберт получает послание из Страны Эльфов о том, что состоится свадьба принцессы, на которую он также приглашен. Обрадованный возможностью вновь увидеться с молодой эльфийкой Лийей, он собирается в путь на воздушном корабле. В краю эльфов между тем не все спокойно — владычица Темных Эльфов Елена планирует нарушить свадебную церемонию, чтобы, застав врасплох придворных, захватить древний артефакт Альтеры — кристалл Черного Дракона.

Страна : США, КитайПроизводство : Mili Pictures Продолжительность : 01:44:23Перевод: Любительский (многоголосый закадровый) озвучивали: Студийная Банда AD, Esther, Влад Дуров, BalFor, Торгиль, Demetra, Cuba77 [Studio AD]

Релиз : Cuba77

ФайлФормат видео : mp4Качество : WEB-DLRip 1080p

Видео : AVC, 1920x1080 (16:9), 24.0 fps, ~3663 kbps avg, 0.074 bit/pixelАудио: Русский, AAC, 48.0 kHz, 2 ch, ~128 kbps Субтитры: Китайские (неотключаемые)

MediaInfo

General Complete name : E:/Torrent_2/[AniDub]_Dragon_Nest_Throne_Of_Elves_[1080p]_[Studio_AD].mp4 Format : MPEG-4 Format profile : Base Media Codec ID : isom File size : 2.77 GiB Duration : 1h 44mn Overall bit rate mode : Variable Overall bit rate : 3 795 Kbps Encoded date : UTC 1970-01-01 00:00:00 Tagged date : UTC 1970-01-01 00:00:00 Writing application : AVM.EXE

Video #1 ID : 1 Format : AVC Format/Info : Advanced Video Codec Format profile : [email protected] Format settings, CABAC : No Format settings, ReFrames : 3 frames Codec ID : avc1 Codec ID/Info : Advanced Video Coding Duration : 1h 44mn Bit rate mode : Constant Bit rate : 3 663 Kbps Nominal bit rate : 4 000 Kbps / 4 000 Kbps Width : 1 920 pixels Height : 1 080 pixels Display aspect ratio : 16:9 Frame rate mode : Constant Frame rate : 24.000 fps Standard : NTSC Color space : YUV Chroma subsampling : 4:2:0 Bit depth : 8 bits Scan type : Progressive Bits/(Pixel*Frame) : 0.074 Stream size : 2.67 GiB (97%) Writing library : x264 core 115 Encoding settings : cabac=0 / ref=3 / deblock=1:0:0 / analyse=0x3:0x113 / me=hex / subme=7 / psy=1 / psy_rd=1.00:0.00 / mixed_ref=1 / me_range=16 / chroma_me=1 / trellis=1 / 8x8dct=1 / cqm=2 / deadzone=21,11 / fast_pskip=1 / chroma_qp_offset=-2 / threads=12 / sliced_threads=0 / slices=1 / nr=0 / decimate=1 / interlaced=0 / bluray_compat=0 / constrained_intra=0 / bframes=3 / b_pyramid=0 / b_adapt=1 / b_bias=0 / direct=1 / weightb=1 / open_gop=0 / weightp=2 / keyint=250 / keyint_min=24 / scenecut=40 / intra_refresh=0 / rc_lookahead=40 / rc=cbr / mbtree=1 / bitrate=4000 / ratetol=1.0 / qcomp=0.60 / qpmin=3 / qpmax=69 / qpstep=4 / vbv_maxrate=4000 / vbv_bufsize=3997 / nal_hrd=cbr / ip_ratio=1.40 / aq=1:1.00 Encoded date : UTC 1970-01-01 00:00:00 Tagged date : UTC 1970-01-01 00:00:00 Color primaries : BT.709 Transfer characteristics : BT.709 Matrix coefficients : BT.709

Audio #2 ID : 2 Format : AAC Format/Info : Advanced Audio Codec Format profile : LC Codec ID : 40 Duration : 1h 44mn Bit rate mode : Variable Bit rate : 128 Kbps Channel(s) : 2 channels Channel positions : Front: L R Sampling rate : 48.0 KHz Compression mode : Lossy Stream size : 95.5 MiB (3%) Encoded date : UTC 1970-01-01 00:00:00 Tagged date : UTC 1970-01-01 00:00:00

Моя максимальная скорость отдачи 100КБ/c Раздаю с 7:00 до 1:00 по Москве

mrutor.org

Скачать торрент Гнездо дракона 2: Трон эльфов / Dragon Nest: Throne of Elves (2016) WEB-DLRip 1080p

Информация о фильме

Название : Гнездо дракона 2: Трон эльфовОригинальное название : Dragon Nest: Throne of ElvesГод выхода : 2016Жанр : Мультфильм, фэнтези, приключения, семейныйРежиссер : И Гэ, Сун Юэфэн / Yi Ge, Yuefeng Song

Описание : Спустя два года после событий первого фильма юный Ламберт получает послание из Страны Эльфов о том, что состоится свадьба принцессы, на которую он также приглашен. Обрадованный возможностью вновь увидеться с молодой эльфийкой Лийей, он собирается в путь на воздушном корабле. В краю эльфов между тем не все спокойно — владычица Темных Эльфов Елена планирует нарушить свадебную церемонию, чтобы, застав врасплох придворных, захватить древний артефакт Альтеры — кристалл Черного Дракона.

Страна : США, КитайПроизводство : Mili Pictures Продолжительность : 01:44:23Перевод: Любительский (многоголосый закадровый) озвучивали: Студийная Банда AD, Esther, Влад Дуров, BalFor, Торгиль, Demetra, Cuba77 [Studio AD]

Релиз : Cuba77

ФайлФормат видео : mp4Качество : WEB-DLRip 1080p

Видео : AVC, 1920x1080 (16:9), 24.0 fps, ~3663 kbps avg, 0.074 bit/pixelАудио: Русский, AAC, 48.0 kHz, 2 ch, ~128 kbps Субтитры: Китайские (неотключаемые)

MediaInfo

General Complete name : E:/Torrent_2/[AniDub]_Dragon_Nest_Throne_Of_Elves_[1080p]_[Studio_AD].mp4 Format : MPEG-4 Format profile : Base Media Codec ID : isom File size : 2.77 GiB Duration : 1h 44mn Overall bit rate mode : Variable Overall bit rate : 3 795 Kbps Encoded date : UTC 1970-01-01 00:00:00 Tagged date : UTC 1970-01-01 00:00:00 Writing application : AVM.EXE

Video #1 ID : 1 Format : AVC Format/Info : Advanced Video Codec Format profile : [email protected] Format settings, CABAC : No Format settings, ReFrames : 3 frames Codec ID : avc1 Codec ID/Info : Advanced Video Coding Duration : 1h 44mn Bit rate mode : Constant Bit rate : 3 663 Kbps Nominal bit rate : 4 000 Kbps / 4 000 Kbps Width : 1 920 pixels Height : 1 080 pixels Display aspect ratio : 16:9 Frame rate mode : Constant Frame rate : 24.000 fps Standard : NTSC Color space : YUV Chroma subsampling : 4:2:0 Bit depth : 8 bits Scan type : Progressive Bits/(Pixel*Frame) : 0.074 Stream size : 2.67 GiB (97%) Writing library : x264 core 115 Encoding settings : cabac=0 / ref=3 / deblock=1:0:0 / analyse=0x3:0x113 / me=hex / subme=7 / psy=1 / psy_rd=1.00:0.00 / mixed_ref=1 / me_range=16 / chroma_me=1 / trellis=1 / 8x8dct=1 / cqm=2 / deadzone=21,11 / fast_pskip=1 / chroma_qp_offset=-2 / threads=12 / sliced_threads=0 / slices=1 / nr=0 / decimate=1 / interlaced=0 / bluray_compat=0 / constrained_intra=0 / bframes=3 / b_pyramid=0 / b_adapt=1 / b_bias=0 / direct=1 / weightb=1 / open_gop=0 / weightp=2 / keyint=250 / keyint_min=24 / scenecut=40 / intra_refresh=0 / rc_lookahead=40 / rc=cbr / mbtree=1 / bitrate=4000 / ratetol=1.0 / qcomp=0.60 / qpmin=3 / qpmax=69 / qpstep=4 / vbv_maxrate=4000 / vbv_bufsize=3997 / nal_hrd=cbr / ip_ratio=1.40 / aq=1:1.00 Encoded date : UTC 1970-01-01 00:00:00 Tagged date : UTC 1970-01-01 00:00:00 Color primaries : BT.709 Transfer characteristics : BT.709 Matrix coefficients : BT.709

Audio #2 ID : 2 Format : AAC Format/Info : Advanced Audio Codec Format profile : LC Codec ID : 40 Duration : 1h 44mn Bit rate mode : Variable Bit rate : 128 Kbps Channel(s) : 2 channels Channel positions : Front: L R Sampling rate : 48.0 KHz Compression mode : Lossy Stream size : 95.5 MiB (3%) Encoded date : UTC 1970-01-01 00:00:00 Tagged date : UTC 1970-01-01 00:00:00

Моя максимальная скорость отдачи 100КБ/c Раздаю с 7:00 до 1:00 по Москве

krutor.org

Гнездо+дракона торрент скачать | Скачать торренты в BDRip и HDRip качестве

Гнездо дракона 2: Трон эльфов / Throne of Elves (2016) WEB-DLRip 1080p | L2.77 GBГнездо Дракона 2: Эльфийский трон / Dragon Nest 2: Throne of Elves (2016) WEB-DLRip [H.264/1080p-LQ]2.76 GBГнездо дракона 2: Трон эльфов / Dragon Nest: Throne of Elves (И Гэ, Сун Юэфэн / Yi Ge, Yuefeng Song) [2016, мультфильм, фэнтези, приключения, семейный, WEB-DLRip 1080p] MVO2.69 GBГнездо Дракона / Dragon Nest: Warriors' Dawn (2014) WEB-DL 1080p | iTunes3.45 GBГнездо дракона / Dragon Nest: Warriors' Dawn (2014) BDRip 1080p от Ash61 | 3D-Video | halfOU7.56 GBГнездо Дракона 2: Трон эльфов / Throne of Elves / 2016 / ЛД / BDRip (1080p) / 2.77 ГБ2.77 GBГнездо дракона 2: Трон эльфов / Throne of Elves (И Гэ, Сун Юэфэн / Yi Ge, Yuefeng Song) [2016, мультфильм, фэнтези, приключения, семейный, HDRip] MVO751.7 MBГнездо Дракона / Dragon Nest: Warriors' Dawn (Юэфэн Сонг / Yuefeng Song) [2014, фэнтези, приключения, семейный, BDRip-AVC] Dub2.69 GBГнездо Дракона 2: Трон эльфов / Throne of Elves / 2016 / ЛМ (AniDub) / BDRip (720p) / 3.15 ГБ3.15 GBГнездо Дракона 2: Трон эльфов / Throne of Elves / 2016 / ЛД (AniDub) / BDRip (1080p) / 2.77 ГБ2.77 GBГнездо Дракона 2: Трон эльфов / Dragon Nest: Throne of Elves / 2016 / ЛМ / BDRip / 752 МБ752 MBГнездо Дракона / Dragon Nest: Warriors' Dawn (Юэфэн Сонг / Yuefeng Song) [2014, Мультфильм, фэнтези, приключения, семейный, HDRip] Dub1.37 GBГнездо Дракона 2: Трон эльфов / Dragon Nest: Throne of Elves / 2016 / ЛМ, СТ / BDRip (1080p) / 12.07 ГБ12.07 GBГнездо Дракона 2: Трон эльфов / Throne of Elves / 2016 / ЛМ (AniDUB) / BDRip (720p) / 3.15 ГБ3.15 GBГнездо Дракона / Dragon Nest: Warriors' Dawn / 2014 / ДБ / HDRip / 1.37 ГБ1.37 GBГнездо Дракона / Dragon Nest: Warriors' Dawn / 2014 / ДБ / BDRip (AVC) / 1.64 ГБ1.64 GBГнездо Дракона / Dragon Nest: Warriors' Dawn / 2014 / ДБ / BDRip (1080p) / 7.01 ГБ7.01 GBГнездо дракона в 3Д / Dragon Nest: Warriors' Dawn 3D (Юэфэн Сонг / Yuefeng Song) [2014, Мультфильм, Фэнтези, Приключения, Семейный, BDrip-AVC] Half OverUnder / Вертикальная анаморфная стереопара7.56 GBГнездо дракона 2: Трон эльфов / Throne of Elves (И Гэ, Сун Юэфэн / Yi Ge, Yuefeng Song) [2016, мультфильм, фэнтези, приключения, семейный, BDRip 1080p] MVO + CHI + Eng + Sub (rus, eng, ger)12.07 GBГнездо дракона / Dragon Nest: Warriors' Dawn (2014) BDRip-AVC от HELLYWOOD | Лицензия1.46 GBГнездо Дракона / Dragon Nest: Warriors' Dawn / 2014 / ДБ / BDRip (720p) / 4.85 ГБ4.85 GBГнездо дракона / Dragon Nest: Warriors' Dawn (2014) WEB-DL [H.264/720p-LQ] [MVO]1.8 GBГнездо Дракона / Dragon Nest: Warriors' Dawn (2014) BDRip 1080 от SuperMin4.36 GBГнездо дракона / Dragon Nest: Warriors' Dawn (Юэфэн Сонг / Yuefeng Song) [2014,мультфильм, фэнтези, приключения, семейный, BDRip] Dub747.7 MBГнездо дракона / Dragon Nest: Warriors' Dawn (2014) WEBRip1.37 GBГнездо дракона / Dragon Nest: Warriors' Dawn (2014) BDRip 1080p | Лицензия7.01 GBГнездо дракона / Dragon Nest: Warriors' Dawn (2014) WEBRip [H.264/720p-LQ]1.84 GBГнездо дракона / Dragon Nest: Warriors’ Dawn (2014) BDRip [H.264/720p] [hand made 60fps]5.62 GBГнездо дракона / Dragon Nest: Warriors' Dawn (2014) BDRip от Twi7ter | D | Лицензия1.46 GBГнездо дракона / Dragon Nest: Warriors' Dawn (2014) WEB-DL [H.264/1080p-LQ]3.45 GBГнездо Дракона 2: Трон эльфов / Throne of Elves / 2016 / ЛД / Blu-Ray Remux (1080p) / 19.27 ГБ19.27 GBГнездо дракона в 3Д / Dragon Nest: Warriors' Dawn 3D (Юэфэн Сонг / Yuefeng Song) [2014, Мультфильм, Фэнтези, Приключения, Семейный, BDrip, 1080p] OverUnder / Вертикальная стереопара11.05 GBГнездо Дракона / Dragon Nest: Warriors' Dawn (2014) BDRip [H.264]2.69 GBГнездо дракона 2: Трон эльфов / Throne of Elves (И Гэ, Сун Юэфэн / Yi Ge, Yuefeng Song) [2016, мультфильм, фэнтези, приключения, семейный, BDRip 720p] MVO + CHI + Eng + Sub (rus, eng, ger)31.1 GBГнездо Дракона / Dragon Nest: Warriors' Dawn (2014) HDRip [H.264]746 MBГнездо дракона / Dragon Nest: Warriors' Dawn (2014) BDRemux [H.264/1080p]19.3 GBГнездо дракона / Dragon Nest: Warriors' Dawn (2014) WEB-DL [1080p] ATV3.55 GBГнездо дракона / Dragon Nest: Warriors' Dawn (2014) BDRip [H.264/720p]3.55 GBГнездо Дракона / Dragon Nest: Warriors' Dawn (2014) BDRip 720p от KinoGadget | iPad1.72 GBГнездо Дракона / Dragon Nest: Warriors' Dawn (2014) BDRip [H.264]2.69 GBГнездо дракона / Dragon Nest: Warriors' Dawn (2014) BDRip [H.264/720p]3.55 GBГнездо дракона / Dragon Nest: Warriors' Dawn (2014) WEB-DL 720p | iTunes2.8 GBГнездо Дракона 2: Трон эльфов / Throne of Elves / 2016 / ЛД (AniDub) / Blu-Ray Remux (1080p) / 19.27 ГБ19.27 GBГнездо Дракона / Dragon Nest: Warriors' Dawn (2014) WEB-DLRip-AVC от New-Team | L21.45 GBГнездо дракона / Dragon Nest: Warriors' Dawn (2014) BDRip 720p | Лицензия4.85 GBГнездо Дракона / Dragon Nest: Warriors' Dawn (Юэфэн Сонг) [2014 г., мультфильм, фэнтези, приключения, семейный, BDRip 1080p] Dub7.01 GBГнездо Дракона / Dragon Nest: Warriors' Dawn (Юэфэн Сун / Yuefeng Song) [2014 г., фэнтези, приключения, семейный, WEB-DLRip] DVO (R.G. TheAngelOfDeath&SweetySacrifice)745 MBГнездо Дракона / Dragon Nest: Warriors' Dawn (Юэфэн Сонг) [2014 г., мультфильм, фэнтези, приключения, семейный, HDRip] Dub1.37 GBГнездо Дракона / Dragon Nest: Warriors' Dawn / 2014 / ДБ / HDRip / 699 МБ699 MB[MULT] Гнездо дракона / Dragon Nest: Warriors' Dawn (Юэфэн Сонг / Yuefeng Song) [2014, США, Китай, Франция, мультфильм, фэнтези, приключения, семейный, HDRip][MP4, 480x] Dub413.2 MB tparser.org – торрент поисковик по популярным торрент трекерам. Находить и скачивать новинки кино в HDRip и BDRip качестве через tparser намного проще! Добро пожаловать на крупный торрент архив фильмов и игр tparser.org. Вам больше не придется искать торренты на основных торрент трекерах в поисках нужной раздачи – мы предлагаем найти и скачать фильмы в хорошем качестве прямо на нашем сайте. Наш сервис поиска торрентов в реальном времени собирает информацию с крупных торрент трекеров и сортирует полученные результаты в удобную таблицу. Скачивайте торренты без ограничений и без всяких регистраций на трекерах. Начните скачивать торрент Гнездо дракона прямо сейчас!

tparser.org


Смотрите также