Феи легенда о чудовище 2014 скачать в хорошем качестве через торрент


Легенда о чудовище (2014) через торрент

gig-torrent.net

26 февраля 2016 06:53 Феи: Легенда о чудовище / Tinker Bell and the Legend of the NeverBeast (2014) HDTVRip 1080p от Ash61 | 3D-Video | halfSBS .torrent   [Информация о файле (нажмите для просмотра)] Перевод: Профессиональный дублированный (лицензия)Качество: HDTVrip (автор неизвестен)Контейнер: MKVВидео: AVC / 23,976 fps /1920х1080p / 12.0 MbpsАудио: #1 - Русский / AC3 / 48 KHz / 5.1 ch / 640 Kbps (Дубляж - BD Eur)Субтитры: (внешние SRT UTF-8) 7,59 Gb 45 5
26 февраля 2016 06:53 Феи: Легенда о чудовище / Legend of the NeverBeast (2014) BDRip-AVC от HELLYWOOD | Лицензия .torrent   [Информация о файле (нажмите для просмотра)] Перевод: Профессиональный (дублированный) [лицензия BD EUR]Субтитры: Русские, английские (Full + SDH + SDH-Colored)Качество: BDRip-AVCФормат: MKVВидео: х.264, 1152x648 (16:9), 23.976 fps, 3198 Кbps, 0.179 bit/pixelАудио#1: 48 kHz, AC3 Dolby Digital, 3/2 (L,C,R,l,r) + LFE ch, 448.00 kbps |RUSАудио#2: 48 kHz, AC3 Dolby Digital, 3/2 (L,C,R,l,r) + LFE ch, 448.00 kbps |ENG 2,18 Gb 98 5
26 февраля 2016 06:53 Феи: Легенда о Чудовище / Tinker Bell and the Legend of the NeverBeast (2014) BDRip 720p | Дополнительные материалы .torrent   [Информация о файле (нажмите для просмотра)] Качество: BDRip 720pВидео: 1280x720 (16:9), 23,976 fps, h364, ~4000 kbps avg, ~0.181 bit/pixelАудио: 48 kHz, AC3 Dolby Digital, 2/0 (L,R) ch, ~192.00 kbps avgПеревод: СубтитрыСубтитры: Русские субтитры: есть 997,99 Mb 3 1
26 февраля 2016 06:53 Феи: Легенда о чудовище / Legend of the NeverBeast (2014) BDRip 720p от Leonardo and Scarabey | Лицензия .torrent   [Информация о файле (нажмите для просмотра)] Перевод: Профессиональный (полное дублирование) ЛицензияФормат: MKVВидео кодек: MPEG-4 AVC Аудио кодек: AC3Видео: 1280x720 (16:9) at 23.976 fps, AVC at 3978 kbps avg, 0.180 bit/pixelАудио: 48 kHz; AC3 Dolby Digital; 3/2 (L,C,R,l,r) + LFE ch; 640 kbps avgСубтитры: Русские, английские 2,51 Gb 192 11
26 февраля 2016 06:53 Феи: Легенда о чудовище / Legend of the NeverBeast (2014) BDRip от HQCLUB | Лицензия .torrent   [Информация о файле (нажмите для просмотра)] Перевод: профессиональный (полное дублирование) + оригинал (английский)Субтитры: русские, английские (полные, SDH)Формат: AVIКачество: BDRip (источник:Видео: 704x400 (1.76:1), 23,976 fps, XviD build 65 ~1816 kbps avg, 0.27 bit/pixelАудио #1: 48 kHz, AC3 Dolby Digital, 3/2 (L,C,R,l,r) + LFE ch, ~448 kbps avg (RUS)Аудио #2: 48 kHz, AC3 Dolby Digital, 3/2 (L,C,R,l,r) + LFE ch, ~448 kbps avg (ENG)Аудио #3: 48 kHz, AC3 Dolby Digital, 3/2 (L,C,R,l,r) + LFE ch, ~448 kbps avg (UKR)(отдельно) 1,45 Gb 148 6
26 февраля 2016 06:53 Феи: Легенда о чудовище / Legend of the NeverBeast (2014) HDRip-AVC | D | Лицензия .torrent   [Информация о файле (нажмите для просмотра)] Перевод: Дублированный (Лицензия)Кодек: x264Качество: HDRip-AVC ( Исходник: BDRip 1080p)Видео: 800x450 (16:9), 23,976 fps, x264 ~1292 kbps avg, 0.150 bit/pixelАудио: 48 kHz, AAC-HE, 2 ch, Front: L R ~72 kbps avgВидео: Идентификатор : 1 Формат : AVC Формат/Информация : Advanced Video Codec Профиль формата : [email protected] Параметр CABAC формата : Да Параметр ReFrames формата : 10 кадров Идентификатор кодека : V_MPEG4/ISO/AVC Продолжительность : 1 ч. 16 м. Номинальный битрейт : 1292 Кбит/сек Ширина : 800 пикселей Высота : 450 пикселей Соотношение сторон : 16:9 Режим частоты кадров : Постоянный Частота кадров : 23,976 кадра/сек Цветовое пространство : YUV Субдискретизация насыщенности : 4:2:0 Битовая глубина : 8 бит Тип развёртки : Прогрессивная Бит/(Пиксели*Кадры) : 0.150 Библиотека кодирования : x264 core 125 r2208 d9d2288 Настройки программы : cabac=1 / ref=10 / deblock=1:-2:-2 / analyse=0x3:0x133 / me=umh / subme=10 / psy=1 / psy_rd=1.00:0.00 / mixed_ref=1 / me_range=32 / chroma_me=1 / trellis=2 / 8x8dct=1 / cqm=0 / deadzone=21,11 / fast_pskip=0 / chroma_qp_offset=-2 / threads=12 / lookahead_threads=2 / sliced_threads=0 / nr=0 / decimate=0 / interlaced=0 / bluray_compat=0 / constrained_intra=0 / bframes=10 / b_pyramid=2 / b_adapt=2 / b_bias=0 / direct=3 / weightb=1 / open_gop=0 / weightp=2 / keyint=250 / keyint_min=23 / scenecut=40 / intra_refresh=0 / rc_lookahead=60 / rc=2pass / mbtree=1 / bitrate=1292 / ratetol=1.0 / qcomp=0.60 / qpmin=0 / qpmax=69 / qpstep=4 / cplxblur=20.0 / qblur=0.5 / ip_ratio=1.40 / aq=1:0.80 Default : Да Forced : Нет Аудио: Идентификатор : 2 Формат : AAC Формат/Информация : Advanced Audio Codec Профиль формата : HE-AAC / LC Идентификатор кодека : A_AAC Продолжительность : 1 ч. 16 м. Каналы : 2 канала Расположение каналов : Front: L R Частота : 48,0 КГц / 24,0 КГц Метод сжатия : С потерями Задержка видео : 31 мс. Default : Да Forced : Нет 744,62 Mb 38 7
26 февраля 2016 06:53 Феи: Легенда о чудовище / Legend of the NeverBeast (2014) BDRip 1080p от ExKinoRay | Лицензия .torrent   [Информация о файле (нажмите для просмотра)] Качество: BDRip (1080p)Видео: MPEG-4 AVC, 9999 Кбит/с, 1920x1080, 23.976 кадр/сАудио: Русский, французский, испанский (AC3, 6 ch, 640 Кбит/с), английский (DTS, 6 ch, 1509 Кбит/с)Перевод: ДублированныйСубтитры: Русские, английскиеВидео: Идентификатор : 1 Формат : AVC Формат/Информация : Advanced Video Codec Профиль формата : [email protected] Параметр CABAC формата : Да Параметр ReFrames формата : 4 кадра Идентификатор кодека : V_MPEG4/ISO/AVC Продолжительность : 1 ч. 16 м. Битрейт : 9999 Кбит/сек Ширина : 1920 пикселей Высота : 1080 пикселей Соотношение сторон : 16:9 Режим частоты кадров : Постоянный Частота кадров : 23,976 кадра/сек Цветовое пространство : YUV Субдискретизация насыщенности : 4:2:0 Битовая глубина : 8 бит Тип развёртки : Прогрессивная Бит/(Пиксели*Кадры) : 0.201 Размер потока : 5,18 Гбайт (72%) Библиотека кодирования : x264 core 125 r2200 999b753 Настройки программы : cabac=1 / ref=4 / deblock=1:-3:-3 / analyse=0x3:0x133 / me=umh / subme=11 / psy=1 / psy_rd=1.00:0.10 / mixed_ref=1 / me_range=32 / chroma_me=1 / trellis=2 / 8x8dct=1 / cqm=0 / deadzone=21,11 / fast_pskip=0 / chroma_qp_offset=-3 / threads=12 / lookahead_threads=2 / sliced_threads=0 / nr=0 / decimate=0 / interlaced=0 / bluray_compat=0 / constrained_intra=0 / bframes=9 / b_pyramid=2 / b_adapt=2 / b_bias=0 / direct=3 / weightb=1 / open_gop=0 / weightp=2 / keyint=240 / keyint_min=23 / scenecut=40 / intra_refresh=0 / rc_lookahead=60 / rc=2pass / mbtree=1 / bitrate=9999 / ratetol=1.0 / qcomp=0.60 / qpmin=0 / qpmax=69 / qpstep=4 / cplxblur=20.0 / qblur=0.5 / ip_ratio=1.40 / aq=1:1.00 Язык : English Default : Да Forced : НетАудио #1: Идентификатор : 2 Формат : AC-3 Формат/Информация : Audio Coding 3 Расширение режима : CM (complete main) Параметр Endianness формата : Big Идентификатор кодека : A_AC3 Продолжительность : 1 ч. 16 м. Вид битрейта : Постоянный Битрейт : 640 Кбит/сек Каналы : 6 каналов Расположение каналов : Front: L C R, Side: L R, LFE Частота : 48,0 КГц Битовая глубина : 16 бит Метод сжатия : С потерями Размер потока : 349 Мбайт (5%) Заголовок : Blu-ray EUR DD5.1 Язык : Russian Default : Да Forced : НетАудио #2: Идентификатор : 3 Формат : AC-3 Формат/Информация : Audio Coding 3 Расширение режима : CM (complete main) Параметр Endianness формата : Big Идентификатор кодека : A_AC3 Продолжительность : 1 ч. 16 м. Вид битрейта : Постоянный Битрейт : 640 Кбит/сек Каналы : 6 каналов Расположение каналов : Front: L C R, Side: L R, LFE Частота : 48,0 КГц Битовая глубина : 16 бит Метод сжатия : С потерями Размер потока : 349 Мбайт (5%) Язык : French Default : Нет Forced : НетАудио #3: Идентификатор : 4 Формат : AC-3 Формат/Информация : Audio Coding 3 Расширение режима : CM (complete main) Параметр Endianness формата : Big Идентификатор кодека : A_AC3 Продолжительность : 1 ч. 16 м. Вид битрейта : Постоянный Битрейт : 640 Кбит/сек Каналы : 6 каналов Расположение каналов : Front: L C R, Side: L R, LFE Частота : 48,0 КГц Битовая глубина : 16 бит Метод сжатия : С потерями Размер потока : 349 Мбайт (5%) Язык : Spanish Default : Нет Forced : НетАудио #4: Идентификатор : 5 Формат : DTS Формат/Информация : Digital Theater Systems Режим : 16 Параметр Endianness формата : Big Идентификатор кодека : A_DTS Продолжительность : 1 ч. 16 м. Вид битрейта : Постоянный Битрейт : 1509 Кбит/сек Каналы : 6 каналов Расположение каналов : Front: L C R, Side: L R, LFE Частота : 48,0 КГц Битовая глубина : 24 бит Метод сжатия : С потерями Размер потока : 823 Мбайт (11%) Язык : English Default : Нет Forced : Нет 7,15 Gb 68 7
26 февраля 2016 06:53 Феи: Легенда о чудовище / Legend of the NeverBeast (2014) BDRip-AVC от ExKinoRay | Лицензия .torrent   [Информация о файле (нажмите для просмотра)] Качество: BDRip (AVC)Видео: MPEG-4 AVC, 2422 Кбит/с, 1024x576Аудио: Русский, английский (AC3, 6 ch, 448 Кбит/с)Субтитры: Русские, английские 1,77 Gb 24 2
26 февраля 2016 06:53 Феи: Легенда о чудовище / Legend of the NeverBeast (2014) BDRip | Лицензия .torrent   [Информация о файле (нажмите для просмотра)] Качество: BDRip [The Legend Of The NeverBeast 2014 1080p BluRay AVC DTS HD MA 7 1-HDA]Видео: XviD, 1745 Кбит/с, 720х400Аудио: Русский, английский (AC3, 6 ch, 448 Кбит/с)Перевод: Дублированный 1,41 Gb 874 17
26 февраля 2016 06:53 Феи: Легенда о чудовище / Legend of the NeverBeast (2014) BDRemux 1080p | Лицензия .torrent   [Информация о файле (нажмите для просмотра)] Качество: Blu-Ray Remux (1080p)Видео: MPEG-4 AVC, 32992 Кбит/с, 1920х1080, 23.976 кадр/сАудио: Русский (AC3, 6 ch, 640 Кбит/с), английский (DTS-HD MA, 8 ch, 4675 Кбит/с), (AC3, 2 ch, 320 Кбит/с)Перевод: Дублированный [Лицензия]Субтитры: Русские, английскиеВидео: Идентификатор : 1 Формат : AVC Формат/Информация : Advanced Video Codec Профиль формата : [email protected] Параметр CABAC формата : Да Параметр ReFrames формата : 4 кадра Параметр GOP формата : M=1, N=12 Идентификатор кодека : V_MPEG4/ISO/AVC Продолжительность : 1 ч. 16 м. Вид битрейта : Переменный Максимальный битрейт : 34,0 Мбит/сек Ширина : 1920 пикселей Высота : 1080 пикселей Соотношение сторон : 16:9 Режим частоты кадров : Постоянный Частота кадров : 23,976 кадра/сек Цветовое пространство : YUV Субдискретизация насыщенности : 4:2:0 Битовая глубина : 8 бит Тип развёртки : Прогрессивная Default : Да Forced : НетАудио #1: Идентификатор : 2 Формат : AC-3 Формат/Информация : Audio Coding 3 Расширение режима : CM (complete main) Параметр Endianness формата : Big Идентификатор кодека : A_AC3 Продолжительность : 1 ч. 16 м. Вид битрейта : Постоянный Битрейт : 640 Кбит/сек Каналы : 6 каналов Расположение каналов : Front: L C R, Side: L R, LFE Частота : 48,0 КГц Битовая глубина : 16 бит Метод сжатия : С потерями Размер потока : 349 Мбайт (2%) Язык : Russian Default : Да Forced : НетАудио #2: Идентификатор : 3 Формат : DTS Формат/Информация : Digital Theater Systems Профиль формата : MA / Core Режим : 16 Параметр Endianness формата : Big Идентификатор кодека : A_DTS Продолжительность : 1 ч. 16 м. Вид битрейта : Переменный Битрейт : Неизвестно / 1509 Кбит/сек Каналы : 8 каналов / 6 каналов Расположение каналов : Front: L C R, Side: L R, Back: L R, LFE / Front: L C R, Side: L R, LFE Частота : 48,0 КГц Битовая глубина : 24 бит Метод сжатия : Без потерь / Lossy Язык : English Default : Нет Forced : НетАудио #3: Идентификатор : 4 Формат : AC-3 Формат/Информация : Audio Coding 3 Профиль формата : Dolby Digital Расширение режима : CM (complete main) Параметр Endianness формата : Big Идентификатор кодека : A_AC3 Продолжительность : 1 ч. 16 м. Вид битрейта : Постоянный Битрейт : 320 Кбит/сек Каналы : 2 канала Расположение каналов : Front: L R Частота : 48,0 КГц Битовая глубина : 16 бит Метод сжатия : С потерями Размер потока : 175 Мбайт (1%) Язык : English Default : Нет Forced : Нет 20,48 Gb 6 3
26 февраля 2016 06:53 Феи: Легенда о чудовище / Legend of the NeverBeast (2014) BDRip 720p | Лицензия .torrent   [Информация о файле (нажмите для просмотра)] Качество: BDRip (720p)Видео: MPEG-4 AVC, 5804 Кбит/с, 1280x720Аудио: Русский (AC3, 6 ch, 640 Кбит/с), английский (DTS, 6 ch, 1510 Кбит/с)Перевод: Дублированный [Лицензия]Субтитры: Русские, английскиеВидео: Идентификатор : 1 Формат : AVC Формат/Информация : Advanced Video Codec Профиль формата : [email protected] Параметр CABAC формата : Да Параметр ReFrames формата : 9 кадров Идентификатор кодека : V_MPEG4/ISO/AVC Продолжительность : 1 ч. 16 м. Битрейт : 5799 Кбит/сек Ширина : 1280 пикселей Высота : 720 пикселей Соотношение сторон : 16:9 Режим частоты кадров : Постоянный Частота кадров : 23,976 кадра/сек Цветовое пространство : YUV Субдискретизация насыщенности : 4:2:0 Битовая глубина : 8 бит Тип развёртки : Прогрессивная Бит/(Пиксели*Кадры) : 0.262 Размер потока : 3,09 Гбайт (72%) Заголовок : Tinker Bell and the Legend of the NeverBeast 2014 Библиотека кодирования : x264 core 144 r2525kMod 40bb568 Настройки программы : cabac=1 / ref=9 / deblock=1:-3:-3 / analyse=0x3:0x133 / me=umh / subme=10 / psy=1 / fade_compensate=0.00 / psy_rd=1.05:0.00 / mixed_ref=1 / me_range=16 / chroma_me=1 / trellis=2 / 8x8dct=1 / cqm=0 / deadzone=21,11 / fast_pskip=0 / chroma_qp_offset=-2 / threads=6 / lookahead_threads=1 / sliced_threads=0 / nr=0 / decimate=0 / interlaced=0 / bluray_compat=0 / constrained_intra=0 / fgo=0 / bframes=8 / b_pyramid=2 / b_adapt=2 / b_bias=0 / direct=3 / weightb=1 / open_gop=0 / weightp=2 / keyint=250 / keyint_min=23 / scenecut=40 / intra_refresh=0 / rc=crf / mbtree=0 / crf=16.0000 / qcomp=0.70 / qpmin=0 / qpmax=69 / qpstep=4 / ip_ratio=1.30 / pb_ratio=1.20 / aq=1:1.00 / zones=1364,1470,crf=14/2425,2535,crf=14 Язык : English Default : Да Forced : Нет DURATION : 01:16:14.654000000 NUMBER_OF_FRAMES : 109682 NUMBER_OF_BYTES : 3406534321 _STATISTICS_WRITING_APP : mkvmerge v7.3.0 ('Nouages') 64bit built on Oct 22 2014 18:53:34 _STATISTICS_WRITING_DATE_UTC : 2015-03-09 15:32:24 _STATISTICS_TAGS : BPS DURATION NUMBER_OF_FRAMES NUMBER_OF_BYTESАудио #1: Идентификатор : 2 Формат : AC-3 Формат/Информация : Audio Coding 3 Расширение режима : CM (complete main) Параметр Endianness формата : Big Идентификатор кодека : A_AC3 Продолжительность : 1 ч. 16 м. Вид битрейта : Постоянный Битрейт : 640 Кбит/сек Каналы : 6 каналов Расположение каналов : Front: L C R, Side: L R, LFE Частота : 48,0 КГц Битовая глубина : 16 бит Метод сжатия : С потерями Размер потока : 349 Мбайт (8%) Язык : Russian Default : Да Forced : НетАудио #2: Идентификатор : 3 Формат : DTS Формат/Информация : Digital Theater Systems Режим : 16 Параметр Endianness формата : Big Идентификатор кодека : A_DTS Продолжительность : 1 ч. 16 м. Вид битрейта : Постоянный Битрейт : 1509 Кбит/сек Каналы : 6 каналов Расположение каналов : Front: L C R, Side: L R, LFE Частота : 48,0 КГц Битовая глубина : 24 бит Метод сжатия : С потерями Размер потока : 823 Мбайт (19%) Язык : English Default : Нет Forced : Нет 4,32 Gb 21 1
26 февраля 2016 06:53 Феи: Легенда о чудовище / Legend of the NeverBeast (2014) Blu-Ray 1080p от HDClub | Лицензия .torrent   [Информация о файле (нажмите для просмотра)] Качество: Blu-Ray (1080p)Видео: MPEG-4 AVC, 32992 Кбит/с, 1920х1080, 23.976 кадр/сАудио: Русский (AC3, 6 ch, 640 Кбит/с), итальянский (DTS, 6 ch, 1510 Кбит/с), английский (DTS-HD MA, 8 ch, 4675 Кбит/с), (AC3, 2 ch, 320 Кбит/с)Перевод: Дублированный [лицензия]Субтитры: Русские, английские, итальянские 30,33 Gb 2 4
26 февраля 2016 06:53 Феи: Легенда о чудовище / Tinker Bell and the Legend of the NeverBeast (2014) BDRip от Stranik 2.0 | Чистый звук .torrent   [Информация о файле (нажмите для просмотра)] Перевод: Профессиональный (полное дублирование)Чистый звукКачество: BDRip (Исходник - BDRemux)Видео: XVID, 720x400 (16:9), 23.976 fps, 1149 KbpsАудио: Русский, AC3, 128 Кбит/с, 48.0 Hz, 2 chСубтитры: нет 701,72 Mb 19 2
26 февраля 2016 06:53 Феи: Легенда о чудовище / Legend of the NeverBeast (2014) BDRip-AVC от ExKinoRay | Чистый звук .torrent   [Информация о файле (нажмите для просмотра)] Перевод: Дублированный (Чистый звук)Кодек: x264Качество: BDRip-AVCВидео: MPEG-4 AVC, 1171 Кбит/с, 720x404Звук: AC3, 2 ch, 192 Кбит/сСубтитры: НетВидео: Идентификатор : 1 Формат : AVC Формат/Информация : Advanced Video Codec Профиль формата : [email protected] Параметр CABAC формата : Да Параметр ReFrames формата : 9 кадров Идентификатор кодека : V_MPEG4/ISO/AVC Продолжительность : 1 ч. 16 м. Битрейт : 1171 Кбит/сек Ширина : 720 пикселей Высота : 404 пикселя Соотношение сторон : 16:9 Режим частоты кадров : Постоянный Частота кадров : 23,976 кадра/сек Цветовое пространство : YUV Субдискретизация насыщенности : 4:2:0 Битовая глубина : 8 бит Тип развёртки : Прогрессивная Бит/(Пиксели*Кадры) : 0.168 Размер потока : 625 Мбайт (84%) Заголовок : by Vovan366(ExKinoRay) Библиотека кодирования : x264 core 130 r2273 b3065e6 Настройки программы : cabac=1 / ref=9 / deblock=1:-3:-3 / analyse=0x3:0x133 / me=umh / subme=10 / psy=1 / psy_rd=1.00:0.15 / mixed_ref=1 / me_range=32 / chroma_me=1 / trellis=2 / 8x8dct=1 / cqm=0 / deadzone=21,11 / fast_pskip=0 / chroma_qp_offset=-3 / threads=6 / lookahead_threads=1 / sliced_threads=0 / nr=0 / decimate=0 / interlaced=0 / bluray_compat=0 / constrained_intra=0 / bframes=9 / b_pyramid=2 / b_adapt=2 / b_bias=0 / direct=3 / weightb=1 / open_gop=0 / weightp=2 / keyint=250 / keyint_min=23 / scenecut=40 / intra_refresh=0 / rc=2pass / mbtree=0 / bitrate=1171 / ratetol=1.0 / qcomp=0.60 / qpmin=0 / qpmax=69 / qpstep=4 / cplxblur=20.0 / qblur=0.5 / ip_ratio=1.40 / pb_ratio=1.30 / aq=1:1.00 Default : Да Forced : НетАудио: Идентификатор : 2 Формат : AC-3 Формат/Информация : Audio Coding 3 Расширение режима : CM (complete main) Параметр Endianness формата : Big Идентификатор кодека : A_AC3 Продолжительность : 1 ч. 16 м. Вид битрейта : Постоянный Битрейт : 192 Кбит/сек Каналы : 2 канала Расположение каналов : Front: L R Частота : 48,0 КГц Битовая глубина : 16 бит Метод сжатия : С потерями Размер потока : 105 Мбайт (14%) Язык : Russian Default : Да Forced : Нет 744,31 Mb 17 1

Скачать Феи: Легенда о чудовище через торрент

Категория: Фильмы 2664 0 Торрент добавлен: 26-04-2015 Рейтинг:

2014 / фэнтези, семейный, мультфильм, приключение / 76 мин.Оригинальное название: Феи: Легенда о чудовище / Legend of the NeverBeast Страна: США Режиссер: Стив Лотер В ролях: Джиннифер Гудвин, Мэй Уитман, Люси Лью, Рэйвен, Анжелика Хьюстон, Томас Леннон, Памела Адлон

В этой сказке откроется удивительная история об одной феи по имени Фауна, которая твердо убеждена, что не в коем случае нельзя судить о содержание книги по ее обложке, а также о намерении животного по его клыкам. Дело в том, что Фауна дружит с огромным и страшным животным, которого все называют Чудовище, но она то знает настолько он добр. Тем временем остальные феи уверены, что зверь готовиться напасть на их жилища и поэтому хотят организовать на него атаку и тем самым, как им кажется, опередить его. Фауне остается лишь убеждать, что Чудовище даже и не думает о нападении на них.

 

Трейлер к мультфильму Феи: Легенда о чудовище

 

Феи: Легенда о чудовище скачать торрент

Качество: Blu-Ray (1080p)Видео: MPEG-4 AVC, 32992 Кбит/с, 1920х1080, 23.976 кадр/сАудио: Русский (AC3, 6 ch, 640 Кбит/с)Дублированный [лицензия]

30,33 Gb

 

3D

Качество: HDTVrip (автор неизвестен)Контейнер: MKVФормат 3D: Half SideBySide / Горизонтальная анаморфная стереопараПорядок ракурсов: левый ракурс первыйВидео: AVC / 23,976 fps / 1920х1080p / 12.0 MbpsАудио: Русский / AC3 / 48 KHz / 5.1 ch / 640 Kbps (Дубляж - BD Eur)

 

7,59 Gb

Качество: BDRip (1080p)Видео: MPEG-4 AVC, 9999 Кбит/с, 1920x1080, 23.976 кадр/сАудио: Русский, французский, испанский (AC3, 6 ch, 640 Кбит/с)Дублированный

7,15 Gb

Формат: AVIКачество: BDRip Видео: 704x400 (1.76:1), 23,976 fps, XviD build 65 ~1816 kbps avg, 0.27 bit/pixel Аудио #1: 48 kHz, AC3 Dolby Digital, 3/2 (L,C,R,l,r) + LFE ch, ~448 kbps avg (RUS)Професиональный (полное дублирование)

1,45 Gb

Вы находитесь на странице, где можете совершенно бесплатно скачать фильм Феи: Легенда о чудовище в хорошем качестве через торрент, в любом формате, который больше всего вам на данный момент подходит. Скачивание осуществляется через торрент, что означает максимально высокую скорость загрузки. Желаем Вам приятного просмотра!. Не забудь поделиться своими впечатлениями после того как посмотришь фильм Феи: Легенда о чудовище.

Информация Посетители, находящиеся в группе Гости, не могут оставлять комментарии к данной публикации.

psp-gu.ru

Легенда о чудовище через торрент в хорошем качестве бесплатно 720p

piratbit.ru

Размер: 3.16 GB | Добавлен: 2 года 6 мес. назад | Торрент скачан:233 раза
Реклама Дарим 3000 рублей за регистрацию, не упусти свой шанс получить шикарный бонус!!!

06-04-2015 14:34 Феи: Легенда о чудовище Скачать торрент  

Феи: Легенда о чудовище / Legend of the NeverBeast

Год выпуска: 2014Страна: СШАЖанр: мультфильм, фэнтези, приключения, семейныйПродолжительность: 01:16:14Перевод: Дубляж, ЛицензияСубтитры: Russian, English

Режиссер: Стив ЛотерПродюссер: Макул Уигерт, Кристин Дорниг, Джон ЛассетерСценарий: -

Бюджет: $2 119 686Премьера в мире: 12 декабря 2014

IMDB 7.30 (1998)

В ролях: Мэй Уитман, Джиннифер Гудвин, Розарио Доусон, Люси Лью, Томас Леннон, Рэйвен, Памела Адлон, Меган Хилти, Мелани Браун, Youlika Skafida,

Роли дублировали: Анна Бегунова, Екатерина Семенова, Ирина Слуцкая, Ольга Арнтгольц, Елена Великанова

Описание: Анимационная сказка расскажет удивительную историю о веселой и талантливой фее Фауне, которая убеждена в том, что о книге нельзя судить по ее обложке, впрочем, как и о животном по его клыкам, поэтому она дружит с таинственным существом громадных размеров из Нетландии по прозвищу Чудовище. В это время группа волшебных фей разведки не настолько уверены в этом страшном звере и намереваются захватить его прежде, чем он уничтожит их дома. Они хотят отправиться на поиски Чудовища. Фауна, чтобы спасти своего нового друга, остается лишь доказать всем, что он — существо доброе и не собирается вредить другим...

Качество: BDRip 720pФормат: MKVВидео кодек: H.264Аудио кодек: AC3Видео: x264, 1280 x 720 (16:9), 5169 kbps, 59,880 fps, ( 0.094 bpp)Аудио#1: AC-3, 48.0 KHz, 6 ch, 384 Kbps ( Russian )Аудио#2: AC-3, 48.0 KHz, 6 ch, 384 Kbps ( English )

                 Автор рипа: slaventi-69

x264 [info]: frame I:1702 Avg QP:12.23 size:170925x264 [info]: frame P:71603 Avg QP:15.37 size: 23754x264 [info]: frame B:200894 Avg QP:21.70 size: 4784x264 [info]: consecutive B-frames: 3.9% 3.7% 13.0% 26.4% 38.2% 12.1% 0.9% 1.2% 0.7%

ОбщееУникальный идентификатор : 177596580228811128748001527012585563653 (0x859BDB70B1FEE9D099A383C865EAE605)Полное имя : D:\ Legend.of.the.Neverbeast.(2014).BDRip.720.( 60Fps ).mkvФормат : MatroskaВерсия формата : Version 4 / Version 2Размер файла : 3,16 ГбайтПродолжительность : 1 ч. 16 м.Общий поток : 5930 Кбит/секНазвание фильма : Феи: Легенда о чудовище / Tinkerbell And The Legend Of The Neverbeast (2014) BDRip 720 60FPS | ЛицензияДата кодирования : UTC 2015-04-01 19:00:18Программа кодирования : mkvmerge v6.2.0 ('Promised Land') built on Apr 28 2013 12:22:01Библиотека кодирования : libebml v1.3.0 + libmatroska v1.4.0

ВидеоИдентификатор : 1Формат : AVCФормат/Информация : Advanced Video CodecПрофиль формата : [email protected]Параметр CABAC формата : ДаПараметр ReFrames формата : 4 кадраИдентификатор кодека : V_MPEG4/ISO/AVCПродолжительность : 1 ч. 16 м.Битрейт : 5169 Кбит/секШирина : 1280 пикселейВысота : 720 пикселейСоотношение сторон : 16:9Режим частоты кадров : ПостоянныйЧастота кадров : 59,880 кадров/секЧастота кадров в оригинале : 59,940 кадров/секЦветовое пространство : YUVСубдискретизация насыщенности : 4:2:0Битовая глубина : 8 битТип развёртки : ПрогрессивнаяБит/(Пиксели*Кадры) : 0.094Размер потока : 2,69 Гбайт (85%)Заголовок : Legend of the Neverbeast (2014) BDRip 720 ( 60FPS ).mkvБиблиотека кодирования : x264 core 130 r2273 b3065e6Настройки программы : cabac=1 / ref=4 / deblock=1:-1:-1 / analyse=0x3:0x113 / me=umh / subme=7 / psy=1 / psy_rd=1.00:0.00 / mixed_ref=1 / me_range=16 / chroma_me=1 / trellis=2 / 8x8dct=1 / cqm=0 / deadzone=21,11 / fast_pskip=1 / chroma_qp_offset=-2 / threads=3 / lookahead_threads=1 / sliced_threads=0 / nr=0 / decimate=1 / interlaced=0 / bluray_compat=0 / constrained_intra=0 / bframes=8 / b_pyramid=2 / b_adapt=2 / b_bias=0 / direct=3 / weightb=1 / open_gop=0 / weightp=2 / keyint=250 / keyint_min=25 / scenecut=40 / intra_refresh=0 / rc_lookahead=50 / rc=2pass / mbtree=1 / bitrate=5169 / ratetol=1.0 / qcomp=0.60 / qpmin=0 / qpmax=69 / qpstep=4 / cplxblur=20.0 / qblur=0.5 / ip_ratio=1.40 / aq=1:0.60Язык : EnglishDefault : ДаForced : Нет

Аудио #1Идентификатор : 2Формат : AC-3Формат/Информация : Audio Coding 3Расширение режима : CM (complete main)Параметр Endianness формата : BigИдентификатор кодека : A_AC3Продолжительность : 1 ч. 16 м.Вид битрейта : ПостоянныйБитрейт : 384 Кбит/секКаналы : 6 каналовРасположение каналов : Front: L C R, Side: L R, LFEЧастота : 48,0 КГцБитовая глубина : 16 битМетод сжатия : С потерямиРазмер потока : 210 Мбайт (6%)Заголовок : DUB (Blu-Ray EUR)Язык : RussianDefault : ДаForced : Нет

Аудио #2Идентификатор : 3Формат : AC-3Формат/Информация : Audio Coding 3Расширение режима : CM (complete main)Параметр Endianness формата : BigИдентификатор кодека : A_AC3Продолжительность : 1 ч. 16 м.Вид битрейта : ПостоянныйБитрейт : 384 Кбит/секКаналы : 6 каналовРасположение каналов : Front: L C R, Side: L R, LFEЧастота : 48,0 КГцБитовая глубина : 16 битМетод сжатия : С потерямиРазмер потока : 210 Мбайт (6%)Заголовок : OriginalЯзык : EnglishDefault : НетForced : Нет

Текст #1Идентификатор : 4Формат : UTF-8Идентификатор кодека : S_TEXT/UTF8Идентификатор кодека/Информация : UTF-8 Plain TextЯзык : RussianDefault : НетForced : Нет

Текст #2Идентификатор : 5Формат : UTF-8Идентификатор кодека : S_TEXT/UTF8Идентификатор кодека/Информация : UTF-8 Plain TextЯзык : EnglishDefault : НетForced : Нет

Феи: Легенда о чудовище (видео) скачать торрент

Скачать Феи: Легенда о чудовище через торрент http://pic.pb.wtf/images/11/43pl6.jpg Скачать фильм Феи: Легенда о чудовище через торрент бесплантно в хорошем качестве Описание: Анимационная сказка расскажет удивительную историю о веселой и талантливой фее Фауне, которая убеждена в том, что о книге нельзя ... 2015-04-06 14:34 9.9 10 11

Loading...

Loading...

Рекламный пират

Дорогой пользователь! Огромная просьба, поблагодарите релизера, оцените раздачу и оставьте свои комментарий, если Вы скачали Феи: Легенда о чудовище через торрент бесплатно! Внесите свою лепту в развитие PiratBit!

Комментировать посты могут только пользователи прошедшие не сложную регистрацию

Феи: Легенда о чудовище через торрент Скачать бесплатно Феи: Легенда о чудовище Феи: Легенда о чудовище скачать торрент Феи: Легенда о чудовище смотреть онлайн Cкачать фильм Феи: Легенда о чудовище бесплатно Феи: Легенда о чудовище скачать торрент в хорошем качестве Феи: Легенда о чудовище смотреть онлайн бесплатно в хорошем качестве

Вы не можете начинать темыВы не можете отвечать на сообщенияВы не можете редактировать свои сообщенияВы не можете удалять свои сообщенияВы не можете голосовать в опросахВы не можете прикреплять файлы к сообщениямВы можете скачивать файлы

Легенда о чудовище через торрент в хорошем качестве бесплатно BDRip-AVC

Общее Уникальный идентификатор : 205764074333775931489216595546655680393 (0x9ACCB81F0DF37EB0855D7E3E973BE789) Полное имя : Feyi.Legendy.o.Chudovische.2014.DUAL.BDRip.x264.-HELLYWOOD.mkv Формат : Matroska Версия формата : Version 4 / Version 2 Размер файла : 2,18 Гбайт Продолжительность : 1 ч. 16 м. Общий поток : 4097 Кбит/сек Название фильма : Legend of the NeverBeast (2014) - HELLYWOOD Дата кодирования : UTC 2010-02-22 21:41:31 Программа кодирования : mkvmerge v5.8.0 ('No Sleep / Pillow') built on Sep 30 2012 10:57:14 Библиотека кодирования : libebml v1.3.0 + libmatroska v1.4.0

Видео Идентификатор : 1 Формат : AVC Формат/Информация : Advanced Video Codec Профиль формата : [email protected] Параметр CABAC формата : Да Параметр ReFrames формата : 10 кадров Идентификатор кодека : V_MPEG4/ISO/AVC Продолжительность : 1 ч. 16 м. Битрейт : 3198 Кбит/сек Ширина : 1152 пикселя Высота : 648 пикселей Соотношение сторон : 16:9 Режим частоты кадров : Постоянный Частота кадров : 23,976 кадра/сек Цветовое пространство : YUV Субдискретизация насыщенности : 4:2:0 Битовая глубина : 8 бит Тип развёртки : Прогрессивная Бит/(Пиксели*Кадры) : 0.179 Размер потока : 1,66 Гбайт (76%) Заголовок : potroks Библиотека кодирования : x264 core 130 r2273 b3065e6 Настройки программы : cabac=1 / ref=10 / deblock=1:0:0 / analyse=0x3:0x133 / me=umh / subme=11 / psy=1 / psy_rd=1.03:0.09 / mixed_ref=1 / me_range=48 / chroma_me=1 / trellis=2 / 8x8dct=1 / cqm=0 / deadzone=21,11 / fast_pskip=0 / chroma_qp_offset=-3 / threads=12 / lookahead_threads=2 / sliced_threads=0 / nr=0 / decimate=0 / interlaced=0 / bluray_compat=0 / constrained_intra=0 / bframes=12 / b_pyramid=2 / b_adapt=2 / b_bias=0 / direct=3 / weightb=1 / open_gop=0 / weightp=2 / keyint=250 / keyint_min=25 / scenecut=40 / intra_refresh=0 / rc_lookahead=60 / rc=2pass / mbtree=0 / bitrate=3198 / ratetol=1.0 / qcomp=0.70 / qpmin=0 / qpmax=69 / qpstep=4 / cplxblur=20.0 / qblur=0.5 / vbv_maxrate=50000 / vbv_bufsize=62500 / nal_hrd=none / ip_ratio=1.30 / pb_ratio=1.25 / aq=1:0.70 Язык : English Default : Да Forced : Нет

Аудио #1 Идентификатор : 2 Формат : AC-3 Формат/Информация : Audio Coding 3 Расширение режима : CM (complete main) Параметр Endianness формата : Big Идентификатор кодека : A_AC3 Продолжительность : 1 ч. 16 м. Вид битрейта : Постоянный Битрейт : 448 Кбит/сек Каналы : 6 каналов Расположение каналов : Front: L C R, Side: L R, LFE Частота : 48,0 КГц Битовая глубина : 16 бит Метод сжатия : С потерями Размер потока : 244 Мбайт (11%) Заголовок : Dub | DD 5.1 @ 448 kbps - Blu-Ray EUR Язык : Russian Default : Да Forced : Нет

Аудио #2 Идентификатор : 3 Формат : AC-3 Формат/Информация : Audio Coding 3 Расширение режима : CM (complete main) Параметр Endianness формата : Big Идентификатор кодека : A_AC3 Продолжительность : 1 ч. 16 м. Вид битрейта : Постоянный Битрейт : 448 Кбит/сек Каналы : 6 каналов Расположение каналов : Front: L C R, Side: L R, LFE Частота : 48,0 КГц Битовая глубина : 16 бит Метод сжатия : С потерями Размер потока : 244 Мбайт (11%) Заголовок : Original | DD 5.1 @ 448 kbps Язык : English Default : Нет Forced : Нет

Текст #1 Идентификатор : 4 Формат : UTF-8 Идентификатор кодека : S_TEXT/UTF8 Идентификатор кодека/Информация : UTF-8 Plain Text Язык : Russian Default : Нет Forced : Нет

Текст #2 Идентификатор : 5 Формат : UTF-8 Идентификатор кодека : S_TEXT/UTF8 Идентификатор кодека/Информация : UTF-8 Plain Text Заголовок : Full Язык : English Default : Нет Forced : Нет

Текст #3 Идентификатор : 6 Формат : UTF-8 Идентификатор кодека : S_TEXT/UTF8 Идентификатор кодека/Информация : UTF-8 Plain Text Заголовок : SDH Язык : English Default : Нет Forced : Нет

Текст #4 Идентификатор : 7 Формат : UTF-8 Идентификатор кодека : S_TEXT/UTF8 Идентификатор кодека/Информация : UTF-8 Plain Text Заголовок : SDH-Colored Язык : English Default : Нет Forced : Нет

Меню 00:00:00.000 : en:1. Awakening The Beast 00:03:08.188 : en:2. Baby Hawk 00:10:55.071 : en:3. A Great Discovery 00:16:45.087 : en:4. An Understanding 00:20:26.684 : en:5. Making Friends 00:24:20.501 : en:6. Tower Building 00:30:58.732 : en:7. Introducing Gruff 00:34:42.038 : en:8. Fawn's Expertise 00:38:09.245 : en:9. The Beast's Safety 00:41:13.012 : en:10. The Search Begins 00:44:39.468 : en:11. Transformation 00:49:54.992 : en:12. Learning The Truth 00:53:05.766 : en:13. Fighting The Storm 00:57:07.883 : en:14. Saving Pixie Hollow 01:02:54.688 : en:15. Going Home 01:07:54.612 : en:16. End Credits

piratbit.ru


Смотрите также