Эверест скачать торрент в хорошем качестве hd 1080 торрент


Скачать торрент Эверест / Everest (2015) WEBRip 1080p

Информация о фильмеНазвание: ЭверестОригинальное название: EverestГод выхода: 2015Жанр: триллер, драма, приключения, биография, историяРежиссер: Бальтасар КормакурВ ролях: Джейсон Кларк, Джош Бролин, Джейк Джилленхол, Сэм Уортингтон, Джон Хоукс, Майкл Келли, Ингвар Эггерт Сигюрдссон, Кира Найтли

О фильме: Эверест — великая неприступная гора, покорить вершину которой мечтают многие профессиональные альпинисты. Одна из экспедиций на ее вершину закончилась настоящей трагедией, однако этот факт не останавливает отважных альпинистов. Опытный инструктор Роб Холл, собрав группу из лучших альпинистов, собирается совершить восхождение на самую высокую вершину планеты. Все эти люди полны мужества и отваги и они не остановятся ни перед чем, пока не поднимутся на вершину Эвереста. Но даже если эта гора покорится им, смогут ли они вернуться обратно живыми и невредимыми..?

Страна: США, Великобритания, ИсландияСтудия: Universal Pictures, Cross Creek Pictures, Free State Pictures, Walden Media, Working Title FilmsПродолжительность: 02:00:54Перевод: Профессиональный (полное дублирование) | чистый звук

ФайлКодек: AVCКачество: WEBRip 1080pВидео: 1920x800 (2.40:1), 29.970 fps, MPEG-4 AVC ~5 876 kbps avg, 0.128 bit/pixelАудио №1: 48.0 kHz, AC3 Dolby Digital, 2/0 (L,R) ch, ~192.00 kbps avg (русский)Аудио №2: 48.0 kHz, AC3 Dolby Digital, 2/0 (L,R) ch, ~192.00 kbps avg (английский)Субтитры: корейские | вшитые

MediaInfo

General Unique ID : 188924486490536748738668482918349088724 (0x8E218856E6C463B799D8F665D86527D4) Complete name : E8ere7t.2015.D.1080p.mkv Format : Matroska Format version : Version 4 / Version 2 File size : 5.39 GiB Duration : 2h 0mn Overall bit rate : 6 387 Kbps Movie name : EVO Encoded date : UTC 2015-11-04 05:18:34 Writing application : mkvmerge v8.5.0 ('Vanishing Act') 64bit Writing library : libebml v1.3.1 + libmatroska v1.4.2

Video ID : 1 Format : AVC Format/Info : Advanced Video Codec Format profile : [email protected] Format settings, CABAC : Yes Format settings, ReFrames : 4 frames Codec ID : V_MPEG4/ISO/AVC Duration : 2h 0mn Bit rate : 5 876 Kbps Width : 1 920 pixels Height : 800 pixels Display aspect ratio : 2.40:1 Frame rate mode : Constant Frame rate : 29.970 fps Color space : YUV Chroma subsampling : 4:2:0 Bit depth : 8 bits Scan type : Progressive Bits/(Pixel*Frame) : 0.128 Stream size : 4.96 GiB (92%) Default : Yes Forced : No

Audio #1 ID : 2 Format : AC-3 Format/Info : Audio Coding 3 Mode extension : CM (complete main) Format settings, Endianness : Big Codec ID : A_AC3 Duration : 2h 0mn Bit rate mode : Constant Bit rate : 192 Kbps Channel(s) : 2 channels Channel positions : Front: L R Sampling rate : 48.0 KHz Bit depth : 16 bits Compression mode : Lossy Stream size : 166 MiB (3%) Language : Russian Default : Yes Forced : No

Audio #2 ID : 3 Format : AC-3 Format/Info : Audio Coding 3 Mode extension : CM (complete main) Format settings, Endianness : Big Codec ID : A_AC3 Duration : 2h 0mn Bit rate mode : Constant Bit rate : 192 Kbps Channel(s) : 2 channels Channel positions : Front: L R Sampling rate : 48.0 KHz Bit depth : 16 bits Compression mode : Lossy Stream size : 166 MiB (3%) Language : English Default : No Forced : No

krutor.org

Скачать торрент Эверест / Everest (2015) BDRip 720p от Scarabey

Год выпуска: 2015Страна: США, ВеликобританияЖанр: триллер, драма, приключенияПродолжительность: 02:00:54Перевод: Профессиональный (полное дублирование) [Лицензия]Субтитры: русские, форсированные - на надписи + полные, русские + оригинал

Режиссер: Бальтасар Кормакур / Baltasar Kormákur

В ролях: Джейсон Кларк, Джош Бролин, Джон Хоукс, Робин Райт, Эмили Уотсон, Кира Найтли, Сэм Уортингтон, Джейк Джилленхол, Анг Фула Шерпа, Томас М. Райт

Описание: Эверест — великая неприступная гора, покорить вершину которой мечтают многие профессиональные скалолазы. Одна из экспедиций на ее вершину закончилась настоящей трагедией, однако этот факт не останавливает отважных альпинистов. Роб Холл долгое время мечтал покорить эту неприступную гору и однажды ему предоставился такой шанс. Собрав группу из лучших альпинистов, он как никогда приблизился к своей заветной мечте. Все эти люди полны мужества и отваги и они не остановятся ни перед чем, пока не поднимутся на вершину Эвереста. Но даже если эта гора покорится им, смогут ли они вернуться обратно живыми и невредимыми?..

Качество видео: BDRip 720p - (HDS)Формат видео: MKV

Видео: 1280х536, 23.976 fps, AVC, ~3306 kbps avgАудио: 48 kHz, AC3 Dolby Digital, 3/2 (L,C,R,l,r) + LFE ch, ~448 kbpsАудио: 48 kHz, AC3 Dolby Digital, 3/2 (L,C,R,l,r) + LFE ch, ~640 kbps - оригинал

Релиз от:

АНОНСЫ МОИХ РАЗДАЧ!

МедиаИнфо

Everest.2015.720p_BDRip_r5_[scarabey.org].mkv Format : Matroska File size : 3.88 GiB Duration : 2h 1mn Overall bit rate : 4 590 Kbps Encoded date : UTC 2015-12-19 21:10:13 Writing application : mkvmerge v6.1.0 ('Old Devil') built on Mar 4 2013 09:10:42 Writing library : libebml v1.3.0 + libmatroska v1.4.0

Video Format : AVC Format/Info : Advanced Video Codec Format profile : [email protected] Format settings, CABAC : Yes Format settings, ReFrames : 12 frames Muxing mode : Container [email protected] Codec ID : V_MPEG4/ISO/AVC Duration : 2h 1mn Bit rate : 3 306 Kbps Width : 1 280 pixels Height : 536 pixels Display aspect ratio : 2.35 Frame rate : 23.976 fps Resolution : 24 bits Colorimetry : 4:2:0 Scan type : Progressive Writing library : x264 core 142 r2431+42 c69a006 tMod [[email protected]:2:0 X86_64] Encoding settings : cabac=1 / ref=12 / deblock=1:-3:-3 / analyse=0x3:0x113 / me=umh / subme=11 / psy=1 / fade_compensate=0.00 / psy_rd=1.00:0.05 / mixed_ref=1 / me_range=32 / chroma_me=1 / trellis=2 / 8x8dct=1 / cqm=0 / deadzone=21,11 / fast_pskip=0 / chroma_qp_offset=-3 / threads=12 / lookahead_threads=2 / sliced_threads=0 / nr=0 / decimate=0 / interlaced=0 / bluray_compat=0 / constrained_intra=0 / fgo=0 / bframes=8 / b_pyramid=2 / b_adapt=2 / b_bias=0 / direct=3 / weightb=1 / open_gop=0 / weightp=2 / keyint=240 / keyint_min=24 / scenecut=40 / intra_refresh=0 / rc_lookahead=60 / rc=crf / mbtree=0 / crf=18.5000 / qcomp=0.60 / qpmin=0:0:0 / qpmax=69:69:69 / qpstep=4 / vbv_maxrate=52500 / vbv_bufsize=45000 / crf_max=0.0 / nal_hrd=none / filler=0 / ip_ratio=1.20 / pb_ratio=1.20 / aq=3:1.00 / aq-sensitivity=10.00 / aq-factor=1.00:1.00:1.00 / aq2=0 / aq3=0

Audio #1 Format : AC-3 Format/Info : Audio Coding 3 Codec ID : A_AC3 Duration : 2h 1mn Bit rate mode : Constant Bit rate : 448 Kbps Channel(s) : 6 channels Channel positions : Front: L C R, Rear: L R, LFE Sampling rate : 48.0 KHz Title : Дубляж - Лицензия Language : Russian

Audio #2 Format : AC-3 Format/Info : Audio Coding 3 Codec ID : A_AC3 Duration : 2h 1mn Bit rate mode : Constant Bit rate : 640 Kbps Channel(s) : 6 channels Channel positions : Front: L C R, Rear: L R, LFE Sampling rate : 48.0 KHz Title : Оригинал

Text #1 Format : UTF-8 Codec ID : S_TEXT/UTF8 Codec ID/Info : UTF-8 Plain Text Title : Русские, форсированные Language : Russian

Text #2 Format : UTF-8 Codec ID : S_TEXT/UTF8 Codec ID/Info : UTF-8 Plain Text Title : Русские, полные Language : Russian

Text #3 Format : UTF-8 Codec ID : S_TEXT/UTF8 Codec ID/Info : UTF-8 Plain Text Title : Оригинал

krutor.org

Эверест / Everest (2015/BDRemux) 1080p, Лицензия

Информация о фильме Название: Эверест Оригинальное название: Everest Год выпуска: 2015 Жанр: триллер, драма, приключения, биография, история Режиссер: Бальтасар Кормакур В ролях: Джейсон Кларк, Джош Бролин, Джон Хоукс, Робин Райт, Эмили Уотсон, Кира Найтли, Сэм Уортингтон, Джейк Джилленхол, Анг Фула Шерпа, Томас М. Райт, Мартин Хендерсон, Том Гудман-Хилл, Шарлотта Бювинг, Пемба Шерпа, Эми Шиндлер, Саймон Харрисон, Крис Райлли, Наоко Мори, Майкл Келли, Тим Дантей

Описание Эверест — так называется огромная неприступная гора, взобраться на вершину которой мечтает немало профессиональных скалолазов. Одна из экспедиций на её вершину оборачивается настоящей трагедией, но даже этот случай не становится предостережением для отважных альпинистов. Роб Холл — опытный инструктор, который собирает группу из лучших альпинистов для того, чтобы совершить восхождение на самую вершину планеты. Члены команды полны мужества и отваги, но смогут ли они вернуться из приключения в целостности и сохранности?

[kinopoisk]739642[/kinopoisk]

Страна: США, Великобритания, Исландия Студия: Universal Pictures, Cross Creek Pictures Продолжительность: 02:00:54 Перевод: Профессиональный (дублированный) Лицензия Субтитры: Russian (Forced, iTunes), Russian (iTunes), Ukrainian (iTunes), English (SDH, iTunes)

Файл Качество: BDRemux 1080p Формат: MKV Видео: 1920x1080 at 23.976 fps, MPEG-4 AVC, ~25777 kbps avg Aудио#1: Russian: 48 kHz, AC3, 3/2 (L,C,R,l,r) + LFE ch, ~448.00 kbps avg |Дубляж, Blu-ray EUR| Aудио#2: English: 48 kHz, DTS-HD MA 7.1, ~4887.00 kbps avg Aудио#3: English: 48 kHz, AC3, 2/0 (L,R) ch, ~192.00 kbps avg |Feature Commentary with Director Baltasar Kormákur|

* Производственный период начался 14 января 2014 года в Катманду. Сцены снимались на высоте 4877 метров. * Все сцены с Кирой Найтли были отсняты за 6 дней. * Роб Холл (Джейсон Кларк) является первым человеком, покорившим Эверест пять раз. А его жена Джен (Кира Найтли) является второй женщиной из Новой Зеландии, поднявшейся на вершину Эвереста (первой была Лидия Брэди (Lydia Bradey)). * Некоторые участники экспедиций, судьба которых легла в основу фильма, впоследствии издали книги, в которых изложили свое видение событий весны 1996 г. Наиболее известные - «В разреженном воздухе» (Into Thin Air, 1996) журналиста Джона Кракауера и «Восхождение» (The Climb, 1997) профессионального альпиниста Анатолия Букреева в соавторстве с Вестоном Де Уолтом (Weston DeWalt). * Фильм основан на самой масштабной катастрофе, произошедшей на Эвересте в 1996 году. По жестокой иронии судьбы в тот самый период, когда проходили съемки, 18 апреля 2014 года, в Непале сошла лавина, в результате чего погибли 16 человек. * Кристиан Бэйл был утвержден на роль Роба Холла, но покинул проект ради участия в фильме «Исход: Цари и боги» (2014). * Некоторые сцены были заимствованы из документального фильма «Эверест» (1998). * Консультантом фильма выступил Лу Касишке, один из выживших участников трагедии, написавший об этом книгу - «После ветра» (After the Wind). *Роль Баба Уэзерса сыграл 13-летний сын режиссера Бальтасара Кормакура - Стормур Йоун Кормакур Бальтасарссон. * Это первый совместный фильм студии Walden Media и студии Universal Pictures. * Срауинн Сигвальдасон мог сыграть роль в этом фильме. *Фильм снимался в итальянских Альпах, павильоне римской студии Cinecittà и британской студии Pinewood. Некоторые сцены снимались при температуре -30°C. * Чтобы сделать фильм еще более реалистичным, продюсеры наняли 11 настоящих шерпов, которые снялись в фильме. Непальцам довелось впервые покинуть свой дом и приехать в Италию, а затем некоторое время провести в студиях Cinecittà и Pinewood. * Чтобы снять сцену на леднике Сеналес, съемочная группа ездила на горнолыжный курорт Шнальсталь в северной Италии. * Группа состояла из 180 человек из Великобритании, Новой Зеландии, Австралии, Германии, Италии, США, Исландии и Непала. И без того непростые съемки были осложнены внезапным снегопадом, самым интенсивным в истории курорта. Иногда съемочная площадка полностью исчезала под метровым слоем снега, который приходилось оперативно расчищать. * После первой лавины, когда Роб и Энди разговаривают, количество снега на голове Энди меняется при смене кадра. * В 1996 году был лишь один навесной мост до поселения Намче-Базар. Второй навесной мост был построен после 2000 года. * В начале фильма Бек носит футболку «Dole/Kemp «96» в марте. Боб Доул не выбирал себе напарника до августа 1996 года. * Когда команда путешественников садится в автобус в Непале в 1996 году, в автобусе по радио играет песня из фильма «И в печали, и в радости…» (2001). * Взлетно-посадочная полоса в городе Лукла в 1996 году была еще грунтовой. Заасфальтировали ее лишь после 2000 года. * Путь бури, который доктор Маккензи рисует на карте, меняет свои размеры и форму при смене кадра. * Когда Анатолий находит тело Скотта, прежде чем он закрывает рюкзаком ему лицо, отчетливо видно, что Джейк Джилленхол дышит.

n-torrents.ru

Скачать фильм Эверест через торрент в хорошем качестве бесплатно 1080p

Общее

Уникальный идентификатор : 175093884616012022250417997518317182263 (0x83B9DB0511D1F93488AFEA22A1B25D37)

Полное имя : Everest.2015.1080p.BluRay.Rus.2xEng.HDCLUB.mkv

Формат : Matroska

Версия формата : Version 2

Размер файла : 11,3 Гбайт

Продолжительность : 2 ч. 1 м.

Общий поток : 13,3 Мбит/сек

Название фильма : Everest (2015) - Release for HDCLUB

Дата кодирования : UTC 2015-12-16 09:22:58

Программа кодирования : mkvmerge v3.4.0 ('Rapunzel') built on May 15 2010 09:38:20

Библиотека кодирования : libebml v0.8.0 + libmatroska v0.9.0

Видео

Идентификатор : 1

Формат : AVC

Формат/Информация : Advanced Video Codec

Профиль формата : [email protected]

Параметр CABAC формата : Да

Параметр ReFrames формата : 5 кадров

Идентификатор кодека : V_MPEG4/ISO/AVC

Продолжительность : 2 ч. 1 м.

Битрейт : 10,9 Мбит/сек

Ширина : 1920 пикселей

Высота : 804 пикселя

Соотношение сторон : 2,40:1

Режим частоты кадров : Постоянный

Частота кадров : 23,976 кадра/сек

Цветовое пространство : YUV

Субдискретизация насыщенности : 4:2:0

Битовая глубина : 8 бит

Тип развёртки : Прогрессивная

Бит/(Пиксели*Кадры) : 0.295

Размер потока : 9,24 Гбайт (82%)

Заголовок : Everest (2015) - Release for HDCLUB

Библиотека кодирования : x264 core 142 r2431+42 c69a006 tMod [[email protected] X86_64]

Настройки программы : cabac=1 / ref=5 / deblock=1:-3:-3 / analyse=0x3:0x133 / me=umh / subme=11 / psy=1 / fade_compensate=0.00 / psy_rd=1.00:0.00 / mixed_ref=1 / me_range=48 / chroma_me=1 / trellis=2 / 8x8dct=1 / cqm=0 / deadzone=21,11 / fast_pskip=0 / chroma_qp_offset=-2 / threads=24 / lookahead_threads=4 / sliced_threads=0 / nr=0 / decimate=1 / interlaced=0 / bluray_compat=0 / constrained_intra=0 / fgo=0 / bframes=7 / b_pyramid=2 / b_adapt=2 / b_bias=0 / direct=1 / weightb=1 / open_gop=0 / weightp=2 / keyint=240 / keyint_min=23 / scenecut=40 / intra_refresh=0 / rc_lookahead=60 / rc=crf / mbtree=0 / crf=15.9000 / qcomp=0.60 / qpmin=0:0:0 / qpmax=69:69:69 / qpstep=4 / vbv_maxrate=50000 / vbv_bufsize=62500 / crf_max=0.0 / nal_hrd=none / filler=0 / ip_ratio=1.35 / pb_ratio=1.25 / aq=4:0.80 / aq-sensitivity=10.00 / aq-factor=1.00:1.00:1.00 / aq2=0 / aq3=0

Язык : English

Default : Да

Forced : Нет

Аудио #1

Идентификатор : 2

Формат : AC-3

Формат/Информация : Audio Coding 3

Расширение режима : CM (complete main)

Параметр Endianness формата : Big

Идентификатор кодека : A_AC3

Продолжительность : 2 ч. 1 м.

Вид битрейта : Постоянный

Битрейт : 448 Кбит/сек

Каналы : 6 каналов

Расположение каналов : Front: L C R, Side: L R, LFE

Частота : 48,0 КГц

Метод сжатия : С потерями

Размер потока : 388 Мбайт (3%)

Заголовок : AC3 5.1 @ 448 kbps - DUB, Blu-ray CEE

Язык : Russian

Default : Да

Forced : Нет

Аудио #2

Идентификатор : 3

Формат : DTS

Формат/Информация : Digital Theater Systems

Режим : 16

Параметр Endianness формата : Big

Идентификатор кодека : A_DTS

Продолжительность : 2 ч. 1 м.

Вид битрейта : Постоянный

Битрейт : 1509 Кбит/сек

Каналы : 6 каналов

Расположение каналов : Front: L C R, Side: L R, LFE

Частота : 48,0 КГц

Битовая глубина : 24 бит

Метод сжатия : С потерями

Размер потока : 1,28 Гбайт (11%)

Заголовок : DTS 5.1 @ 1536 kbps

Язык : English

Default : Нет

Forced : Нет

Аудио #3

Идентификатор : 4

Формат : AC-3

Формат/Информация : Audio Coding 3

Профиль формата : Dolby Digital

Расширение режима : CM (complete main)

Параметр Endianness формата : Big

Идентификатор кодека : A_AC3

Продолжительность : 2 ч. 1 м.

Вид битрейта : Постоянный

Битрейт : 192 Кбит/сек

Каналы : 2 канала

Расположение каналов : Front: L R

Частота : 48,0 КГц

Метод сжатия : С потерями

Размер потока : 166 Мбайт (1%)

Заголовок : AC3 2.0 @ 192 kbps - Feature Commentary with Director Baltasar Kormákur

Язык : English

Default : Нет

Forced : Нет

Текст #1

Идентификатор : 5

Формат : UTF-8

Идентификатор кодека : S_TEXT/UTF8

Идентификатор кодека/Информация : UTF-8 Plain Text

Заголовок : Forced, iTunes

Язык : Russian

Default : Да

Forced : Нет

Текст #2

Идентификатор : 6

Формат : UTF-8

Идентификатор кодека : S_TEXT/UTF8

Идентификатор кодека/Информация : UTF-8 Plain Text

Заголовок : iTunes

Язык : Russian

Default : Нет

Forced : Нет

Текст #3

Идентификатор : 7

Формат : UTF-8

Идентификатор кодека : S_TEXT/UTF8

Идентификатор кодека/Информация : UTF-8 Plain Text

Заголовок : iTunes

Язык : Ukrainian

Default : Нет

Forced : Нет

Текст #4

Идентификатор : 8

Формат : UTF-8

Идентификатор кодека : S_TEXT/UTF8

Идентификатор кодека/Информация : UTF-8 Plain Text

Заголовок : SDH, iTunes

Язык : English

Default : Нет

Forced : Нет

Меню

00:00:00.000 : en:00:00:00.000

00:05:12.145 : en:00:05:12.145

00:09:36.075 : en:00:09:36.075

00:15:13.162 : en:00:15:13.162

00:20:58.424 : en:00:20:58.424

00:26:30.714 : en:00:26:30.714

00:33:15.118 : en:00:33:15.118

00:40:23.755 : en:00:40:23.755

00:47:23.382 : en:00:47:23.382

00:52:14.590 : en:00:52:14.590

00:57:49.174 : en:00:57:49.174

01:01:54.794 : en:01:01:54.794

01:07:22.080 : en:01:07:22.080

01:15:40.578 : en:01:15:40.578

01:21:03.901 : en:01:21:03.901

01:26:59.589 : en:01:26:59.589

01:32:39.137 : en:01:32:39.137

01:41:20.449 : en:01:41:20.449

01:46:47.651 : en:01:46:47.651

01:54:06.465 : en:01:54:06.465

piratbit.ru

Скачать фильм Эверест через торрент в хорошем качестве бесплатно 1080p

Раздают: 2 [ 0 KB/s ]
Размер: 4.16 GB | Добавлен: 1 год 11 мес. назад | Торрент скачан:3788 раз
Реклама Дарим 3000 рублей за регистрацию, не упусти свой шанс получить шикарный бонус!!!

18-11-2015 20:45 Эверест Скачать торрент  

Эверест / Everest ««Самое опасное место на планете»» ИНФОРМАЦИЯ: Год выпуска:2015 Страна: США, Великобритания, Исландия Жанр: триллер, драма, приключения, биография, история Продолжительность: 02:01:11 Перевод: Дубляж - [Лицензия / iTunes] Режиссер: Бальтасар КормакурВ Ролях: Джейсон Кларк (Rob Hall), Джош Бролин (Beck Weathers), Джейк Джилленхол (Scott Fischer), Сэм Уортингтон (Guy Cotter), Джон Хоукс (Doug Hansen), Майкл Келли (Jon Krakauer), Ингвар Эггерт Сигюрдссон (Anatoli Boukreev), Кира Найтли (Jan Arnold), Эмили Уотсон (Helen Wilton), Робин Райт (Peach Weathers), Мартин Хендерсон (Andy «Harold» Harris), Томас М. Райт (Michael Groom)Описание: Эверест - великая неприступная гора, покорить вершину которой мечтают многие профессиональные альпинисты. Одна из экспедиций на ее вершину закончилась настоящей трагедией, однако этот факт не останавливает отважных альпинистов.Опытный инструктор Роб Холл, собрав группу из лучших альпинистов, собирается совершить восхождение на самую высокую вершину планеты. Все эти люди полны мужества и отваги и они не остановятся ни перед чем, пока не поднимутся на вершину Эвереста. Но даже если эта гора покорится им, смогут ли они вернуться обратно живыми и невредимыми?..
  • Мировая премьера:2 сентября 2015 ТЕХ.ДАННЫЕ: Качество: WEB-DL 1080p Формат: MKV Видео: AVC, 1916x800 (2.40:1), 4432 kbps, 23,976 fps, 0,121 bpp Аудио: русский / AC3 / 5.1 / 48 kHz / 384 kbps / 16 bit || Навигация по главам: есть GeneralUnique ID : 208600515588064664950832105480593053135 (0x9CEEFF78E6E4BA4184FFF56B1E7F95CF)Complete name : D:\Торенты\3B3P3Ct.2015.D.WEB-DL.1080p.mkvFormat : MatroskaFormat version : Version 4 / Version 2File size : 4.16 GiBDuration : 2h 1mnOverall bit rate : 4 914 KbpsEncoded date : UTC 2015-11-18 19:16:35Writing application : mkvmerge v8.3.0 ('Over the Horizon') 64bitWriting library : libebml v1.3.1 + libmatroska v1.4.2

    VideoID : 1Format : AVCFormat/Info : Advanced Video CodecFormat profile : [email protected] settings, CABAC : YesFormat settings, ReFrames : 5 framesCodec ID : V_MPEG4/ISO/AVCDuration : 2h 1mnBit rate : 4 432 KbpsWidth : 1 916 pixelsHeight : 800 pixelsDisplay aspect ratio : 2.40:1Frame rate : 23.976 fpsColor space : YUVChroma subsampling : 4:2:0Bit depth : 8 bitsScan type : ProgressiveBits/(Pixel*Frame) : 0.121Stream size : 3.75 GiB (90%)Language : EnglishDefault : YesForced : NoColor primaries : BT.709-5, BT.1361, IEC 61966-2-4, SMPTE RP177Transfer characteristics : BT.709-5, BT.1361Matrix coefficients : BT.709-5, BT.1361, IEC 61966-2-4 709, SMPTE RP177

    AudioID : 2Format : AC-3Format/Info : Audio Coding 3Mode extension : CM (complete main)Codec ID : A_AC3Duration : 2h 1mnBit rate mode : ConstantBit rate : 384 KbpsChannel(s) : 6 channelsChannel positions : Front: L C R, Side: L R, LFESampling rate : 48.0 KHzBit depth : 16 bitsCompression mode : LossyStream size : 333 MiB (8%)Language : RussianDefault : YesForced : No

    Menu00:00:00.000 : en:глава 100:05:14.000 : en:глава 200:09:38.000 : en:глава 300:15:15.000 : en:глава 400:21:00.000 : en:глава 500:26:32.000 : en:глава 600:33:17.000 : en:глава 700:40:25.000 : en:глава 800:47:25.000 : en:глава 900:52:16.000 : en:глава 1000:57:51.000 : en:глава 1101:01:56.000 : en:глава 1201:07:24.000 : en:глава 1301:15:42.000 : en:глава 1401:21:05.000 : en:глава 1501:27:01.000 : en:глава 1601:32:41.000 : en:глава 1701:41:22.000 : en:глава 1801:46:49.000 : en:глава 1901:54:06.000 : en:глава 20

    Скриншоты: © Оформление by .::Ворон::.
  • Скачать Эверест через торрент http://pic.pb.wtf/images/6/ordi9.jpg Скачать фильм Эверест через торрент бесплантно в хорошем качестве Описание: Эверест - великая неприступная гора, покорить вершину которой мечтают многие профессиональные альпинисты. Одна из экспедиций на ... 2015-11-18 20:45 9.3 10 81

    Loading...

    Loading...

    Рекламный пират

    18-11-2015 21:56 Эверест Скачать торрент  

    Фильм очень понравился! Хочу его к себе в коллекцию. Надеюсь, качество не подведёт. Ворон - Низкий Поклон за Труд, и СПАСИБО за Релиз!

    18-11-2015 22:27 Эверест Скачать торрент  

    8ironwead8, Спасибо за спасибо. Для коллекции лучше подождать рип с блюрея, когда будет хз.

    19-11-2015 10:52 Эверест Скачать торрент  

    фильмец на разок,пол фильма балабонье,под конец ток залезли -начались действия и уже конец фильма,ахаха

    19-11-2015 22:19 Эверест Скачать торрент  

    dimdim80 писал(а):

    фильмец на разок,пол фильма балабонье,под конец ток залезли -начались действия и уже конец фильма,ахаха

    А ты чего ждал... пока кто нибудь выбежит и из дробовика начнет стрелять?

    20-11-2015 09:07 Эверест Скачать торрент  

    Отличный на реальных событиях фильм!

    20-11-2015 20:00 Эверест Скачать торрент  

    фильм на разок, но к просмотру

    21-11-2015 20:15 Эверест Скачать торрент  

    добротный фильм.посмотрел с удовольствием

    22-11-2015 04:56 Эверест Скачать торрент  

    хороший фильм

    Pекламный агент PB

    22-11-2015 13:01 Эверест Скачать торрент  

    Сильный фильм. Спасибо

    22-11-2015 15:09 Эверест Скачать торрент  

    Таких ---------------------------- не жалко Сами упорно лезут в---------------------

    22-11-2015 15:17 Эверест Скачать торрент  

    22-11-2015 17:55 Эверест Скачать торрент  

    Классный фильм. Очень понравился. Советую посмотреть!!!

    26-11-2015 19:10 Эверест Скачать торрент  

    testtest писал(а):

    Таких долбоебов не жалко Сами упорно лезут в залупу

    почему то тоже такое мнение сложилось.занимаюсь технодайвингом , и если бы у нас была такая подготовка к серьезным погружениям , мы бы тоже все передохли .Короче с точки зрения подготовки к серьезному экстриму ЦИРК ШОПИТО какой то.

    З.Ы. Уверен , что у настоящих профи такой дури как в этом "шедевре" нет!

    27-11-2015 04:11 Эверест Скачать торрент  

    HAPKOMAH писал(а):

    dimdim80 писал(а):

    фильмец на разок,пол фильма балабонье,под конец ток залезли -начались действия и уже конец фильма,ахаха

    А ты чего ждал... пока кто нибудь выбежит и из дробовика начнет стрелять?я имел ввиду что фильм унылый,собирались больше пол фильма,п-дежа много,сечешь о чем я))

    30-11-2015 16:41 Эверест Скачать торрент  

    Фильм очень понравился!!!! Автору спасибо!!!

    03-12-2015 18:13 Эверест Скачать торрент  

    А можно попросить, где MKV формат качнуть, а то не открывает

    Pекламный агент PB

    03-12-2015 18:15 Эверест Скачать торрент  

    06-12-2015 19:32 Эверест Скачать торрент  

    Однозначно 10 замерзших скалолазов из 10.

    07-12-2015 18:43 Эверест Скачать торрент  

    Для одного раза хороший фильм, не в коллекцию конечно (лично мое мнение). Слышал от знакомых мол не понравился в кино, не для кинотеатра все же этот фильм, а дома посмотреть нормально

    17-12-2015 20:44 Эверест Скачать торрент  

    Офигенный фильмец! Автору спасибо огромное!!! Смотрел с супругой на одном дыхании!!!)))

    Дорогой пользователь! Огромная просьба, поблагодарите релизера, оцените раздачу и оставьте свои комментарий, если Вы скачали Эверест через торрент бесплатно! Внесите свою лепту в развитие PiratBit!

    Комментировать посты могут только пользователи прошедшие не сложную регистрацию

    Эверест через торрент Скачать бесплатно Эверест Эверест скачать торрент Эверест смотреть онлайн Cкачать фильм Эверест бесплатно Эверест скачать торрент в хорошем качестве Эверест смотреть онлайн бесплатно в хорошем качестве

    Вы не можете начинать темыВы не можете отвечать на сообщенияВы не можете редактировать свои сообщенияВы не можете удалять свои сообщенияВы не можете голосовать в опросахВы не можете прикреплять файлы к сообщениямВы можете скачивать файлы

    piratbit.ru

    Скачать торрент Эверест / Everest (2015) Blu-ray | 3D-Video

    Производство: США, Великобритания, Исландия / Cross Creek Pictures, Free State Pictures, Universal PicturesЖанр: триллер, драма, приключения, биография, история

    Режиссер: Бальтасар КормакурПродюсер: Ники Кентиш Барнс, Тим Беван, Лиза ЧейсинАктеры: Джейсон Кларк, Джош Бролин, Джон Хоукс, Робин Райт, Эмили Уотсон, Кира Найтли, Сэм Уортингтон, Джейк Джилленхол, Томас М. Райт, Мартин Хендерсон

    Описание: Эверест — великая неприступная гора, покорить вершину которой мечтают многие профессиональные альпинисты. Одна из экспедиций на ее вершину закончилась настоящей трагедией, однако этот факт не останавливает отважных альпинистов.

    Опытный инструктор Роб Холл, собрав группу из лучших альпинистов, собирается совершить восхождение на самую высокую вершину планеты. Все эти люди полны мужества и отваги и они не остановятся ни перед чем, пока не поднимутся на вершину Эвереста. Но даже если эта гора покорится им, смогут ли они вернуться обратно живыми и невредимыми?..

    Рейтинг MPAA: PG-13 - детям до 13 лет просмотр не желателенДата мировой премьеры: 2 сентября 2015Дата российской премьеры: 24 сентября 2015, «UPI» 3D

    Релиз от: hdclubПродолжительность: 02:01:10Качество: Blu-ray 3DПеревод: Дублированный (Лицензия BD CEE)Вид субтитров: вшитые, отключаемыеЯзык субтитров: Английский, Болгарский, Хорватский, Чешский, Эстонский, Греческий, Иврит, Венгерский, Латышский, Литовский, Польский, Румынский, Русский, Словенский, Турецкий, Украинский

    Видео: AVC/H.264, 1920x1080p, (16:9), ~21038 kbps, 23.976 fps, MVC/H.264, ~13621 kbpsАудио: AC3, 6 ch, 448 kbps - РусскийАудио: AC3, 6 ch, 640 kbps - ЧешскийАудио: AC3, 6 ch, 640 kbps - ВенгерскийАудио: AC3, 6 ch, 448 kbps - ПольскийАудио: AC3, 6 ch, 448 kbps - ТурецкийАудио: Dolby TrueHD, 8 ch, 4887 kbps - Английский

    BDInfo:

    DISC INFO:

    Disc Title: EVEREST_3D_UPT2_HDCLUB Disc Size: 44 344 956 154 bytes Protection: AACS BD-Java: Yes Extras: Blu-ray 3D BDInfo: 0.5.8

    PLAYLIST REPORT:

    Name: 00800.MPLS Length: 2:01:11.430 (h:m:s.ms) Size: 42 692 659 200 bytes Total Bitrate: 46,97 Mbps

    VIDEO:

    Codec Bitrate Deion ----- ------- ----------- MPEG-4 AVC Video 21038 kbps 1080p / 23,976 fps / 16:9 / High Profile 4.1 MPEG-4 MVC Video 13621 kbps

    AUDIO:

    Codec Language Bitrate Deion ----- -------- ------- ----------- Dolby TrueHD Audio English 4887 kbps 7.1 / 48 kHz / 4887 kbps / 24-bit (AC3 Embedded: 5.1-EX / 48 kHz / 640 kbps) Dolby Digital Audio Czech 640 kbps 5.1 / 48 kHz / 640 kbps / DN -4dB Dolby Digital Audio Hungarian 640 kbps 5.1 / 48 kHz / 640 kbps / DN -4dB Dolby Digital Audio Polish 448 kbps 5.1 / 48 kHz / 448 kbps / DN -4dB Dolby Digital Audio Russian 448 kbps 5.1 / 48 kHz / 448 kbps / DN -4dB Dolby Digital Audio Turkish 448 kbps 5.1 / 48 kHz / 448 kbps / DN -4dB

    SUBTITLES:

    Codec Language Bitrate Deion ----- -------- ------- ----------- Presentation Graphics English 38,853 kbps Presentation Graphics Bulgarian 26,593 kbps Presentation Graphics Croatian 31,152 kbps Presentation Graphics Czech 23,910 kbps Presentation Graphics Czech 0,164 kbps Presentation Graphics Estonian 27,366 kbps Presentation Graphics Greek 35,526 kbps Presentation Graphics Hebrew 22,482 kbps Presentation Graphics Hungarian 32,036 kbps Presentation Graphics Hungarian 0,026 kbps Presentation Graphics Latvian 27,489 kbps Presentation Graphics Lithuanian 33,623 kbps Presentation Graphics Polish 23,865 kbps Presentation Graphics Romanian 26,555 kbps Presentation Graphics Russian 31,750 kbps Presentation Graphics Russian 1,203 kbps Presentation Graphics Slovenian 24,314 kbps Presentation Graphics Turkish 33,192 kbps Presentation Graphics Turkish 0,096 kbps Presentation Graphics Ukrainian 30,366 kbps

    FILES:

    Name Time In Length Size Total Bitrate ---- ------- ------ ---- ------------- 00023.SSIF 0:00:00.000 2:01:11.430 42 692 659 200 46 970

    Скриншоты: Время раздачи: 24/7

    krutor.org

    Скачать фильм Эверест через торрент в хорошем качестве бесплатно 720p от potroks

    GeneralUnique ID                   : 253928076897938960224971631580946514954 (0xBF08C4C9A4D176F09D107DAF845E440A)Complete name               : Everest.2015.DUAL.BDRip.720p.-HELLYWOOD.mkvFormat                      : MatroskaFormat version              : Version 4 / Version 2File size                   : 4.37 GiBDuration                    : 2h 1mnOverall bit rate            : 5 168 KbpsMovie name                  : Everest (2015) - HELLYWOODEncoded date                : UTC 2010-02-22 21:41:31Writing application         : mkvmerge v5.8.0 ('No Sleep / Pillow') built on Sep 30 2012 10:57:14Writing library             : libebml v1.3.0 + libmatroska v1.4.0

    VideoID                          : 1Format                      : AVCFormat/Info                 : Advanced Video CodecFormat profile              : [email protected] settings, CABAC      : YesFormat settings, ReFrames   : 9 framesCodec ID                    : V_MPEG4/ISO/AVCDuration                    : 2h 1mnBit rate                    : 4 269 KbpsWidth                       : 1 280 pixelsHeight                      : 536 pixelsDisplay aspect ratio        : 2.40:1Frame rate mode             : ConstantFrame rate                  : 23.976 fpsColor space                 : YUVChroma subsampling          : 4:2:0Bit depth                   : 8 bitsScan type                   : ProgressiveBits/(Pixel*Frame)          : 0.260Stream size                 : 3.53 GiB (81%)Title                       : potroksWriting library             : x264 core 146 r2538 121396cEncoding settings           : cabac=1 / ref=9 / deblock=1:-3:-3 / analyse=0x3:0x113 / me=umh / subme=11 / psy=1 / psy_rd=1.04:0.10 / mixed_ref=1 / me_range=56 / chroma_me=1 / trellis=2 / 8x8dct=1 / cqm=0 / deadzone=21,11 / fast_pskip=0 / chroma_qp_offset=-3 / threads=9 / lookahead_threads=2 / sliced_threads=0 / nr=0 / decimate=0 / interlaced=0 / bluray_compat=0 / constrained_intra=0 / bframes=10 / b_pyramid=2 / b_adapt=2 / b_bias=0 / direct=3 / weightb=1 / open_gop=0 / weightp=2 / keyint=240 / keyint_min=23 / scenecut=40 / intra_refresh=0 / rc_lookahead=60 / rc=2pass / mbtree=0 / bitrate=4269 / ratetol=1.0 / qcomp=0.70 / qpmin=0 / qpmax=69 / qpstep=4 / cplxblur=20.0 / qblur=0.5 / vbv_maxrate=14000 / vbv_bufsize=14000 / nal_hrd=none / filler=0 / ip_ratio=1.40 / pb_ratio=1.30 / aq=1:0.80Language                    : EnglishDefault                     : YesForced                      : No

    Audio #1ID                          : 2Format                      : AC-3Format/Info                 : Audio Coding 3Mode extension              : CM (complete main)Format settings, Endianness : BigCodec ID                    : A_AC3Duration                    : 2h 1mnBit rate mode               : ConstantBit rate                    : 448 KbpsChannel(s)                  : 6 channelsChannel positions           : Front: L C R, Side: L R, LFESampling rate               : 48.0 KHzFrame rate                  : 31.250 fps (1536 spf)Compression mode            : LossyStream size                 : 388 MiB (9%)Title                       : Dub | DD 5.1 @ 448 kbps - Blu-Ray CEELanguage                    : RussianDefault                     : YesForced                      : No

    Audio #2ID                          : 3Format                      : AC-3Format/Info                 : Audio Coding 3Mode extension              : CM (complete main)Format settings, Endianness : BigCodec ID                    : A_AC3Duration                    : 2h 1mnBit rate mode               : ConstantBit rate                    : 448 KbpsChannel(s)                  : 6 channelsChannel positions           : Front: L C R, Side: L R, LFESampling rate               : 48.0 KHzFrame rate                  : 31.250 fps (1536 spf)Compression mode            : LossyStream size                 : 388 MiB (9%)Title                       : Original | DD 5.1 @ 448 kbpsLanguage                    : EnglishDefault                     : NoForced                      : No

    Text #1ID                          : 4Format                      : UTF-8Codec ID                    : S_TEXT/UTF8Codec ID/Info               : UTF-8 Plain TextTitle                       : ForcedLanguage                    : RussianDefault                     : YesForced                      : No

    Text #2ID                          : 5Format                      : UTF-8Codec ID                    : S_TEXT/UTF8Codec ID/Info               : UTF-8 Plain TextTitle                       : iTunesLanguage                    : RussianDefault                     : NoForced                      : No

    Text #3ID                          : 6Format                      : UTF-8Codec ID                    : S_TEXT/UTF8Codec ID/Info               : UTF-8 Plain TextTitle                       : ForcedLanguage                    : UkrainianDefault                     : NoForced                      : No

    Text #4ID                          : 7Format                      : UTF-8Codec ID                    : S_TEXT/UTF8Codec ID/Info               : UTF-8 Plain TextTitle                       : iTunesLanguage                    : UkrainianDefault                     : NoForced                      : No

    Text #5ID                          : 8Format                      : UTF-8Codec ID                    : S_TEXT/UTF8Codec ID/Info               : UTF-8 Plain TextTitle                       : FullLanguage                    : EnglishDefault                     : NoForced                      : No

    Text #6ID                          : 9Format                      : UTF-8Codec ID                    : S_TEXT/UTF8Codec ID/Info               : UTF-8 Plain TextTitle                       : SDHLanguage                    : EnglishDefault                     : NoForced                      : No

    Menu00:00:00.000                : en:(01)00:00:00:00000:05:12.145                : en:(02)00:05:12:14500:09:36.075                : en:(03)00:09:36:07500:15:13.162                : en:(04)00:15:13:16200:20:58.423                : en:(05)00:20:58:42300:26:30.714                : en:(06)00:26:30:71400:33:15.118                : en:(07)00:33:15:11800:40:23.754                : en:(08)00:40:23:75400:47:23.382                : en:(09)00:47:23:38200:52:14.589                : en:(10)00:52:14:58900:57:49.174                : en:(11)00:57:49:17401:01:54.794                : en:(12)01:01:54:79401:07:22.079                : en:(13)01:07:22:07901:15:40.577                : en:(14)01:15:40:57701:21:03.900                : en:(15)01:21:03:90001:26:59.589                : en:(16)01:26:59:58901:32:39.136                : en:(17)01:32:39:13601:41:20.449                : en:(18)01:41:20:44901:46:47.651                : en:(19)01:46:47:65101:54:06.464                : en:(20)01:54:06:464

    piratbit.ru


    Смотрите также