Если я останусь скачать торрент в хорошем качестве бесплатно


Если я останусь / If I Stay скачать фильм торрент 2014 -

Коротко о фильме "Если я останусь" - Мия — талантливая девушка, влюбленная в классическую музыку, в свою виолончель и рокера Адама. Но после автокатастрофы Мия оказывается в коме. Пока тело девушки лежит в больнице, ее душа должна решить, хочет ли она жить дальше или же лучше отправиться в мир иной вслед за своими родными.

Добавлено BDRip, HDRip, лицензия.

Если я останусь

Оригинальное название If I Stay
Фильм выпущен: 2014
Страна (кинокомпания): США
Pежиссер: Р.Дж. Катлер
Сценарий фильма: Шона Кросс, Гейл Форман
Продюсер фильма: Денис Ди Нови, Элисон Гринспен, Гейл Форман
Оператор: Джон де Борман
Композитор: Эйтор Перейра
Художники: Брент Томас, Моника Прудом, Луиз Роупер
Монтаж: Кит Хендерсон
Жанр фильма: драма
Премьера (мир): 18 августа 2014
премьера (Pоссия): 28 августа 2014, Каро-Премьер
продолжительность107 мин
В главных ролях:
Али Милнер
Джейкоб Дейвис
Габриель Роз
Стейси Кич
Лиана Либерато
Джошуа Леонард
Джейми Блэкли
Мирей Инос
Хлоя Грейс Морец
и другие ...

Трейлер фильма:

 

Фильм Если я останусь / If I Stay скачать торрент - новинка кино 2014

Скачать файлы .torrent Если я останусь (фильм)

на сайте Вы можете получить ссылку на торрент файлы или скачать сами торрент файлы, в которых находится информация о местонахождении фильмов, сериалов у пользователей.

В фильме "Если я останусь" - юную Миа Холл после автокатастрофы погружают в кому, во время внетелесного эксперимента она должна решить, проснуться ли и жить жизнью, сильно отличающейся от той, что она себе представляла



Параметры: 14.06.2017 HDRip-AVC от ImperiaFilm | D, 742 Мб

Формат: HDRip-AVC, MKV, AAC, размер файла: 742 МбВидео: 688x288, H.264 - 899 Кбит/сАудио: AAC, 2 канала, ~72 Кбит/сПеревод (озвучивание): Профессиональный (дублированный)

Параметры: 10.12.2014 BDRip-AVC от HELLYWOOD | Лицензия, 2,18 Гб

Формат: BDRip-AVC, MKV, AC3, размер файла: 2,18 ГбВидео: 1104x460, H.264 - 2030 Кбит/сАудио: Русский: AC3, 6 каналов, 448 Кбит/с / English: AC3, 6 каналов, 448 Кбит/сПеревод (озвучивание): Профессиональный (дублированный) [лицензия BD EUR]

Параметры: 30.11.2014 BDRip 1080p от Leonardo and Scarabey | Лицензия, 6,46 Гб

Формат: BDRip 1080p Исходник: Blu-ray, MKV, AVC, AC3, размер файла: 6,46 ГбВидео: 1920x800, AVC - AVC at 7860 Кбит/сАудио: AC3, 6 каналов, 640 Кбит/сПеревод (озвучивание): Профессиональный (полное дублирование) Лицензия

Параметры: 30.11.2014 BDRip 720p от Leonardo and Scarabey | Лицензия, 2,80 Гб

Формат: BDRip 720p Исходник: Blu-ray, MKV, AVC, AC3, размер файла: 2,80 ГбВидео: 1280x534, AVC - AVC at 3047 Кбит/сАудио: AC3, 6 каналов, 640 Кбит/сПеревод (озвучивание): Профессиональный (полное дублирование) Лицензия

Параметры: 24.11.2014 HDRip от Scarabey | D | Лицензия, 1,45 Гб

Формат: HDRip, AVI, XviD, AC3, размер файла: 1,45 ГбВидео: 720x304, XviD - build 73 ~1486 Кбит/сАудио: AC3, 6 каналов, 448 Кбит/сПеревод (озвучивание): Профессиональный (дублированный) - Лицензия

Параметры: 23.11.2014 BDRip от HQCLUB | Лицензия, 2237 Мб

Формат: BDRip (источник: / Blu-ray EUR / 1080p), AVI, XviD, AC3, размер файла: 2237 МбВидео: 720x304, XviD - MPEG-4 ~2027 Кбит/сАудио: AC3, 6 каналов, 448 Кбит/с / English: AC3, 6 каналов, 448 Кбит/сПеревод (озвучивание): Профессиональный (полное дублирование), BD EUR

Параметры: 23.11.2014 1,96 Гб -

Формат: BDRip (AVC), MKV, AVC, AC3, размер файла: 1,96 ГбВидео: 1024x424, AVC - 1560 Кбит/сАудио: Русский: AC3, 6 каналов, 448 Кбит/с / Английский: AC3, 6 каналов, 448 Кбит/сПеревод (озвучивание): Дублированный [Лицензия]

Параметры: 23.11.2014 HDRip, 2,18 Гб -

Формат: HDRip, XviD, AC3, размер файла: 2,18 ГбВидео: 720x304, XviD - 1954 Кбит/сАудио: Русский: AC3, 6 каналов, 448 Кбит/с / Английский: AC3, 6 каналов, 448 Кбит/сПеревод (озвучивание): Дублированный [Лицензия]

Параметры: 23.11.2014 13,07 Гб -

Формат: BDRip (1080p), MKV, AVC, Russian: DTS, размер файла: 13,07 ГбВидео: 1920x800, AVC - 14700 Кбит/сАудио: Русский: Russian: DTS, 6 каналов, 768 Кбит/с / English: English: DTS, 6 каналов, 1509 Кбит/сПеревод (озвучивание): Дублированный [Лицензия]

Скачать Если я останусь, If I Stay, фильм бесплатно скачать торрент, драма, новинка кино

 

hokit.ru

Скачать фильм Если я останусь (2014) через торрент

19 февраля 2016 11:31 Если я останусь / If I Stay (2014) BDRip-AVC от HELLYWOOD | Лицензия .torrent   [Информация о файле (нажмите для просмотра)] Перевод: Профессиональный (дублированный) [лицензия BD EUR]Субтитры: Русские, украинские, английские (Full + SDH + SDH-Colored)Качество: BDRip-AVCФормат: MKVВидео: х.264, 1104x460 (2,40:1), 23,976 fps, 2030 kbps, 0.167 bit/pixelАудио#1: 48 kHz, AC3 Dolby Digital, 3/2 (L,C,R,l,r) + LFE ch, 448.00 kbps |RUSАудио#2: 48 kHz, AC3 Dolby Digital, 3/2 (L,C,R,l,r) + LFE ch, 448.00 kbps |ENG 2,18 Gb 41 1 19 февраля 2016 11:31 Если я останусь / If I Stay (2014) BDRip 1080p от Leonardo and Scarabey | Лицензия .torrent   [Информация о файле (нажмите для просмотра)] Перевод: Профессиональный (полное дублирование) ЛицензияФормат: MKVВидео кодек: MPEG-4 AVC Аудио кодек: AC3Видео: AVC, 1920x800 (2.40:1) at 23.976 fps, AVC at 7860 kbps avg, 0.213 bit/pixelАудио: AC3, 640 Kbps, CBR, 6 chСубтитры: Русские, английские 6,46 Gb 33 5 19 февраля 2016 11:31 Если я останусь / If I Stay (2014) BDRip 720p от Leonardo and Scarabey | Лицензия .torrent   [Информация о файле (нажмите для просмотра)] Перевод: Профессиональный (полное дублирование) ЛицензияФормат: MKVВидео кодек: MPEG-4 AVC Аудио кодек: AC3Видео: 1280x534 (2.40:1) at 23.976 fps, AVC at 3047 kbps avg, 0.186 bit/pixelАудио: AC3, 640 Kbps, CBR, 6 chСубтитры: Русские, английские 2,8 Gb 42 6 19 февраля 2016 11:31 Если я останусь / If I Stay (2014) HDRip от Scarabey | D | Лицензия .torrent   [Информация о файле (нажмите для просмотра)] Перевод: Профессиональный (дублированный) - ЛицензияВидео: 720x304 (2.37:1), 23.976 fps, XviD build 73 ~1486 kbps avg, 0.28 bit/pixelАудио: 48 kHz, AC3 Dolby Digital, 3/2 (L,C,R,l,r) + LFE ch, ~448.00 kbps avg 1,45 Gb 171 10 19 февраля 2016 11:31 Если я останусь / If I Stay (2014) BDRip 1080p от NNNB .torrent   [Информация о файле (нажмите для просмотра)] Перевод: ДублированныйКачество: BDRip 1080p (исходник Blu-ray Disc)Видео: 1920x800, 9328 Кбит/сек, 23,976 кадр/сек, AVC, x264, [email protected], 2.40:1, 0.253 Бит/[Пиксели*Кадры]Аудио 1: AC-3, 448 Кбит/сек, 6 канала(ов), 48,0 КГц - Дублированный / РусскийАудио 2: AC-3, 640 Кбит/сек, 6 канала(ов), 48,0 КГц - Оригинал / АнглийскийСубтитры: Русские | Полные, Английские | Полные 7,75 Gb 20 3 19 февраля 2016 11:31 Если я останусь / If I Stay (2014) BDRip 1080p | Лицензия .torrent   [Информация о файле (нажмите для просмотра)] Перевод: Профессиональный (дублированный)Кодек: MKVКачество: BDRip 1080pВидео: MPEG-4 AVC, 14.9 Mbps, 1920x800, 23,976 fpsЗвук: Аудио: Rus, DTS, 768 kb/s (6 ch), 48 kHz Аудио 2: Eng, DTS, 1510 kb/s (6 ch), 48 kHzСубтитры: Rus, Ukr, Eng 13,07 Gb 15 5 19 февраля 2016 11:31 Если я останусь / If I Stay (2014) BDRip 720p Лицензия .torrent   [Информация о файле (нажмите для просмотра)] Перевод: Профессиональный (дублированный)Кодек: MKVКачество: BDRip 720pВидео: MPEG-4 AVC, 7037 Кбит/с, 1280x534, 23,976 fpsЗвук: Аудио: Rus, AC3, 640 kb/s (6 ch), 48 kHz Аудио 2: Eng, AC3, 640 kb/s (6 ch), 48 kHzСубтитры: Rus, Ukr, Eng 6,32 Gb 12 3 19 февраля 2016 11:31 Если я останусь / If I Stay (2014) BDRip от HQCLUB | Лицензия .torrent   [Информация о файле (нажмите для просмотра)] Перевод: Профессиональный (полное дублирование),BD EURСубтитры: русские (полные), украинские (полные), английские (полные)Формат: AVIКачество: BDRip (источник / Blu-ray EUR / 1080p)Видео: 720x304 (2.37:1), 23.976 fps, XviD MPEG-4 ~2027 kbps avg, 0.39 bit/pixelАудио #1: 48 kHz, AC3 Dolby Digital, 3/2 (L,C,R,l,r) + LFE ch, ~448 kbps avg (DUB)Аудио #2: 48 kHz, AC3 Dolby Digital, 3/2 (L,C,R,l,r) + LFE ch, ~448 kbps avg (ENG) 2,18 Gb 60 5 19 февраля 2016 11:30 Если я останусь / If I Stay (2014) HDRip от ExKinoRay | Лицензия .torrent   [Информация о файле (нажмите для просмотра)] Перевод: Профессиональный (дублированный) ЛицензияКачество: HDRipВидео: XviD, 1954 Кбит/с, 720x304Аудио: Русский, английский (AC3, 6 ch, 448 Кбит/с)Перевод: Дублированный 2,14 Gb 16 5 19 февраля 2016 11:30 Если я останусь / If I Stay (2014) BDRip-AVC .torrent   [Информация о файле (нажмите для просмотра)] Перевод: Дублированный (Blu-ray EUR)Кодек: MPEG-4 AVCКачество: BDRip-AVCВидео: 1024x424, 1560 Кбит/сЗвук: Русский (AC3, 6 ch, 448 Кбит/с), английский (AC3, 6 ch, 448 Кбит/с), (AAC, 2 ch, 120 Кбит/с)Субтитры: Русские, английские, украинскиеВидео: Идентификатор : 1 Формат : AVC Формат/Информация : Advanced Video Codec Профиль формата : [email protected] Параметр CABAC формата : Да Параметр ReFrames формата : 9 кадров Идентификатор кодека : V_MPEG4/ISO/AVC Продолжительность : 1 ч. 46 м. Номинальный битрейт : 1560 Кбит/сек Ширина : 1024 пикселя Высота : 424 пикселя Соотношение сторон : 2,40:1 Режим частоты кадров : Постоянный Частота кадров : 23,976 кадра/сек Цветовое пространство : YUV Субдискретизация насыщенности : 4:2:0 Битовая глубина : 8 бит Тип развёртки : Прогрессивная Бит/(Пиксели*Кадры) : 0.150 Библиотека кодирования : x264 core 142 r2431 ac76440 Настройки программы : cabac=1 / ref=9 / deblock=1:-2:-2 / analyse=0x3:0x113 / me=umh / subme=11 / psy=1 / psy_rd=1.00:0.20 / mixed_ref=1 / me_range=48 / chroma_me=1 / trellis=2 / 8x8dct=1 / cqm=0 / deadzone=21,11 / fast_pskip=0 / chroma_qp_offset=-3 / threads=12 / lookahead_threads=3 / sliced_threads=0 / nr=0 / decimate=0 / interlaced=0 / bluray_compat=0 / constrained_intra=0 / bframes=8 / b_pyramid=2 / b_adapt=2 / b_bias=0 / direct=3 / weightb=1 / open_gop=0 / weightp=2 / keyint=250 / keyint_min=23 / scenecut=40 / intra_refresh=0 / rc=2pass / mbtree=0 / bitrate=1560 / ratetol=1.0 / qcomp=0.60 / qpmin=0 / qpmax=69 / qpstep=4 / cplxblur=20.0 / qblur=0.5 / ip_ratio=1.40 / pb_ratio=1.30 / aq=1:1.00 Язык : English Default : Да Forced : НетАудио #1: Идентификатор : 2 Формат : AC-3 Формат/Информация : Audio Coding 3 Расширение режима : CM (complete main) Параметр Endianness формата : Big Идентификатор кодека : A_AC3 Продолжительность : 1 ч. 46 м. Вид битрейта : Постоянный Битрейт : 448 Кбит/сек Каналы : 6 каналов Расположение каналов : Front: L C R, Side: L R, LFE Частота : 48,0 КГц Битовая глубина : 16 бит Метод сжатия : С потерями Размер потока : 342 Мбайт (17%) Язык : Russian Default : Да Forced : НетАудио #2: Идентификатор : 3 Формат : AC-3 Формат/Информация : Audio Coding 3 Расширение режима : CM (complete main) Параметр Endianness формата : Big Идентификатор кодека : A_AC3 Продолжительность : 1 ч. 46 м. Вид битрейта : Постоянный Битрейт : 448 Кбит/сек Каналы : 6 каналов Расположение каналов : Front: L C R, Side: L R, LFE Частота : 48,0 КГц Битовая глубина : 16 бит Метод сжатия : С потерями Размер потока : 342 Мбайт (17%) Язык : English Default : Нет Forced : НетАудио #3: Идентификатор : 4 Формат : AAC Формат/Информация : Advanced Audio Codec Профиль формата : LC Идентификатор кодека : A_AAC Продолжительность : 1 ч. 46 м. Каналы : 2 канала Расположение каналов : Front: L R Частота : 48,0 КГц Метод сжатия : С потерями Задержка видео : 20 мс. Заголовок : Commentary by R.J. Cutler and Alison Greenspan Язык : English Default : Нет Forced : НетАудио #4: Идентификатор : 5 Формат : AAC Формат/Информация : Advanced Audio Codec Профиль формата : LC Идентификатор кодека : A_AAC Продолжительность : 1 ч. 46 м. Каналы : 2 канала Расположение каналов : Front: L R Частота : 48,0 КГц Метод сжатия : С потерями Задержка видео : 20 мс. Заголовок : Music Commentary by R.J. Cutler Язык : English Default : Нет Forced : Нет 1,96 Gb 11 2 19 февраля 2016 11:30 Если я останусь / If I Stay (2014) BDRip-AVC от HQCLUB | Лицензия .torrent   [Информация о файле (нажмите для просмотра)] Перевод: Профессиональный (полное дублирование),BD EURСубтитры: русские (полные), украинские (полные), английские (полные)Формат: MKVКачество: BDRip-AVC (источник / Blu-ray EUR / 1080p)Видео: 1152x480 (2.40:1), 23.976 fps, MPEG-4 AVC, ~3255 kbps avg, 0.246 bit/pixelАудио #1: 48 kHz, AC3 Dolby Digital, 3/2 (L,C,R,l,r) + LFE ch, ~448 kbps avg (DUB)Аудио #2: 48 kHz, AC3 Dolby Digital, 3/2 (L,C,R,l,r) + LFE ch, ~448 kbps avg (ENG)Аудио #3: 48 kHz, AC3 Dolby Digital, 2/0 (L,R) ch, ~192 kbps avg (UKR.ITUNES)Видео: Идентификатор : 1 Формат : AVC Формат/Информация : Advanced Video Codec Профиль формата : [email protected] Параметр CABAC формата : Да Параметр ReFrames формата : 12 кадров Идентификатор кодека : V_MPEG4/ISO/AVC Продолжительность : 1 ч. 46 м. Битрейт : 3255 Кбит/сек Ширина : 1152 пикселя Высота : 480 пикселей Соотношение сторон : 2,40:1 Режим частоты кадров : Постоянный Частота кадров : 23,976 кадра/сек Цветовое пространство : YUV Субдискретизация насыщенности : 4:2:0 Битовая глубина : 8 бит Тип развёртки : Прогрессивная Бит/(Пиксели*Кадры) : 0.246 Размер потока : 2,43 Гбайт (77%) Заголовок : Если я останусь / If I Stay (2014) BDRip-AVC by HQCLUB [Elheym Библиотека кодирования : x264 core 142 r2479kMod dd79a61 Настройки программы : cabac=1 / ref=12 / deblock=1:-3:-2 / analyse=0x3:0x133 / me=umh / subme=11 / psy=1 / fade_compensate=0.00 / psy_rd=1.06:0.00 / mixed_ref=1 / me_range=32 / chroma_me=1 / trellis=2 / 8x8dct=1 / cqm=0 / deadzone=21,11 / fast_pskip=0 / chroma_qp_offset=-4 / threads=6 / lookahead_threads=1 / sliced_threads=0 / nr=0 / decimate=0 / interlaced=0 / bluray_compat=0 / constrained_intra=0 / fgo=0 / bframes=15 / b_pyramid=2 / b_adapt=2 / b_bias=0 / direct=3 / weightb=1 / open_gop=0 / weightp=2 / keyint=230 / keyint_min=23 / scenecut=40 / intra_refresh=0 / rc_lookahead=40 / rc=crf / mbtree=1 / crf=16.1500 / qcomp=0.70 / qpmin=0 / qpmax=69 / qpstep=4 / vbv_maxrate=50000 / vbv_bufsize=62500 / crf_max=0.0 / nal_hrd=none / filler=0 / ip_ratio=1.40 / aq=2:0.90 Язык : English Default : Да Forced : НетАудио #1: Идентификатор : 2 Формат : AC-3 Формат/Информация : Audio Coding 3 Расширение режима : CM (complete main) Параметр Endianness формата : Big Идентификатор кодека : A_AC3 Продолжительность : 1 ч. 46 м. Вид битрейта : Постоянный Битрейт : 448 Кбит/сек Каналы : 6 каналов Расположение каналов : Front: L C R, Side: L R, LFE Частота : 48,0 КГц Битовая глубина : 16 бит Метод сжатия : С потерями Размер потока : 342 Мбайт (11%) Заголовок : АС3 5.1 @ 448 kbps - Dub, BD EUR Язык : Russian Default : Нет Forced : НетАудио #2: Идентификатор : 3 Формат : AC-3 Формат/Информация : Audio Coding 3 Расширение режима : CM (complete main) Параметр Endianness формата : Big Идентификатор кодека : A_AC3 Продолжительность : 1 ч. 46 м. Вид битрейта : Постоянный Битрейт : 448 Кбит/сек Каналы : 6 каналов Расположение каналов : Front: L C R, Side: L R, LFE Частота : 48,0 КГц Битовая глубина : 16 бит Метод сжатия : С потерями Размер потока : 342 Мбайт (11%) Заголовок : АС3 5.1 @ 448 kbps - Original Язык : English Default : Нет Forced : Нет 3,16 Gb 21 2 19 февраля 2016 11:30 Если я останусь / If I Stay (2014) Blu-Ray .torrent   [Информация о файле (нажмите для просмотра)] Формат: m2tsКачество: Blu-RayВидео: MPEG-4 AVC, 30223 Кбит/с, 1920x1080Аудио 1: English / DTS-HD Master Audio / 5.1 / 48 kHz / 3310 kbps / 24-bit (DTS Core: 5.1 / 48 kHz / 1509 kbps / 24-bit)Аудио 2: Japanese / DTS Audio / 5.1 / 48 kHz / 768 kbps / 24-bitАудио 3: Spanish / DTS Audio / 5.1 / 48 kHz / 768 kbps / 24-bitАудио 4: German / DTS Audio / 5.1 / 48 kHz / 768 kbps / 24-bitАудио 5: Russian / DTS Audio / 5.1 / 48 kHz / 768 kbps / 24-bitАудио 6: Italian / DTS Audio / 5.1 / 48 kHz / 768 kbps / 24-bitАудио 7: Polish / Dolby Digital Audio / 5.1 / 48 kHz / 448 kbpsАудио 8: English / Dolby Digital Audio / 2.0 / 48 kHz / 224 kbpsАудио 9: English / Dolby Digital Audio / 2.0 / 48 kHz / 224 kbpsСубтитры: Английские, японские, испанские, немецкие, итальянские, китайские, хорватские, чешские, венгерские, польские, португальские, румынские, тайские, турецкие, корейские, малайзийские, русские, украинскиеBD InfoDISC INFO: 40,09 Gb 3 5 19 февраля 2016 11:30 Если я останусь / If I Stay (2014) BDRemux 1080p от ExKinoRay | Лицензия .torrent   [Информация о файле (нажмите для просмотра)] Перевод: Профессиональный (дублированный) ЛицензияКачество: Blu-Ray Remux (1080p)Видео: MPEG-4 AVC, 30223 Кбит/с, 1920x1080, 23.976 Кадр/сАудио: Русский (DTS, 6 ch, 768 Кбит/с), английский (DTS-HD MA, 6 ch, 3310 Кбит/с), (AC3, 2 ch, 224 Кбит/с)Субтитры: Русские, украинские, английскиеВидео: Идентификатор : 1 Формат : AVC Формат/Информация : Advanced Video Codec Профиль формата : [email protected] Параметр CABAC формата : Да Параметр ReFrames формата : 4 кадра Идентификатор кодека : V_MPEG4/ISO/AVC Продолжительность : 1 ч. 46 м. Вид битрейта : Переменный Максимальный битрейт : 32,0 Мбит/сек Ширина : 1920 пикселей Высота : 1080 пикселей Соотношение сторон : 16:9 Режим частоты кадров : Постоянный Частота кадров : 23,976 кадра/сек Цветовое пространство : YUV Субдискретизация насыщенности : 4:2:0 Битовая глубина : 8 бит Тип развёртки : Прогрессивная Заголовок : Esli.ya.ostanusj.2014.x264.Blu-Ray.EUR.Remux.1080p.gogamel74.ExKinoRay Язык : English Default : Да Forced : ДаАудио #1: Идентификатор : 2 Формат : DTS Формат/Информация : Digital Theater Systems Режим : 16 Параметр Endianness формата : Big Идентификатор кодека : A_DTS Продолжительность : 1 ч. 46 м. Вид битрейта : Постоянный Битрейт : 768 Кбит/сек Каналы : 6 каналов Расположение каналов : Front: L C R, Side: L R, LFE Частота : 48,0 КГц Битовая глубина : 24 бит Метод сжатия : С потерями Размер потока : 586 Мбайт (2%) Заголовок : DUB - RUS - BD EUR - DTS, 48 KHz, 6 ch, 768 kbps, 24 bit Язык : Russian Default : Да Forced : ДаАудио #2: Идентификатор : 3 Формат : DTS Формат/Информация : Digital Theater Systems Профиль формата : MA / Core Режим : 16 Параметр Endianness формата : Big Идентификатор кодека : A_DTS Продолжительность : 1 ч. 46 м. Вид битрейта : Переменный Битрейт : Неизвестно / 1509 Кбит/сек Каналы : 6 каналов Расположение каналов : Front: L C R, Side: L R, LFE Частота : 48,0 КГц Битовая глубина : 24 бит Метод сжатия : Без потерь / Lossy Заголовок : Original - ENG - BD EUR - DTS-HD MA, 48 KHz, 6 ch, 3310 kbps, 24 bit Язык : English Default : Нет Forced : НетАудио #3: Идентификатор : 4 Формат : AC-3 Формат/Информация : Audio Coding 3 Расширение режима : CM (complete main) Параметр Endianness формата : Big Идентификатор кодека : A_AC3 Продолжительность : 1 ч. 46 м. Вид битрейта : Постоянный Битрейт : 224 Кбит/сек Каналы : 2 канала Расположение каналов : Front: L R Частота : 48,0 КГц Битовая глубина : 16 бит Метод сжатия : С потерями Размер потока : 171 Мбайт (1%) Заголовок : Commentary №1 - ENG - BD EUR - AC3, 48 KHz, 2 ch, 224 kbps, 16 bit Язык : English Default : Нет Forced : НетАудио #4: Идентификатор : 5 Формат : AC-3 Формат/Информация : Audio Coding 3 Расширение режима : CM (complete main) Параметр Endianness формата : Big Идентификатор кодека : A_AC3 Продолжительность : 1 ч. 46 м. Вид битрейта : Постоянный Битрейт : 224 Кбит/сек Каналы : 2 канала Расположение каналов : Front: L R Частота : 48,0 КГц Битовая глубина : 16 бит Метод сжатия : С потерями Размер потока : 171 Мбайт (1%) Заголовок : Commentary №2 - ENG - BD EUR - AC3, 48 KHz, 2 ch, 224 kbps, 16 bit Язык : English Default : Нет Forced : Нет 25,47 Gb 9 6 19 февраля 2016 11:30 Если я останусь / If I Stay (2014) HDRip от Scarabey | D | Лицензия .torrent   [Информация о файле (нажмите для просмотра)] Перевод: Профессиональный (дублированный) - ЛицензияВидео: 688x288 (2.39:1), 23.976 fps, XviD build 73 ~838 kbps avg, 0.18 bit/pixelАудио: 48 kHz, MPEG Layer 3, 2 ch, ~128.00 kbps avg 744,8 Mb 37 2 19 февраля 2016 11:29 Если я останусь / If I Stay (2014) BDRip-AVC от Leo.pard and Scarabey | iTunes .torrent   [Информация о файле (нажмите для просмотра)] Перевод: Профессиональный (дублированный) iTunesФормат: MKVВидео: x264, 864x360 (2.40:1), 1135 Kbps, 23.976 fpsАудио: AC3, 192 Kbps, 48 KHz, 2 channelsСубтитры: Английские (Full, SDH) 1014,08 Mb 6 2

gig-torrent.net

Скачать фильм Если я останусь через торрент в хорошем качестве бесплатно 1080p

GeneralUnique ID                                : 214685894465965785126455826930578323434 (0xA182FFD0BEE43B7BB18D07E87D0577EA)Complete name                            : D:\Movies\Если я останусь (2014) BDRip 1080p.mkvFormat                                   : MatroskaFormat version                           : Version 4 / Version 2File size                                : 10.6 GiBDuration                                 : 1h 46mnOverall bit rate                         : 14.2 MbpsEncoded date                             : UTC 2014-11-22 19:08:02Writing application                      : mkvmerge v6.9.1 ('Blue Panther') 64bit built on Apr 18 2014 18:23:38Writing library                          : libebml v1.3.0 + libmatroska v1.4.1Attachment                               : Yes

VideoID                                       : 1Format                                   : AVCFormat/Info                              : Advanced Video CodecFormat profile                           : [email protected] settings, CABAC                   : YesFormat settings, ReFrames                : 5 framesCodec ID                                 : V_MPEG4/ISO/AVCDuration                                 : 1h 46mnBit rate                                 : 11.6 MbpsWidth                                    : 1 920 pixelsHeight                                   : 800 pixelsDisplay aspect ratio                     : 2.40:1Frame rate                               : 23.976 fpsColor space                              : YUVChroma subsampling                       : 4:2:0Bit depth                                : 8 bitsScan type                                : ProgressiveBits/(Pixel*Frame)                       : 0.316Stream size                              : 8.67 GiB (82%)Title                                    : VietHDWriting library                          : x264 core 142 r2431+42 c69a006 tMod [[email protected] X86_64]Encoding settings                        : cabac=1 / ref=5 / deblock=1:-3:-3 / analyse=0x3:0x133 / me=umh / subme=10 / psy=1 / fade_compensate=0.00 / psy_rd=0.95:0.00 / mixed_ref=1 / me_range=24 / chroma_me=1 / trellis=2 / 8x8dct=1 / cqm=0 / deadzone=21,11 / fast_pskip=1 / chroma_qp_offset=-2 / threads=12 / lookahead_threads=2 / sliced_threads=0 / nr=0 / decimate=1 / interlaced=0 / bluray_compat=0 / constrained_intra=0 / fgo=0 / bframes=7 / b_pyramid=2 / b_adapt=2 / b_bias=0 / direct=3 / weightb=1 / open_gop=0 / weightp=2 / keyint=250 / keyint_min=23 / scenecut=40 / intra_refresh=0 / rc=crf / mbtree=0 / crf=17.6000 / qcomp=0.65 / qpmin=0:0:0 / qpmax=69:69:69 / qpstep=4 / ip_ratio=1.30 / pb_ratio=1.20 / aq=4:0.85 / aq-sensitivity=10.00 / aq-factor=1.00:1.00:1.00 / aq2=0 / aq3=0 / zones=12135,12454,crf=16.5/26343,27453,crf=16.5Language                                 : EnglishDefault                                  : YesForced                                   : NoMatrix coefficients                      : BT.709-5, BT.1361, IEC 61966-2-4 709, SMPTE RP177

Audio #1ID                                       : 2Format                                   : DTSFormat/Info                              : Digital Theater SystemsCodec ID                                 : A_DTSDuration                                 : 1h 46mnBit rate mode                            : ConstantBit rate                                 : 755 KbpsChannel(s)                               : 6 channelsChannel positions                        : Front: L C R, Side: L R, LFESampling rate                            : 48.0 KHzBit depth                                : 24 bitsCompression mode                         : LossyStream size                              : 576 MiB (5%)Language                                 : RussianDefault                                  : YesForced                                   : No

Audio #2ID                                       : 3Format                                   : DTSFormat/Info                              : Digital Theater SystemsCodec ID                                 : A_DTSDuration                                 : 1h 46mnBit rate mode                            : ConstantBit rate                                 : 1 510 KbpsChannel(s)                               : 6 channelsChannel positions                        : Front: L C R, Side: L R, LFESampling rate                            : 48.0 KHzBit depth                                : 24 bitsCompression mode                         : LossyStream size                              : 1.12 GiB (11%)Language                                 : EnglishDefault                                  : NoForced                                   : No

TextID                                       : 4Format                                   : UTF-8Codec ID                                 : S_TEXT/UTF8Codec ID/Info                            : UTF-8 Plain TextTitle                                    : FullLanguage                                 : RussianDefault                                  : NoForced                                   : No

Menu00:00:00.000                             : en:00:00:00.00000:03:20.367                             : en:00:03:20.36700:07:23.902                             : en:00:07:23.90200:11:31.608                             : en:00:11:31.60800:14:43.716                             : en:00:14:43.71600:19:12.485                             : en:00:19:12.48500:23:19.607                             : en:00:23:19.60700:25:19.268                             : en:00:25:19.26800:27:26.436                             : en:00:27:26.43600:30:46.011                             : en:00:30:46.01100:32:11.596                             : en:00:32:11.59600:34:38.368                             : en:00:34:38.36800:37:21.906                             : en:00:37:21.90600:40:41.189                             : en:00:40:41.18900:44:02.223                             : en:00:44:02.22300:46:58.899                             : en:00:46:58.89900:49:07.820                             : en:00:49:07.82000:52:06.332                             : en:00:52:06.33200:55:42.756                             : en:00:55:42.75600:59:01.580                             : en:00:59:01.58001:00:42.347                             : en:01:00:42.34701:05:39.310                             : en:01:05:39.31001:10:10.039                             : en:01:10:10.03901:13:48.924                             : en:01:13:48.92401:16:18.407                             : en:01:16:18.40701:18:54.730                             : en:01:18:54.73001:24:05.415                             : en:01:24:05.41501:27:44.468                             : en:01:27:44.46801:29:50.176                             : en:01:29:50.17601:33:37.028                             : en:01:33:37.02801:38:16.307                             : en:01:38:16.30701:40:25.353                             : en:01:40:25.353

piratbit.ru

Скачать фильм Если я останусь через торрент в хорошем качестве бесплатно 1080p

Format                                   : MatroskaFormat version                           : Version 2File size                                : 7.75 GiBDuration                                 : 1h 46mnOverall bit rate                         : 10.4 MbpsMovie name                               : Если я останусь.(2014).BDRip.1080p.[envy]Encoded date                             : UTC 2014-11-23 16:56:23Writing application                      : mkvmerge v5.8.0 ('No Sleep / Pillow') built on Sep  2 2012 15:37:04Writing library                          : libebml v1.2.3 + libmatroska v1.3.0

VideoID                                       : 1Format                                   : AVCFormat/Info                              : Advanced Video CodecFormat profile                           : [email protected] settings, CABAC                   : YesFormat settings, ReFrames                : 5 framesCodec ID                                 : V_MPEG4/ISO/AVCDuration                                 : 1h 46mnBit rate                                 : 9 328 KbpsWidth                                    : 1 920 pixelsHeight                                   : 800 pixelsDisplay aspect ratio                     : 2.40:1Frame rate mode                          : ConstantFrame rate                               : 23.976 fpsColor space                              : YUVChroma subsampling                       : 4:2:0Bit depth                                : 8 bitsScan type                                : ProgressiveBits/(Pixel*Frame)                       : 0.253Stream size                              : 6.78 GiB (88%)Title                                    : Если я останусь.(2014).BDRip.1080p.[envy]Writing library                          : x264 core 142 r2491 24e4fedEncoding settings                        : cabac=1 / ref=5 / deblock=1:-3:-3 / analyse=0x3:0x113 / me=umh / subme=11 / psy=1 / psy_rd=1.00:0.00 / mixed_ref=1 / me_range=32 / chroma_me=1 / trellis=2 / 8x8dct=1 / cqm=0 / deadzone=21,11 / fast_pskip=0 / chroma_qp_offset=-2 / threads=12 / lookahead_threads=1 / sliced_threads=0 / nr=0 / decimate=1 / interlaced=0 / bluray_compat=0 / constrained_intra=0 / bframes=5 / b_pyramid=2 / b_adapt=2 / b_bias=0 / direct=3 / weightb=1 / open_gop=0 / weightp=2 / keyint=240 / keyint_min=23 / scenecut=40 / intra_refresh=0 / rc=2pass / mbtree=0 / bitrate=9328 / ratetol=2.0 / qcomp=0.60 / qpmin=0 / qpmax=69 / qpstep=4 / cplxblur=20.0 / qblur=0.5 / ip_ratio=1.40 / pb_ratio=1.30 / aq=2:0.80Language                                 : EnglishDefault                                  : YesForced                                   : No

Audio #1ID                                       : 2Format                                   : AC-3Format/Info                              : Audio Coding 3Mode extension                           : CM (complete main)Format settings, Endianness              : BigCodec ID                                 : A_AC3Duration                                 : 1h 46mnBit rate mode                            : ConstantBit rate                                 : 448 KbpsChannel(s)                               : 6 channelsChannel positions                        : Front: L C R, Side: L R, LFESampling rate                            : 48.0 KHzBit depth                                : 16 bitsCompression mode                         : LossyStream size                              : 342 MiB (4%)Title                                    : DubLanguage                                 : RussianDefault                                  : YesForced                                   : No

Audio #2ID                                       : 3Format                                   : AC-3Format/Info                              : Audio Coding 3Mode extension                           : CM (complete main)Format settings, Endianness              : BigCodec ID                                 : A_AC3Duration                                 : 1h 46mnBit rate mode                            : ConstantBit rate                                 : 640 KbpsChannel(s)                               : 6 channelsChannel positions                        : Front: L C R, Side: L R, LFESampling rate                            : 48.0 KHzBit depth                                : 16 bitsCompression mode                         : LossyStream size                              : 488 MiB (6%)Title                                    : EngLanguage                                 : EnglishDefault                                  : NoForced                                   : No

Text #1ID                                       : 4Format                                   : UTF-8Codec ID                                 : S_TEXT/UTF8Codec ID/Info                            : UTF-8 Plain TextTitle                                    : fullLanguage                                 : RussianDefault                                  : NoForced                                   : No

Text #2ID                                       : 5Format                                   : UTF-8Codec ID                                 : S_TEXT/UTF8Codec ID/Info                            : UTF-8 Plain TextTitle                                    : fullLanguage                                 : EnglishDefault                                  : NoForced                                   : No

Menu00:00:00.000                             : en:Chapter 0100:03:20.366                             : en:Chapter 0200:07:23.901                             : en:Chapter 0300:11:31.607                             : en:Chapter 0400:14:43.716                             : en:Chapter 0500:19:12.484                             : en:Chapter 0600:23:19.606                             : en:Chapter 0700:25:19.267                             : en:Chapter 0800:27:26.394                             : en:Chapter 0900:30:45.969                             : en:Chapter 1000:32:11.596                             : en:Chapter 1100:34:38.367                             : en:Chapter 1200:37:21.906                             : en:Chapter 1300:40:41.188                             : en:Chapter 1400:44:02.222                             : en:Chapter 1500:46:58.899                             : en:Chapter 1600:49:07.819                             : en:Chapter 1700:52:06.331                             : en:Chapter 1800:55:43.298                             : en:Chapter 1900:59:01.579                             : en:Chapter 2001:00:42.347                             : en:Chapter 2101:05:39.310                             : en:Chapter 2201:10:10.039                             : en:Chapter 2301:13:48.924                             : en:Chapter 2401:16:18.407                             : en:Chapter 2501:18:54.730                             : en:Chapter 2601:24:05.415                             : en:Chapter 2701:27:44.467                             : en:Chapter 2801:29:50.176                             : en:Chapter 2901:33:37.028                             : en:Chapter 3001:38:16.307                             : en:Chapter 3101:40:25.269                             : en:Chapter 32

piratbit.ru


Смотрите также