Драйвер на ночь скачать торрент в хорошем качестве


Скачать фильм Драйвер на ночь через торрент в хорошем качестве бесплатно 1080p

piratbit.ru

Размер: 17.85 GB | Добавлен: 7 мес. назад | Торрент скачан:13 раз
Реклама Дарим 3000 рублей за регистрацию, не упусти свой шанс получить шикарный бонус!!!

17-03-2017 13:08 Драйвер на ночь Скачать торрент  

Драйвер на ночь / Stretch Год выхода: 2014Жанр: боевик, триллер, комедияВыпущено: США / Universal Pictures, Blumhouse ProductionsПродолжительность: 01:33:58Озвучивание: Дублированное [Лицензия BD RUS]

Режиссер: Джо Карнахан

В ролях: Патрик Уилсон, Эд Хелмс, Крис Пайн, Джеймс Бэдж Дэйл, Бруклин Декер, Джессика Альба, Рэй Лиотта, Дэвид Хассельхофф, Дженни Барбоза, Кевин Бигли, Sydney Bruso

О фильме: Невезучему шоферу лимузина до выплаты внушительного долга остается отработать всего одну смену. Его последним клиентом становится загадочный молодой миллиардер, пообещавший небывалые чаевые за несколько дополнительных услуг. В погоне за так нужными ему сейчас деньгами водитель ввязывается в безумные переделки на улицах Лос-Анджелеса, и чем больше ночь опускается на мегаполис, тем более призрачной видится ему надежда остаться в живых…

ФайлКачество: Blu-Ray (1080p)Формат: MKVВидео: MPEG-4 AVC, 19378 Кбит/с, 1920x1080, 24 кадр/сАудио: 48 kHz, DTS-HD MA, 3/2 (L,C,R,l,r) + LFE ch, ~3743.00 kbps avg

DISC INFO:

Disc Title: STRETCH (2016) Blu-ray RUS 1080p AVC DTS-HD 5.1Disc Size: 19 162 254 220 bytesProtection: AACSBD-Java: YesBDInfo: 0.5.8

PLAYLIST REPORT:

Name: 01003.MPLSLength: 1:33:58.791 (h:m:s.ms)Size: 17 237 673 984 bytesTotal Bitrate: 24,46 Mbps

VIDEO:

Codec Bitrate Description ----- ------- ----------- MPEG-4 AVC Video 19378 kbps 1080p / 24 fps / 16:9 / High Profile 4.0

AUDIO:

Codec Language Bitrate Description ----- -------- ------- ----------- DTS-HD Master Audio Russian 3743 kbps 5.1 / 48 kHz / 3743 kbps / 24-bit (DTS Core: 5.1 / 48 kHz / 1509 kbps / 24-bit)

FILES:

Name Time In Length Size Total Bitrate ---- ------- ------ ---- ------------- 00003.M2TS 0:00:00.000 1:33:58.791 17 237 673 984 24 456

Скачать Драйвер на ночь через торрент http://i60.fastpic.ru/big/2015/0324/33/a62c0eaf720fb3c985fc6267eec89633.jpg Скачать фильм Драйвер на ночь через торрент бесплантно в хорошем качестве О фильме: Невезучему шоферу лимузина до выплаты внушительного долга остается отработать всего одну смену. Его последним клиентом становится ... 2017-03-17 13:08 10 10 3

Loading...

Loading...

% Раздел Тема Автор DL S | L
Фильмы 2014 [DVDrip, WEB-DLRip, HDrip] [ 1.46 GB ] Драйвер на ночь / Stretch [2014 BDRip] - [] Twi7ter Скачать
Фильмы 2014 [DVDrip, WEB-DLRip, HDrip] [ 1.45 GB ] Драйвер на ночь / Stretch [2014 HDRip "BD RUS"] coc900 Скачать
Фильмы [HD 720p, 1080p] (Хороший звук DUB, MVO) [ 10.68 GB ] Драйвер на ночь / Stretch [2014 BDRip 1080p ] от BLUEBIRD / IPTV Russian Ворон Скачать
Фильмы 2014 [DVDrip, WEB-DLRip, HDrip] [ 1.46 GB ] Драйвер на ночь / Stretch [2014 BDRip] DUB Ворон Скачать
Фильмы 2014 [DVDrip, WEB-DLRip, HDrip] [ 2.18 GB ] Драйвер на ночь / Stretch [2014 BDRip-AVC] DUB potroks Скачать
Фильмы с авторской озвучкой [ 2.18 GB ] Драйвер на ночь / Stretch [2014 BDRip-AVC] AVO potroks Скачать

Рекламный пират

Дорогой пользователь! Огромная просьба, поблагодарите релизера, оцените раздачу и оставьте свои комментарий, если Вы скачали Драйвер на ночь через торрент бесплатно! Внесите свою лепту в развитие PiratBit!

Комментировать посты могут только пользователи прошедшие не сложную регистрацию

Драйвер на ночь через торрент Скачать бесплатно Драйвер на ночь Драйвер на ночь скачать торрент Драйвер на ночь смотреть онлайн Cкачать фильм Драйвер на ночь бесплатно Драйвер на ночь скачать торрент в хорошем качестве Драйвер на ночь смотреть онлайн бесплатно в хорошем качестве

Вы не можете начинать темыВы не можете отвечать на сообщенияВы не можете редактировать свои сообщенияВы не можете удалять свои сообщенияВы не можете голосовать в опросахВы не можете прикреплять файлы к сообщениямВы можете скачивать файлы

Скачать фильм Драйвер на ночь через торрент в хорошем качестве бесплатно BDRip

piratbit.ru

Размер: 1.46 GB | Добавлен: 2 года 4 мес. назад | Торрент скачан:1138 раз
Реклама Дарим 3000 рублей за регистрацию, не упусти свой шанс получить шикарный бонус!!!

25-06-2015 13:20 Драйвер на ночь Скачать торрент  

Драйвер на ночь / Stretch«Фигня случается»

Год выпуска: 2014

Страна: США

Жанр: триллер, комедия

Продолжительность: 01:34:17

Перевод: Профессиональный (полное дублирование) [ист. IPTV_Russian]

Субтитры: Нет

Режиссер: Джо Карнахан / Joe CarnahanВ ролях: Патрик Уилсон (Stretch), Эд Хелмс (Karl), Джеймс Бэдж Дэйл (Laurent), Бруклин Декер (Candace), Крис Пайн (Roger Karos, в титрах не указан), Джессика Альба (Charlie), Рэй Лиотта (Ray Liotta), Дэвид Хассельхофф (David Hasselhoff), Рэнди Кутюр (The Jovi), Минди Робинсон (The Jovi's Girl), Клер Девенпорт II (Girl #1), Сидни Брусо (Girl #2)

Описание:

Невезучему шоферу лимузина до выплаты внушительного долга остается отработать всего одну смену. Его последним клиентом становится загадочный молодой миллиардер, пообещавший небывалые чаевые за несколько дополнительных услуг. В погоне за так нужными ему сейчас деньгами водитель ввязывается в безумные переделки на улицах Лос-Анджелеса, и чем больше ночь опускается на мегаполис, тем более призрачной видится ему надежда остаться в живых...

MPAA: R - Лицам до 17 лет обязательно присутствие взрослого

Качество: BDRip | исх. Stretch 2014 1080p Blu-ray AVC DTS-HD MA 5 1 |

Формат: AVI

Видео кодек: XviD

Аудио кодек: AC3

Видео: 720x304 (2.37:1), 23.976 fps, XviD build 73 ~1760 kbps avg, 0.34 bit/pixel

Аудио: 48 kHz, AC3 Dolby Digital, 3/2 (L,C,R,l,r) + LFE ch, ~448 kbps

Релиз: &

Скачать Драйвер на ночь через торрент http://i72.fastpic.ru/big/2015/0624/4e/0c52748b470c11b6c44d286ad83f1e4e.png Скачать фильм Драйвер на ночь через торрент бесплантно в хорошем качестве Описание: Невезучему шоферу лимузина до выплаты внушительного долга остается отработать всего одну смену. Его последним клиентом становится ... 2015-06-25 13:20 9.5 10 30

Loading...

Loading...

Рекламный пират

25-06-2015 14:25 Драйвер на ночь Скачать торрент  

25-06-2015 15:49 Драйвер на ночь Скачать торрент  

спасибо за релиз

27-06-2015 06:47 Драйвер на ночь Скачать торрент  

на разок потянет. но по мне из 10 б. 4 дам.

Дорогой пользователь! Огромная просьба, поблагодарите релизера, оцените раздачу и оставьте свои комментарий, если Вы скачали Драйвер на ночь через торрент бесплатно! Внесите свою лепту в развитие PiratBit!

Комментировать посты могут только пользователи прошедшие не сложную регистрацию

Драйвер на ночь через торрент Скачать бесплатно Драйвер на ночь Драйвер на ночь скачать торрент Драйвер на ночь смотреть онлайн Cкачать фильм Драйвер на ночь бесплатно Драйвер на ночь скачать торрент в хорошем качестве Драйвер на ночь смотреть онлайн бесплатно в хорошем качестве

Вы не можете начинать темыВы не можете отвечать на сообщенияВы не можете редактировать свои сообщенияВы не можете удалять свои сообщенияВы не можете голосовать в опросахВы не можете прикреплять файлы к сообщениямВы можете скачивать файлы

Скачать фильм Драйвер на ночь (2014/BDRip/HDRip) через торрент

gig-torrent.net

17 марта 2017 16:11 Драйвер на Ночь (2014) BDRip от MegaPeer | Лицензия.avi.torrent   [Информация о файле (нажмите для просмотра)] Продолжительность: 01:33:58Перевод: Профессиональный (полное дублирование) | BD RUS

ФайлФормат: AVIКачество: BDRip | Blu-Ray RUS |Видео: XviD, 720x304, 24 fps, 1768 kbpsЗвук: AC3, 6 ch, 448 kbpsСубтитры: Нет

1,46 Gb 139 66
17 марта 2017 16:10 Драйвер на Ночь (2014) Blu-Ray 1080p | RUS Transfer | Лицензия.torrent   [Информация о файле (нажмите для просмотра)] Продолжительность: 001:33:58Перевод: Профессиональный (полное дублирование)

ФайлКачество: Blu-ray RUS 1080pФормат: BDMVКодек: MPEG-4 AVC VideoВидео: 1920x1080 (16:9), 24 fps, MPEG-4 AVC Video ~ 19378 kbps avg, High Profile 4.0 Аудио: DTS-HD Master Audio Russian 3743 kbps 5.1 / 48 kHz / 3743 kbps / 24-bit (DTS Core: 5.1 / 48 kHz / 1509 kbps / 24-bit) / Профессиональный (полное дублирование) Субтитры: Отсутствуют

17,85 Gb 32 19
3 июня 2016 06:23 Драйвер на ночь / Stretch (2014) BDRip 720p | D, A .torrent   [Информация о файле (нажмите для просмотра)] Перевод: Профессиональный (дублированный) IPTV RussianПеревод 2: Авторский (одноголосый закадровый) ЕсаревКонтейнер: MKVВидео: MPEG-4 AVC, 4685 Кбит/с, 1280x534, 23,976 fpsАудио: Rus, AC3, 448 kb/s (6 ch), 48 kHzАудио 2: Rus, DTS, 1510 kb/s (6 ch), 48 kHzАудио 3: Eng, DTS, 1510 kb/s (6 ch), 48 kHz 5,48 Gb 13 3
3 июня 2016 06:23 Драйвер на ночь / Stretch (2014) BDRip 1080p от BLUEBIRD | IPTV Russian .torrent   [Информация о файле (нажмите для просмотра)] Перевод: Дублированный(IPTV_ Russian), авторский (Есарев)Формат: MKVКачество: BDRip 1080pВидео: MPEG-4 AVC, 12200 Кбит/с, 1920x800Звук: Русский (AC3, 6 ch, 448 Кбит/с), английский (DTS, 6 ch, 1510 Кбит/с)Субтитры: Русские, английскиеВидео: Идентификатор : 1 Формат : AVC Формат/Информация : Advanced Video Codec Профиль формата : [email protected] Параметр CABAC формата : Да Параметр ReFrames формата : 5 кадров Идентификатор кодека : V_MPEG4/ISO/AVC Продолжительность : 1 ч. 34 м. Битрейт : 12,2 Мбит/сек Ширина : 1920 пикселей Высота : 800 пикселей Соотношение сторон : 2,40:1 Режим частоты кадров : Постоянный Частота кадров : 23,976 кадра/сек Цветовое пространство : YUV Субдискретизация насыщенности : 4:2:0 Битовая глубина : 8 бит Тип развёртки : Прогрессивная Бит/(Пиксели*Кадры) : 0.331 Размер потока : 8,05 Гбайт (75%) Библиотека кодирования : x264 core 142 r2431+42 c69a006 tMod [[email protected] X86_64] Настройки программы : cabac=1 / ref=5 / deblock=1:-3:-3 / analyse=0x3:0x133 / me=tesa / subme=11 / psy=1 / fade_compensate=0.00 / psy_rd=0.95:0.00 / mixed_ref=1 / me_range=32 / chroma_me=1 / trellis=2 / 8x8dct=1 / cqm=0 / deadzone=21,11 / fast_pskip=0 / chroma_qp_offset=-2 / threads=6 / lookahead_threads=1 / sliced_threads=0 / nr=0 / decimate=0 / interlaced=0 / bluray_compat=0 / constrained_intra=0 / fgo=0 / bframes=8 / b_pyramid=2 / b_adapt=2 / b_bias=0 / direct=3 / weightb=1 / open_gop=0 / weightp=2 / keyint=250 / keyint_min=23 / scenecut=40 / intra_refresh=0 / rc=crf / mbtree=0 / crf=17.0000 / qcomp=0.60 / qpmin=0:0:0 / qpmax=69:69:69 / qpstep=4 / ip_ratio=1.20 / pb_ratio=1.10 / aq=4:0.85 / aq-sensitivity=10.00 / aq-factor=1.00:1.00:1.00 / aq2=0 / aq3=0 Язык : English Default : Да Forced : Нет DURATION : 01:34:33.668000000 NUMBER_OF_FRAMES : 136032 NUMBER_OF_BYTES : 8867903748 _STATISTICS_WRITING_APP : mkvmerge v8.0.0 ('Til The Day That I Die') 64bit _STATISTICS_WRITING_DATE_UTC : 2015-06-24 13:43:39 _STATISTICS_TAGS : BPS DURATION NUMBER_OF_FRAMES NUMBER_OF_BYTESАудио #1: Идентификатор : 2 Формат : AC-3 Формат/Информация : Audio Coding 3 Расширение режима : CM (complete main) Параметр Endianness формата : Big Идентификатор кодека : A_AC3 Продолжительность : 1 ч. 34 м. Вид битрейта : Постоянный Битрейт : 448 Кбит/сек Каналы : 6 каналов Расположение каналов : Front: L C R, Side: L R, LFE Частота : 48,0 КГц Битовая глубина : 16 бит Метод сжатия : С потерями Размер потока : 303 Мбайт (3%) Заголовок : DUB Язык : Russian Default : Да Forced : НетАудио #2: Идентификатор : 3 Формат : DTS Формат/Информация : Digital Theater Systems Режим : 16 Параметр Endianness формата : Big Идентификатор кодека : A_DTS Продолжительность : 1 ч. 34 м. Вид битрейта : Постоянный Битрейт : 1509 Кбит/сек Каналы : 6 каналов Расположение каналов : Front: L C R, Side: L R, LFE Частота : 48,0 КГц Битовая глубина : 24 бит Метод сжатия : С потерями Размер потока : 1021 Мбайт (9%) Заголовок : AVO Язык : Russian Default : Нет Forced : НетАудио #3: Идентификатор : 4 Формат : AC-3 Формат/Информация : Audio Coding 3 Профиль формата : Dolby Digital Расширение режима : CM (complete main) Параметр Endianness формата : Big Идентификатор кодека : A_AC3 Продолжительность : 1 ч. 34 м. Вид битрейта : Постоянный Битрейт : 192 Кбит/сек Каналы : 2 канала Расположение каналов : Front: L R Частота : 48,0 КГц Битовая глубина : 16 бит Метод сжатия : С потерями Размер потока : 130 Мбайт (1%) Язык : Ukrainian Default : Нет Forced : НетАудио #4: Идентификатор : 5 Формат : DTS Формат/Информация : Digital Theater Systems Режим : 16 Параметр Endianness формата : Big Идентификатор кодека : A_DTS Продолжительность : 1 ч. 34 м. Вид битрейта : Постоянный Битрейт : 1509 Кбит/сек Каналы : 6 каналов Расположение каналов : Front: L C R, Side: L R, LFE Частота : 48,0 КГц Битовая глубина : 24 бит Метод сжатия : С потерями Размер потока : 1021 Мбайт (9%) Язык : English Default : Нет Forced : Нет 10,68 Gb 12 3
3 июня 2016 06:23 Драйвер на ночь / Stretch (2014) BDRip-AVC от HELLYWOOD | D .torrent   [Информация о файле (нажмите для просмотра)] Перевод: Профессиональный (полное дублирование) [ист. IPTV]Субтитры: Русские (полные + форс.), украинские (форс.), английские (Full + SDH + SDH-Colored)Качество: BDRip-AVCФормат: MKVВидео: x.264, 1152x480 (2,40:1), 23.976 fps, 2414 Кbps, 0.182 bit/pixelАудио#1: 48 kHz, AC3 Dolby Digital, 3/2 (L,C,R,l,r) + LFE ch, 448.00 kbps |RUSАудио#2: 48 kHz, AC3 Dolby Digital, 3/2 (L,C,R,l,r) + LFE ch, 448.00 kbps |ENG 2,18 Gb 11 3
3 июня 2016 06:22 Драйвер на ночь / Stretch (2014) BDRip 720p | Чистый звук .torrent   [Информация о файле (нажмите для просмотра)] Формат: MKVКачество: BDRip 720pВидео: MPEG-4 AVC, 5125 Кбит/с, 1280x536Аудио: Русский (MP3, 2 ch, 256 Кбит/с), английский (DTS, 6 ch, 1510 Кбит/с) 4,54 Gb 32 2

Драйвер на ночь через торрент

piratbit.ru

Размер: 1.46 GB | Добавлен: 5 мес. 19 д. назад | Торрент скачан:177 раз
Реклама Дарим 3000 рублей за регистрацию, не упусти свой шанс получить шикарный бонус!!!

06-05-2017 23:16 Драйвер на ночь Скачать торрент  

Драйвер на ночь / Stretch

«Фигня случается»

Год выпуска: 2014Страна: СШАЖанр: триллер, комедияПродолжительность: 01:33:58Перевод: Профессиональный (полное дублирование) [Лицензия Blu-ray RUS]Субтитры: Русские форсированные (на надписи) - вшитыеРежиссер: Джо Карнахан / Joe CarnahanВ ролях: Патрик Уилсон (Stretch), Эд Хелмс (Karl), Джеймс Бэдж Дэйл (Laurent), Бруклин Декер (Candace), Крис Пайн (Roger Karos, в титрах не указан), Джессика Альба (Charlie), Рэй Лиотта (Ray Liotta), Дэвид Хассельхофф (David Hasselhoff), Рэнди Кутюр (The Jovi), Минди Робинсон (The Jovi's Girl), Клер Девенпорт II (Girl #1), Сидни Брусо (Girl #2)Описание: Невезучему шоферу лимузина до выплаты внушительного долга остается отработать всего одну смену. Его последним клиентом становится загадочный молодой миллиардер, пообещавший небывалые чаевые за несколько дополнительных услуг. В погоне за так нужными ему сейчас деньгами водитель ввязывается в безумные переделки на улицах Лос-Анджелеса, и чем больше ночь опускается на мегаполис, тем более призрачной видится ему надежда остаться в живых...

MPAA: R - Лицам до 17 лет обязательно присутствие взрослого

Качество: BDRip | исх. STRETCH (2016) Blu-ray RUS 1080p AVC DTS-HD 5.1 |Формат: AVIВидео кодек: XviDАудио кодек: AC3Видео: 720x304 (2.37:1), 24 fps, XviD build 73 ~1767 kbps avg, 0.34 bit/pixelАудио: 48 kHz, AC3 Dolby Digital, 3/2 (L,C,R,l,r) + LFE ch, ~448 kbps

Релиз: &

Скачать Драйвер на ночь через торрент http://s04.radikal.ru/i177/1705/15/cc32bf5f9b7e.png Скачать фильм Драйвер на ночь через торрент бесплантно в хорошем качестве Описание: Невезучему шоферу лимузина до выплаты внушительного долга остается отработать всего одну смену. Его последним клиентом становится ... 2017-05-06 23:16 9.8 10 4

Loading...

Loading...

% Раздел Тема Автор DL S | L
Фильмы 2014 [DVDrip, WEB-DLRip, HDrip] [ 1.45 GB ] Драйвер на ночь / Stretch [2014 HDRip "BD RUS"] coc900 Скачать
Фильмы (Blu-ray, BD-Remux, HDDVD) [ 17.85 GB ] Драйвер на ночь / Stretch [2014 Blu-Ray 1080p] [ BD RUS] killermax2013 Скачать
Фильмы [HD 720p, 1080p] (Хороший звук DUB, MVO) [ 10.68 GB ] Драйвер на ночь / Stretch [2014 BDRip 1080p ] от BLUEBIRD / IPTV Russian Ворон Скачать
Фильмы 2014 [DVDrip, WEB-DLRip, HDrip] [ 1.46 GB ] Драйвер на ночь / Stretch [2014 BDRip] DUB Ворон Скачать
Фильмы 2014 [DVDrip, WEB-DLRip, HDrip] [ 2.18 GB ] Драйвер на ночь / Stretch [2014 BDRip-AVC] DUB potroks Скачать
Фильмы с авторской озвучкой [ 2.18 GB ] Драйвер на ночь / Stretch [2014 BDRip-AVC] AVO potroks Скачать

Рекламный пират

Дорогой пользователь! Огромная просьба, поблагодарите релизера, оцените раздачу и оставьте свои комментарий, если Вы скачали Драйвер на ночь через торрент бесплатно! Внесите свою лепту в развитие PiratBit!

Комментировать посты могут только пользователи прошедшие не сложную регистрацию

Драйвер на ночь через торрент Скачать бесплатно Драйвер на ночь Драйвер на ночь скачать торрент Драйвер на ночь смотреть онлайн Cкачать фильм Драйвер на ночь бесплатно Драйвер на ночь скачать торрент в хорошем качестве Драйвер на ночь смотреть онлайн бесплатно в хорошем качестве

Вы не можете начинать темыВы не можете отвечать на сообщенияВы не можете редактировать свои сообщенияВы не можете удалять свои сообщенияВы не можете голосовать в опросахВы не можете прикреплять файлы к сообщениямВы можете скачивать файлы

Скачать фильм Драйвер на ночь через торрент в хорошем качестве бесплатно BDRip-AVC

Общее Уникальный идентификатор : 230489355344720859755697808457697464783 (0xAD66A2980446A9FC9C5E705E591E11CF) Полное имя : Drayver.na.Noch'.2014.DUAL.BDRip.x264.-HELLYWOOD.mkv Формат : Matroska Версия формата : Version 4 / Version 2 Размер файла : 2,18 Гбайт Продолжительность : 1 ч. 34 м. Общий поток : 3309 Кбит/сек Название фильма : Stretch (2014) - HELLYWOOD Дата кодирования : UTC 2015-06-24 15:45:00 Программа кодирования : mkvmerge v5.9.0 ('On The Loose') built on Dec 15 2012 16:39:58 Библиотека кодирования : libebml v1.3.0 + libmatroska v1.4.0

Видео Идентификатор : 1 Формат : AVC Формат/Информация : Advanced Video Codec Профиль формата : [email protected] Параметр CABAC формата : Да Параметр ReFrames формата : 10 кадров Идентификатор кодека : V_MPEG4/ISO/AVC Продолжительность : 1 ч. 34 м. Битрейт : 2414 Кбит/сек Ширина : 1152 пикселя Высота : 480 пикселей Соотношение сторон : 2,40:1 Режим частоты кадров : Постоянный Частота кадров : 23,976 кадра/сек Цветовое пространство : YUV Субдискретизация насыщенности : 4:2:0 Битовая глубина : 8 бит Тип развёртки : Прогрессивная Бит/(Пиксели*Кадры) : 0.182 Размер потока : 1,55 Гбайт (71%) Заголовок : potroks Библиотека кодирования : x264 core 146 r2538 121396c Настройки программы : cabac=1 / ref=10 / deblock=1:-3:-3 / analyse=0x3:0x113 / me=umh / subme=11 / psy=1 / psy_rd=0.96:0.00 / mixed_ref=1 / me_range=48 / chroma_me=1 / trellis=2 / 8x8dct=1 / cqm=0 / deadzone=21,11 / fast_pskip=0 / chroma_qp_offset=-2 / threads=12 / lookahead_threads=3 / sliced_threads=0 / nr=0 / decimate=0 / interlaced=0 / bluray_compat=0 / constrained_intra=0 / bframes=11 / b_pyramid=2 / b_adapt=2 / b_bias=0 / direct=3 / weightb=1 / open_gop=0 / weightp=2 / keyint=250 / keyint_min=25 / scenecut=40 / intra_refresh=0 / rc_lookahead=60 / rc=2pass / mbtree=0 / bitrate=2414 / ratetol=1.0 / qcomp=0.72 / qpmin=0 / qpmax=69 / qpstep=4 / cplxblur=20.0 / qblur=0.5 / vbv_maxrate=14000 / vbv_bufsize=14000 / nal_hrd=none / filler=0 / ip_ratio=1.35 / pb_ratio=1.25 / aq=1:0.90 Язык : English Default : Да Forced : Нет

Аудио #1 Идентификатор : 2 Формат : AC-3 Формат/Информация : Audio Coding 3 Расширение режима : CM (complete main) Параметр Endianness формата : Big Идентификатор кодека : A_AC3 Продолжительность : 1 ч. 34 м. Вид битрейта : Постоянный Битрейт : 448 Кбит/сек Каналы : 6 каналов Расположение каналов : Front: L C R, Side: L R, LFE Частота : 48,0 КГц Метод сжатия : С потерями Задержка видео : 20 мс. Размер потока : 302 Мбайт (14%) Заголовок : Dub | DD 5.1 @ 448 kbps - ист. IPTV Язык : Russian Default : Да Forced : Нет

Аудио #2 Идентификатор : 3 Формат : AC-3 Формат/Информация : Audio Coding 3 Расширение режима : CM (complete main) Параметр Endianness формата : Big Идентификатор кодека : A_AC3 Продолжительность : 1 ч. 34 м. Вид битрейта : Постоянный Битрейт : 448 Кбит/сек Каналы : 6 каналов Расположение каналов : Front: L C R, Side: L R, LFE Частота : 48,0 КГц Метод сжатия : С потерями Размер потока : 302 Мбайт (14%) Заголовок : Original | DD 5.1 @ 448 kbps Язык : English Default : Нет Forced : Нет

Текст #1 Идентификатор : 4 Формат : UTF-8 Идентификатор кодека : S_TEXT/UTF8 Идентификатор кодека/Информация : UTF-8 Plain Text Заголовок : Forced Язык : Russian Default : Да Forced : Нет

Текст #2 Идентификатор : 5 Формат : UTF-8 Идентификатор кодека : S_TEXT/UTF8 Идентификатор кодека/Информация : UTF-8 Plain Text Заголовок : Notabenoid Язык : Russian Default : Нет Forced : Нет

Текст #3 Идентификатор : 6 Формат : UTF-8 Идентификатор кодека : S_TEXT/UTF8 Идентификатор кодека/Информация : UTF-8 Plain Text Заголовок : Forced Язык : Ukrainian Default : Нет Forced : Нет

Текст #4 Идентификатор : 7 Формат : UTF-8 Идентификатор кодека : S_TEXT/UTF8 Идентификатор кодека/Информация : UTF-8 Plain Text Заголовок : Full Язык : English Default : Нет Forced : Нет

Текст #5 Идентификатор : 8 Формат : UTF-8 Идентификатор кодека : S_TEXT/UTF8 Идентификатор кодека/Информация : UTF-8 Plain Text Заголовок : SDH Язык : English Default : Нет Forced : Нет

Текст #6 Идентификатор : 9 Формат : UTF-8 Идентификатор кодека : S_TEXT/UTF8 Идентификатор кодека/Информация : UTF-8 Plain Text Заголовок : SDH-Colored Язык : English Default : Нет Forced : Нет

Меню 00:00:00.000 : en:1 00:10:26.417 : en:2 00:20:14.088 : en:3 00:33:23.710 : en:4 00:39:58.021 : en:5 00:51:18.325 : en:6 01:02:05.138 : en:7 01:15:13.926 : en:8 01:24:42.411 : en:9

piratbit.ru


Смотрите также