Доктор дулиттл 2 скачать торрент в хорошем качестве bdrip 1080p


Доктор Дулиттл торрент скачать | Скачать торренты в BDRip и HDRip качестве

Доктор Дулиттл / Doctor Dolittle (1998) BDRip от HQCLUB1.45 GBДоктор Дулиттл / Doctor Dolittle (1998) HDRip-AVC от New-Team | D745.12 MBДоктор Дулиттл 2 / Dr. Dolittle 2 (Стив Карр / Steve Carr) [2001, США, мелодрама, комедия, семейный, DVDRip] DUB744.7 MBДоктор Дулиттл / Doctor Dolittle (Бетти Томас / Betty Thomas) [1998, США, комедия, семейный, BDRip] Dub + MVO1.45 GBДоктор Дулиттл 3 / Dr. Dolittle 3 (2006) DVDRip от PlanetaUA697.9 MBДоктор Дулиттл 2 / Dr. Dolittle 2 (2001) DVDRip от PlanetaUA1.37 GBДоктор Дулиттл / Doctor Dolittle (1998) BDRip1.45 GBДоктор Дулиттл 2 / Dr. Dolittle 2 / 2001 / ДБ / DVDRip / 1.37 ГБ1.37 GBДоктор Дулиттл / Doctor Dolittle (Бетти Томас / Betty Thomas) [1998, США, фэнтези, комедия, семейный, DVDRip] MVO (Лазер-видео)1.45 GBДоктор Дулиттл (Квадрология) / Doctor Dolittle - Quadrilogy / 1998-2008 / ДБ, ПМ, СТ / 2 x DVD-5 + 2 x DVD-9 / 19.31 ГБ19.31 GBДоктор Дулиттл 4: Хвост главы / Dr. Dolittle: Tail to the Chief (2008) DVDRip от PlanetaUA1.37 GBДоктор Дулиттл 3 / Doctor Dolittle 3 / 2006 / ПМ / DVDRip / 1.65 ГБ1.65 GBДоктор Дулиттл / Doctor Dolittle / 1998 / ДБ, ПМ / BDRip / 1.45 ГБ1.45 GBДоктор Дулиттл 4: Хвост главы / Dr. Dolittle: Tail to the Chief / 2008 / ПМ / DVDRip / 1.37 ГБ1.37 GBЛофтинг Хью - Цирк доктора Дулиттла [Козий Николай, 96 kbps/44000 Hz]351.3 MBДоктор Дулиттл / Doctor Dolittle (1998) DVDRip от PlanetaUA1.37 GBДоктор Дулиттл / Doctor Dolittle (Бетти Томас / Betty Thomas) [1998, США, комедия, семейный, HDRip-AVC] Dub + Subs (Rus, Eng)745.1 MBДоктор Дулиттл 5 / Dr. Dolittle: A Tinsel Town Tail (Алекс Замм / Alex Zamm) [2009, США, Комедия, DVDRip-AVC]1.37 GBДоктор Дулиттл 3 / Doctor Dolittle 3 (Рич Торн / Rich Thorne) [2006, США, Канада, Комедия, семейный, DVDRip]1.65 GBДоктор Дулиттл / Doctor Dolittle (Бетти Томас / Betty Thomas) [1998, фэнтези, комедия, семейный, BDrip 720p] Dub + MVO + AVOx3 (Визгунов, Латышев, диктор CDV)6.22 GBЛофтинг Хью - Почта Доктора Дулиттла [Николай Козий, 96 Кбит/сек]349.2 MBДоктор Дулиттл / Doctor Dolittle (Бетти Томас / Betty Thomas) [1998, США, комедия, DVD5 (Custom)] ДУБЛЯЖ + MVO + Orig4.09 GBДоктор Дулиттл / Doctor Dolittle / Dr. Dolittle (Бетти Томас / Betty Thomas) [1998, США, семейный, фантастическая комедия, BDRip-AVC] Dub + MVO + Original + Subs (Rus, Eng, Spa)2.71 GBДоктор Дулиттл 4: Хвост главы / Dr. Dolittle: Tail to the Chief (2008) DVDRip693.48 MB5 в 1 - Доктор Дулиттл / Доктор Дулиттл 2 / Доктор Дулиттл 3 / Доктор Дулиттл 4: Хвост главы / Доктор Дулиттл 5 (Бетти Томас, Стив Карр, Рич Торн, Крэйг Шапиро, Алекс Замм) [1998-2009, США, Комедия, DVDRip]6.15 GBДоктор Дулиттл / Doctor Dolittle (Бетти Томас / Betty Thomas) [1998, США, Комедия, Семейный, HDRip] DUB + MVO (R5) + AVO (Латышев) + AVO (Визгунов) + AVO (Диктор CDV) + Original eng + Sub rus,eng2.2 GBДоктор Дулиттл / Doctor Dolittle (Бетти Томас / Betty Thomas) [1998, США, комедия, семейный, DVDRip] DUB745.2 MBДоктор Дулиттл / Doctor Dolittle (1967) BDRip - Generalfilm2.19 GBДоктор Дулиттл / Doctor Dolittle (Ричард Флайшер / Richard Fleischer) [1967, США, мюзикл, фэнтези, мелодрама, комедия, приключения,, BDRip] MVO (Светла) + Original2.91 GBДоктор Дулиттл / Doctor Dolittle (Бетти Томас / Betty Thomas) [1998, комедия, семейный, фэнтези, FLAC] MVO (Первый канал)233 MBДоктор Дулиттл 3 / Doctor Dolittle 3 (Рич Торн / Rich Thorne) [2006, США, Канада, Комедия, семейный, DVDRip] MVO (Первый Канал)1.46 GBДоктор Дулиттл / Doctor Dolittle / 1998 / ПМ, АП (Кашкин), ЛО / HDRip / 1.53 ГБ1.53 GBДоктор Дулиттл 2 / Dr. Dolittle 2 (Стив Карр / Steve Carr) [2001, США, Комедия, DVDRip] AVO (Юрий Живов) + Original Eng1.43 GBДоктор Дулиттл / Doctor Dolittle (Бетти Томас / Betty Thomas) [1998, комедия, семейный, BDRip 1080p] DUB + MVO + AVOx3 (Визгунов, Латышев, диктор CDV) + Sub (Rus, Eng) + Original eng9.43 GBДоктор Дулиттл 5 / Dr. Dolittle: A Tinsel Town Tail (2009) BDRip | Лицензия1.46 GBДоктор Дулиттл 5 / Dr. Dolittle: A Tinsel Town Tail (Алекс Замм / Alex Zamm) [2009, США, Комедия, DVDRip]1.36 GBДоктор Дулиттл 2 / Dr Dolittle 2 (Стив Карр) [2001, США, Комедия/Детский/Семейный, DVDRip]1.37 GBДоктор Дулиттл 5 / Dr. Dolittle: A Tinsel Town Tail / 2009 / ПМ / HDRip / 1.37 ГБ1.37 GBДоктор Дулиттл / Doctor Dolittle (Бетти Томас / Betty Thomas) [1998, фэнтези, комедия, семейный, BDRip, 480p] MVO, DUB, Original + sub (rus, eng)1.26 GBХью Лофтинг - История доктора Дулиттла / Детская литература / 2008 / Николай Козий / MP3 / 197 МБ197 MBДоктор Дулиттл / Doctor Dolittle (1998) BDRip-AVC от DHT-Movies2.17 GBДоктор Дулиттл / Doctor Dolittle / 1998 / ДБ, ПМ, 3 x АП, СТ / BDRip (1080p) / 9.43 ГБ9.43 GBДоктор Дулиттл / Doctor Dolittle (1998) BDRip от Kostiks | КПК294.37 MBДоктор Дулиттл 5 / Dr. Dolittle: A Tinsel Town Tail (2009) DVDRip699.49 MB(Dorama OST) Juui Dolittle / Ветеринар Дулиттл / Доктор Дулиттл - 2010, MP3 (tracks), 320 kbps [Япония]180.3 MBДоктор Дулиттл / Doctor Dolittle (1967) BDRip 720p - Generalfilm2.18 GBДоктор Дулиттл / Doctor Dolittle (1967) BDRip от HQCLUB2.91 GBДоктор Дулиттл 5 / Dr. Dolittle: A Tinsel Town Tail (2009) DVDRip от PlanetaUA1.1 GBДоктор Дулиттл 5 / Dr. Dolittle: A Tinsel Town Tail / 2009 / ПМ, СТ / Blu-Ray Remux (1080p) / 19.64 ГБ19.64 GBДоктор Дулиттл 5 / Dr. Dolittle: A Tinsel Town Tail (Алекс Замм / Alex Zamm) [2009, США, Комедия, семейный, DVDRip]698 MB tparser.org – торрент поисковик по популярным торрент трекерам. Находить и скачивать новинки кино в HDRip и BDRip качестве через tparser намного проще! Добро пожаловать на крупный торрент архив фильмов и игр tparser.org. Вам больше не придется искать торренты на основных торрент трекерах в поисках нужной раздачи – мы предлагаем найти и скачать фильмы в хорошем качестве прямо на нашем сайте. Наш сервис поиска торрентов в реальном времени собирает информацию с крупных торрент трекеров и сортирует полученные результаты в удобную таблицу. Скачивайте торренты без ограничений и без всяких регистраций на трекерах. Начните скачивать торрент Доктор Дулиттл прямо сейчас!

tparser.org

Скачать фильм Доктор Дулиттл через торрент в хорошем качестве бесплатно 720p

GeneralUnique ID : 252869229744039873873198885386488360277 (0xBE3CD797A79F303AA2AC9011974BAD55)Complete name : F:\Doktor.dulittl.1998.x264.BDRip(720p)-Kinozal.TV-HD.mkvFormat : MatroskaFormat version : Version 2File size : 4.90 GiBDuration : 1h 25mnOverall bit rate : 8 219 KbpsEncoded date : UTC 2011-03-23 13:40:57Writing application : mkvmerge v3.4.0 ('Rapunzel') сборка от May 15 2010 09:38:20Writing library : libebml v0.8.0 + libmatroska v0.9.0

VideoID : 1Format : AVCFormat/Info : Advanced Video CodecFormat profile : [email protected] settings, CABAC : YesFormat settings, ReFrames : 5 framesCodec ID : V_MPEG4/ISO/AVCDuration : 1h 25mnBit rate : 5 812 KbpsWidth : 1 280 pixelsHeight : 688 pixelsDisplay aspect ratio : 1.860Frame rate : 23.976 fpsColor space : YUVChroma subsampling : 4:2:0Bit depth : 8 bitsScan type : ProgressiveBits/(Pixel*Frame) : 0.275Stream size : 3.37 GiB (69%)Writing library : x264 core 114 r1913 5fd3dceEncoding settings : cabac=1 / ref=5 / deblock=1:0:0 / analyse=0x3:0x133 / me=umh / subme=8 / psy=1 / psy_rd=1.00:0.00 / mixed_ref=1 / me_range=16 / chroma_me=1 / trellis=1 / 8x8dct=1 / cqm=0 / deadzone=21,11 / fast_pskip=0 / chroma_qp_offset=-2 / threads=12 / sliced_threads=0 / nr=0 / decimate=1 / interlaced=0 / constrained_intra=0 / bframes=3 / b_pyramid=2 / b_adapt=1 / b_bias=0 / direct=1 / weightb=1 / open_gop=0 / weightp=2 / keyint=240 / keyint_min=24 / scenecut=40 / intra_refresh=0 / rc_lookahead=40 / rc=2pass / mbtree=1 / bitrate=5812 / ratetol=1.0 / qcomp=0.60 / qpmin=0 / qpmax=69 / qpstep=4 / cplxblur=20.0 / qblur=0.5 / ip_ratio=1.40 / aq=1:1.00Default : NoForced : No

Audio #1ID : 2Format : AC-3Format/Info : Audio Coding 3Mode extension : CM (complete main)Codec ID : A_AC3Duration : 1h 25mnBit rate mode : ConstantBit rate : 448 KbpsChannel(s) : 2 channelsChannel positions : Front: L RSampling rate : 48.0 KHzBit depth : 16 bitsCompression mode : LossyStream size : 274 MiB (5%)Title : ДублированныйLanguage : RussianDefault : YesForced : Yes

Audio #2ID : 3Format : AC-3Format/Info : Audio Coding 3Mode extension : CM (complete main)Codec ID : A_AC3Duration : 1h 25mnBit rate mode : ConstantBit rate : 448 KbpsChannel(s) : 6 channelsChannel positions : Front: L C R, Side: L R, LFESampling rate : 48.0 KHzBit depth : 16 bitsCompression mode : LossyStream size : 274 MiB (5%)Title : Профессиональный (многоголосый)Language : RussianDefault : NoForced : No

Audio #3ID : 4Format : DTSFormat/Info : Digital Theater SystemsCodec ID : A_DTSDuration : 1h 25mnBit rate mode : ConstantBit rate : 1 510 KbpsChannel(s) : 6 channelsChannel positions : Front: L C R, Side: L R, LFESampling rate : 48.0 KHzBit depth : 24 bitsCompression mode : LossyStream size : 922 MiB (18%)Language : EnglishDefault : NoForced : No

Text #1ID : 5Format : UTF-8Codec ID : S_TEXT/UTF8Codec ID/Info : UTF-8 Plain TextLanguage : RussianDefault : NoForced : No

Text #2ID : 6Format : UTF-8Codec ID : S_TEXT/UTF8Codec ID/Info : UTF-8 Plain TextLanguage : EnglishDefault : NoForced : No

piratbit.ru

Скачать фильм Доктор Дулиттл через торрент в хорошем качестве бесплатно BDRip-AVC

piratbit.ru

Размер: 2.17 GB | Добавлен: 6 лет 6 мес. назад | Торрент скачан:75 раз
Реклама Дарим 3000 рублей за регистрацию, не упусти свой шанс получить шикарный бонус!!!

23-04-2011 19:49 Доктор Дулиттл Скачать торрент  

Доктор Дулиттл / Doctor DolittleГод выпуска: 1998Страна: СШАЖанр: комедия, семейныйПродолжительность: 01:25:22Перевод: Профессиональный (полное дублирование) + Многоголосный (Профессиональный) + Оригинал (отдельно на SendFile.Su)

Режиссер: Бетти ТомасПродюссер: Сью Баден-Поуелл, Джон Дэвис, Дэвид Т. ФрендлиСценарий: Хью Лофтинг, Нат Молдин, Ларри Левин

Бюджет: $71 500 000Премьера в мире: 13 июня 1998

В ролях: Эдди Мерфи, Осси Дэвис, Оливер Плэтт, Питер Бойл, Ричард Шифф, Кристен Уилсон, Джеффри Тэмбор, Кайла Прэтт, Рэйвен, Стивен Гилборн

Описание: У доктора Джона Дулиттла есть, кажется, все, о чем только можно мечтать: удавшаяся карьера, красивая жена и две прелестные дочки. В довершение ко всему он вот — вот заключит самую большую в своей жизни финансовую сделку. Короче, доктор Дулиттл — настоящий счастливчик. И вдруг случается ужасное: доктор Дулиттл замечает, что в нем просыпается когда — то присущая ему способность… говорить на языке зверей. Дулиттл в прямом смысле слова понимает зов природы и может на него ответить. Отныне его ждет настоящая «собачья жизнь». Четвероногие и пернатые пациенты, прослышав про чудесного целителя, не дают ему прохода дома и на работе: «Кончай болтать, лечи!»…

Качество: BDRip-AVC [Исходник: / Blu-ray / 1080p]Формат: MKVВидео кодек: H.264Аудио кодек: AC3Видео: 1024x550 (1,86:1), 23,976 кадр/сек, H.264 ~2924 Кбит/сек, 0.217 Бит/(Пиксели*Кадры)Аудио: AC-3, 48.0 KHz, 2 ch, 192 Kbps, CBR | ДубляжАудио: AC-3, 48.0 KHz, 6 ch, 448 Kbps, CBR | МногоголосныйАудио: AC-3, 48.0 KHz, 6 ch, 448 Kbps, CBR [отдельно на SendFile.Su]Субтитры: Русские, АнглийскиеРелиз группы: | | by MaxVeLL

Скачать Доктор Дулиттл через торрент http://lostpic.net/images/0d739e48e5883a37000376400cba9f2d.jpg Скачать фильм Доктор Дулиттл через торрент бесплантно в хорошем качестве Описание: У доктора Джона Дулиттла есть, кажется, все, о чем только можно мечтать: удавшаяся карьера, красивая жена и две прелестные дочки. ... 2011-04-23 19:49 10 10 1

Loading...

Loading...

Рекламный пират

Дорогой пользователь! Огромная просьба, поблагодарите релизера, оцените раздачу и оставьте свои комментарий, если Вы скачали Доктор Дулиттл через торрент бесплатно! Внесите свою лепту в развитие PiratBit!

Комментировать посты могут только пользователи прошедшие не сложную регистрацию

Доктор Дулиттл через торрент Скачать бесплатно Доктор Дулиттл Доктор Дулиттл скачать торрент Доктор Дулиттл смотреть онлайн Cкачать фильм Доктор Дулиттл бесплатно Доктор Дулиттл скачать торрент в хорошем качестве Доктор Дулиттл смотреть онлайн бесплатно в хорошем качестве

Вы не можете начинать темыВы не можете отвечать на сообщенияВы не можете редактировать свои сообщенияВы не можете удалять свои сообщенияВы не можете голосовать в опросахВы не можете прикреплять файлы к сообщениямВы можете скачивать файлы

/ Doctor Dolittle ( / Richard Fleischer) [1967, , , , , , , BDRip 720p] MVO [] + Original Eng + Sub Eng

General Unique ID : 232282138754385810107564457258428284164 (0xAEBFE9A3E94C3923878C2099198E3D04) Complete name : Doctor.Dolittle.1967.720p.BluRay.Rus.Eng.HDCLUB.mkv Format : Matroska Format version : Version 2 File size : 8.51 GiB Duration : 2h 31mn Overall bit rate : 8 062 Kbps Encoded date : UTC 2012-01-11 10:22:06 Writing application : mkvmerge v3.4.0 ('Rapunzel') May 15 2010 09:38:20 Writing library : libebml v0.8.0 + libmatroska v0.9.0

Video

ID : 1 Format : AVC Format/Info : Advanced Video Codec Format profile : [email protected] Format settings, CABAC : Yes Format settings, ReFrames : 11 frames Codec ID : V_MPEG4/ISO/AVC Duration : 2h 31mn Bit rate : 6 199 Kbps Width : 1 280 pixels Height : 580 pixels Display aspect ratio : 2.2:1 Frame rate : 23.976 fps Color space : YUV Chroma subsampling : 4:2:0 Bit depth : 8 bits Scan type : Progressive Bits/(Pixel*Frame) : 0.348 Stream size : 6.54 GiB (77%) Title : Doctor Dolittle (1967) Writing library : x264 core 119 r2106 07efeb4 Encoding settings : cabac=1 / ref=11 / deblock=1:-3:-3 / analyse=0x3:0x133 / me=tesa / subme=11 / psy=1 / psy_rd=1.05:0.00 / mixed_ref=1 / me_range=24 / chroma_me=1 / trellis=2 / 8x8dct=1 / cqm=0 / deadzone=21,11 / fast_pskip=0 / chroma_qp_offset=-2 / threads=12 / sliced_threads=0 / nr=0 / decimate=0 / interlaced=0 / bluray_compat=0 / constrained_intra=0 / bframes=8 / b_pyramid=2 / b_adapt=2 / b_bias=0 / direct=1 / weightb=1 / open_gop=0 / weightp=2 / keyint=250 / keyint_min=23 / scenecut=40 / intra_refresh=0 / rc_lookahead=40 / rc=crf / mbtree=0 / crf=17.0 / qcomp=0.60 / qpmin=0 / qpmax=69 / qpstep=4 / vbv_maxrate=50000 / vbv_bufsize=62500 / crf_max=0.0 / nal_hrd=none / ip_ratio=1.40 / pb_ratio=1.30 / aq=1:0.80 Language : English Default : No Forced : No Color primaries : BT.709-5, BT.1361, IEC 61966-2-4, SMPTE RP177 Transfer characteristics : BT.709-5, BT.1361 Matrix coefficients : BT.709-5, BT.1361, IEC 61966-2-4 709, SMPTE RP177

Audio #1

ID : 2 Format : AC-3 Format/Info : Audio Coding 3 Mode extension : CM (complete main) Codec ID : A_AC3 Duration : 2h 31mn Bit rate mode : Constant Bit rate : 192 Kbps Channel(s) : 2 channels Channel positions : Front: L R Sampling rate : 48.0 KHz Bit depth : 16 bits Compression mode : Lossy Stream size : 208 MiB (2%) Title : AC3 2.0 @ 192 kbps - , Language : Russian Default : Yes Forced : No

Audio #2

ID : 3 Format : DTS Format/Info : Digital Theater Systems Codec ID : A_DTS Duration : 2h 31mn Bit rate mode : Constant Bit rate : 1 510 Kbps Channel(s) : 4 channels Channel positions : Front: L C R, Side: C Sampling rate : 48.0 KHz Bit depth : 16 bits Compression mode : Lossy Stream size : 1.59 GiB (19%) Title : DTS 4.0 @ 1536 kbps Language : English Default : No Forced : No

Text

ID : 4 Format : UTF-8 Codec ID : S_TEXT/UTF8 Codec ID/Info : UTF-8 Plain Text Language : English Default : No Forced : No

Menu

00:00:00.000 : en:00:00:00.000 00:04:49.539 : en:00:04:49.539 00:16:26.611 : en:00:16:26.611 00:27:32.484 : en:00:27:32.484 00:38:02.906 : en:00:38:02.906 00:52:10.127 : en:00:52:10.127 01:03:10.537 : en:01:03:10.537 01:12:43.192 : en:01:12:43.192 01:20:40.127 : en:01:20:40.127 01:29:42.752 : en:01:29:42.752 01:36:53.391 : en:01:36:53.391 01:45:10.262 : en:01:45:10.262 01:54:54.513 : en:01:54:54.513 02:05:19.721 : en:02:05:19.721 02:17:07.803 : en:02:17:07.803 02:25:28.136 : en:02:25:28.136

unionpeer.com


Смотрите также