Демон внутри скачать торрент в хорошем качестве


Скачать фильм Демон внутри через торрент в хорошем качестве бесплатно WEB-DLRip

piratbit.ru

Раздают: 2 [ 0 KB/s ]
Размер: 1.48 GB | Добавлен: 10 мес. назад | Торрент скачан:2216 раз
Реклама Дарим 3000 рублей за регистрацию, не упусти свой шанс получить шикарный бонус!!!

23-12-2016 09:32 Демон внутри Скачать торрент  

Информация о фильме

Название: Демон внутри / Вскрытие Джейн Доу

Оригинальное название: The Autopsy of Jane Doe

Год выпуска: 2016

Выпущено: Великобритания / Impostor Pictures

Жанр: ужасы

Продолжительность: 01:26:27

Перевод: Профессиональный (многоголосый закадровый) AlexFilm

Cубтитры: нет

Режиссер:

Андре Овредал / André Øvredal

В ролях:

Эмиль Хирш (Austin Tilden), Брайан Кокс (Tommy Tilden), Офелия Ловибонд (Emma), Майкл МакЭлхаттон (Sheriff Sheldon), Олуэн Катрин Келли (Jane Doe), Паркер Сойерс (Officer Cole), Джейн Перри (Lieutenant Wade), Ив О Хара (Deputy Ballard)

О фильме:

Тони, гробовщик маленького городка, получает тело жертвы таинственного убийства — красивой и молодой Джейн Доу, без видимой причины смерти. Он пытается выяснить, кто она и как умерла, обнаруживая все более причудливые подсказки, которые ведут к ужасным тайнам её жизни и смерти.

| | |

Файл

Качество: WEB-DLRip [The.Autopsy.of.Jane.Doe.2016.1080p.WEB-DL.DD5.1.h364-FGT]

Формат: AVI

Видео кодек: XviD

Аудио кодек: AC3

Видео: 704x288 (2.44:1), 23.976 fps, XviD build 67 ~2063 kbps avg, 0.42 bit/pixel

Аудио: 48 kHz, AC3 Dolby Digital, 3/2 (L,C,R,l,r) + LFE ch, ~384 kbps avg

Скачать Демон внутри через торрент http://i86.fastpic.ru/big/2016/1221/7b/3a2fed0399b52442dd877fe0f7ffbb7b.png Скачать фильм Демон внутри через торрент бесплантно в хорошем качестве О фильме:Тони, гробовщик маленького городка, получает тело жертвы таинственного убийства — красивой и молодой Джейн Доу, без видимой ... 2016-12-23 09:32 9.9 10 38

Loading...

Loading...

% Раздел Тема Автор DL S | L
Фильмы (Blu-ray, BD-Remux, HDDVD) [ 17.24 GB ] Демон внутри / Вскрытие Джейн Доу / The Autopsy of Jane Doe [2016 BD Remux 1080p] MVO bober100 Скачать
Фильмы [HD 720p, 1080p] (Хороший звук DUB, MVO) [ 9.58 GB ] Демон внутри / Вскрытие Джейн Доу / The Autopsy of Jane Doe [2016 BDRip 1080p] MVO sheker187 Скачать
Фильмы (WEB-DL 720p, 1080p) [ 3.21 GB ] Демон внутри / Вскрытие Джейн Доу / The Autopsy of Jane Doe [2016 WEB-DL 1080p] многоголосый [AlexFilm] killermax2013 Скачать
Фильмы (HD 720p, 1080p) (48-60 fps) [ 13.06 GB ] Демон внутри / Вскрытие Джейн Доу / The Autopsy of Jane Doe [2016 BDRip 1080p / 60fps] MVO+2xVO sheker187 Скачать
Фильмы 2016 [DVDrip, WEB-DLRip, HDrip] (DUB, MVO) [ 1.42 GB ] Демон внутри / Вскрытие Джейн Доу / The Autopsy of Jane Doe [2016 BDRip] многоголосый [AlexFilm] Twi7ter Скачать
Фильмы [HD 720p, 1080p] (Хороший звук DUB, MVO) [ 4.91 GB ] Демон внутри / Вскрытие Джейн Доу / The Autopsy of Jane Doe [2016 BDRip 720p] MVO sheker187 Скачать
Фильмы 2016 [DVDrip, WEB-DLRip, HDrip] (DUB, MVO) [ 1.42 GB ] Демон внутри / Вскрытие Джейн Доу / The Autopsy of Jane Doe [2016 BDRip] многоголосый Twi7ter Скачать

Рекламный пират

23-12-2016 12:34 Демон внутри Скачать торрент  

Как кинчик ?)

23-12-2016 13:53 Демон внутри Скачать торрент  

QuoVadis писал(а):

Как кинчик ?) жесть! очень жуткий.вскрытие трупа в подробностях плюс привидения.зрелище не для слабонервных.

23-12-2016 14:22 Демон внутри Скачать торрент  

на удивление хороший ужастик.с удовольствием посмотрели

23-12-2016 15:29 Демон внутри Скачать торрент  

судя по отзывам стоит посмотреть.спасибо за раздачу

23-12-2016 16:22 Демон внутри Скачать торрент  

Давно, я так от страха штаны мокрые не отжимал! вот это я понимаю ужастик

23-12-2016 18:39 Демон внутри Скачать торрент  

какая же хрень-дешовка...

23-12-2016 18:42 Демон внутри Скачать торрент  

Нормальный фильм.Мне понравилось.

24-12-2016 05:39 Демон внутри Скачать торрент  

фильм нормальный смотреть можно

Pекламный агент PB

24-12-2016 15:49 Демон внутри Скачать торрент  

Давно я таких фильмов не видел,весь фильм в напряжении!

24-12-2016 21:35 Демон внутри Скачать торрент  

фильм хорош но для любителей такого жанра предсказуем 6/10

25-12-2016 15:08 Демон внутри Скачать торрент  

Хороший фильм ужасов. Смотрел на одном дыхании. Советую к просмотру.

25-12-2016 15:18 Демон внутри Скачать торрент  

охрененный фильм. из ужасов в последнее время выбрать нечего но этот очень хорош

25-12-2016 18:13 Демон внутри Скачать торрент  

Поддерживаю: фильм понравился, рекомендую к просмотру. Рейтинг фильма адекватен.

28-12-2016 13:23 Демон внутри Скачать торрент  

комментарии хорошие:будем смотреть.

03-01-2017 18:59 Демон внутри Скачать торрент  

Страшный, жуткий, интересный! Рекомендую!

04-01-2017 16:03 Демон внутри Скачать торрент  

Отличный фильм, всем друзьям его посоветовал, всем понравился!!!!!

Pекламный агент PB

07-01-2017 11:16 Демон внутри Скачать торрент  

shatrukov писал(а):

какая же хрень-дешовка...

и найдётся же один человек которому не понравилось.....

Фильм просто бомба, пожалуй один из лучших ужастиков, что смотрел из последнего. Атмосферный, довольно интересна последовательность событий. И не побоюсь этого слова страшный.

14-02-2017 18:21 Демон внутри Скачать торрент  

котейку жалко

18-02-2017 13:18 Демон внутри Скачать торрент  

Да, киношка зашла как следует. Начал смотреть вместе с женой, в итоге досматривал один. Очень качественный ужастик, на одном дыхании..В топы его подымайте!!!

20-02-2017 11:30 Демон внутри Скачать торрент  

Мне тоже особо не понравился! Почему она сразу их не покрашила, зачем этот спектакль с ходячими трупами? Зачем баба эта вернулась, договорились же что дома будет! Оценки завышены!!!

12-04-2017 14:29 Демон внутри Скачать торрент  

Жанр жив....!!!!!!

Дорогой пользователь! Огромная просьба, поблагодарите релизера, оцените раздачу и оставьте свои комментарий, если Вы скачали Демон внутри через торрент бесплатно! Внесите свою лепту в развитие PiratBit!

Комментировать посты могут только пользователи прошедшие не сложную регистрацию

Демон внутри через торрент Скачать бесплатно Демон внутри Демон внутри скачать торрент Демон внутри смотреть онлайн Cкачать фильм Демон внутри бесплатно Демон внутри скачать торрент в хорошем качестве Демон внутри смотреть онлайн бесплатно в хорошем качестве

Вы не можете начинать темыВы не можете отвечать на сообщенияВы не можете редактировать свои сообщенияВы не можете удалять свои сообщенияВы не можете голосовать в опросахВы не можете прикреплять файлы к сообщениямВы можете скачивать файлы

Скачать Демон внутри (2017) через торрент

Категория: Фильмы 10832 0 Торрент добавлен: 21-03-2017 Рейтинг:

2017 / ужасы / 86 мин.Название: Демон внутри / The Autopsy of Jane Doe Страна: Великобритания, США Режиссер: Андре Овредал Роли сыграли: Эмиль Хирш, Брайан Кокс, Офелия Ловибонд, Майкл МакЭлхаттон, Олуэн Катрин Келли, Паркер Сойерс, Джейн Перри, Ив О Хара

Героя зовут Томми и у него очень не обычная, даже мистическая работенка — он гробовщик. Долгие годы этой работы изменили его отношение к смерти, он теперь стал ее вообще не бояться как некоторые люди. Однажды к нему поступает очередной покойник, которого требуется похоронить. Ей оказалась Джейн, умершая еще в молодом возрасте и Томми начал думать — почему такие молодые, не повидавшие толком мир люди уходят из жизни, ведь это не справедливо?

Потом он разузнал, что она погибла при довольно мистических и необъяснимых обстоятельствах. Ее внешность настолько сильно зацепила парня, что тот стал относиться к смерти совсем по-другому, и самое главное, что он решил выяснить как же именно умерла она. Причем что он даже не знал чем она занималась при жизни и каким была человеком, но все-таки смог проникнуться к ней особенным чувством. Расследование гибели было не простым, возникало множество вопросов, кучу улик и загадок.

Изучение тела девушки стало для гробовщика навязчивой идеей и его отец уже начал переживать, что с сыном что-то не то. В конечном итоге папа вызвался помочь сыну в расследовании, потому как видел, что для него это важно и просто хотел контролировать весь процесс самостоятельно. Они разгадывали одну загадку за другой и в конце концов поняли, что нарвались на нечто необычное и лучше всего бы им не стоило вообще связываться с этим делом.

Трейлер к фильму Демон внутри (2017)

 

Демон внутри (2017) скачать торрент

Качество: WEB-DLRip 1080pВидео: 1920х792 [2.40:1], 4537 Kbps, 23.976 fpsЗвук: 384 Kbps, 6ch, 48.0 kHz, AC3 RUS [Профессиональный многоголосый / AlexFilm]

3,44 Gb

Качество: WEB-RipВидео: 720x304, 1942 Кбит, fps 23,98 Аудио: ac3, 384 Кбит, 6 каналов, 48000, Любительский одноголосый [BadBajo]

Вы находитесь на странице, где можете совершенно бесплатно скачать фильм Демон внутри (2017) в хорошем качестве через торрент, в любом формате, который больше всего вам на данный момент подходит. Скачивание осуществляется через торрент, что означает максимально высокую скорость загрузки. Желаем Вам приятного просмотра!. Не забудь поделиться своими впечатлениями после того как посмотришь фильм Демон внутри (2017).

Информация Посетители, находящиеся в группе Гости, не могут оставлять комментарии к данной публикации.

psp-gu.ru

Скачать фильм Демон внутри через торрент в хорошем качестве бесплатно 1080p

piratbit.ru

Раздают: 2 [ 0 KB/s ]
Размер: 3.21 GB | Добавлен: 10 мес. назад | Торрент скачан:1372 раза
Реклама Дарим 3000 рублей за регистрацию, не упусти свой шанс получить шикарный бонус!!!

22-12-2016 14:13 Демон внутри Скачать торрент  

Демон внутри / Вскрытие Джейн Доу / The Autopsy of Jane Doe Год выпуска: 2016Страна: ВеликобританияЖанр: ужасы

Продолжительность: 01:26:27Перевод: Профессиональный многоголосый [AlexFilm]

Режиссер: Андре ОвредалВ ролях: Эмиль Хирш (Austin Tilden), Брайан Кокс (Tommy Tilden), Офелия Ловибонд (Emma), Майкл МакЭлхаттон (Sheriff Sheldon), Олуэн Катрин Келли (Jane Doe), Паркер Сойерс (Officer Cole), Джейн Перри (Lieutenant Wade), Ив О’Хара (Deputy Ballard, в титрах не указан)Описание: Патологоанатомы маленького городка получают тело жертвы таинственного убийства - красивой и молодой Джейн Доу без видимой причины смерти. Они пытаются выяснить, кто она и как умерла, обнаруживая все более причудливые подсказки, которые ведут к тайнам её жизни и смерти.Рейтинг: MPAA: R - Лицам до 17 лет обязательно присутствие взрослогоКачество: WEB-DL 1080pФормат: MKVВидео: AVC, 1920x792 (2.40:1), 4433 kbps, 23,976 fps, 0,122 bppАудио №1: русский / AC3 / 5.1 / 48 kHz / 384 kbps / |MVO, AlexFilm| Аудио №2: английский / AC3 / 5.1 / 48 kHz / 384 kbps / GeneralUnique ID : 220541536537122305838497972300849013575 (0xA5EAC1426C92C348911E2158E40EE347)Complete name : E:\The.Autopsy.of.Jane.Doe.2016.WEB-DL.1080p.Rus.Eng.AlexFilm.mkvFormat : MatroskaFormat version : Version 4 / Version 2File size : 3.21 GiBDuration : 1 h 26 minOverall bit rate : 5 307 kb/sMovie name : The Autopsy of Jane Doe @ AlexFilmEncoded date : UTC 2016-12-22 10:22:29Writing application : mkvmerge v7.1.0 ('Good Love') 64bit built on Jul 27 2014 13:06:55Writing library : libebml v1.3.0 + libmatroska v1.4.1Cover : YesAttachments : cover_land.jpg / small_cover.jpg / small_cover_land.jpg / cover.jpg

VideoID : 1Format : AVCFormat/Info : Advanced Video CodecFormat profile : [email protected] settings, CABAC : YesFormat settings, ReFrames : 5 framesCodec ID : V_MPEG4/ISO/AVCDuration : 1 h 26 minBit rate : 4 434 kb/sWidth : 1 920 pixelsHeight : 792 pixelsDisplay aspect ratio : 2.40:1Frame rate mode : ConstantFrame rate : 23.976 FPSColor space : YUVChroma subsampling : 4:2:0Bit depth : 8 bitsScan type : ProgressiveBits/(Pixel*Frame) : 0.122Stream size : 2.68 GiB (84%)Title : The.Autopsy.of.Jane.Doe.2016.1080p.WEB-DL.DD5.1.h364-FGTLanguage : EnglishDefault : YesForced : NoColor range : LimitedColor primaries : BT.709Transfer characteristics : BT.709Matrix coefficients : BT.709

Audio #1ID : 2Format : AC-3Format/Info : Audio Coding 3Mode extension : CM (complete main)Format settings, Endianness : BigCodec ID : A_AC3Duration : 1 h 26 minBit rate mode : ConstantBit rate : 384 kb/sChannel(s) : 6 channelsChannel positions : Front: L C R, Side: L R, LFESampling rate : 48.0 kHzFrame rate : 31.250 FPS (1536 spf)Compression mode : LossyStream size : 237 MiB (7%)Title : DD5.1 AlexFilmLanguage : RussianDefault : YesForced : No

Audio #2ID : 3Format : AC-3Format/Info : Audio Coding 3Mode extension : CM (complete main)Format settings, Endianness : BigCodec ID : A_AC3Duration : 1 h 26 minBit rate mode : ConstantBit rate : 384 kb/sChannel(s) : 6 channelsChannel positions : Front: L C R, Side: L R, LFESampling rate : 48.0 kHzFrame rate : 31.250 FPS (1536 spf)Compression mode : LossyStream size : 237 MiB (7%)Title : DD5.1 OriginalLanguage : EnglishDefault : NoForced : No

Скачать Демон внутри через торрент http://i1.imageban.ru/out/2016/12/23/2389314aaad619d50763652d3bdd585d.png Скачать фильм Демон внутри через торрент бесплантно в хорошем качестве Описание: Патологоанатомы маленького городка получают тело жертвы таинственного убийства - красивой и молодой Джейн Доу без видимой причины ... 2016-12-22 14:13 9 10 42

Loading...

Loading...

% Раздел Тема Автор DL S | L
Фильмы (Blu-ray, BD-Remux, HDDVD) [ 17.24 GB ] Демон внутри / Вскрытие Джейн Доу / The Autopsy of Jane Doe [2016 BD Remux 1080p] MVO bober100 Скачать
Фильмы [HD 720p, 1080p] (Хороший звук DUB, MVO) [ 9.58 GB ] Демон внутри / Вскрытие Джейн Доу / The Autopsy of Jane Doe [2016 BDRip 1080p] MVO sheker187 Скачать
Фильмы (HD 720p, 1080p) (48-60 fps) [ 13.06 GB ] Демон внутри / Вскрытие Джейн Доу / The Autopsy of Jane Doe [2016 BDRip 1080p / 60fps] MVO+2xVO sheker187 Скачать
Фильмы 2016 [DVDrip, WEB-DLRip, HDrip] (DUB, MVO) [ 1.42 GB ] Демон внутри / Вскрытие Джейн Доу / The Autopsy of Jane Doe [2016 BDRip] многоголосый [AlexFilm] Twi7ter Скачать
Фильмы [HD 720p, 1080p] (Хороший звук DUB, MVO) [ 4.91 GB ] Демон внутри / Вскрытие Джейн Доу / The Autopsy of Jane Doe [2016 BDRip 720p] MVO sheker187 Скачать
Фильмы 2016 [DVDrip, WEB-DLRip, HDrip] (DUB, MVO) [ 1.42 GB ] Демон внутри / Вскрытие Джейн Доу / The Autopsy of Jane Doe [2016 BDRip] многоголосый Twi7ter Скачать
Фильмы 2016 [DVDrip, WEB-DLRip, HDrip] (DUB, MVO) [ 1.37 GB ] Демон внутри / Вскрытие Джейн Доу / The Autopsy of Jane Doe [2016 HDRip] MVO [AlexFilm] bober100 Скачать

Рекламный пират

22-12-2016 17:03 Демон внутри Скачать торрент  

killermax2013 писал(а):

Качество: WEB-DLRip

killermax2013, 1. Укажите правильно качество, в заголовке и в тех. данных.

killermax2013 писал(а):

The.Autopsy.of.Jane.Doe.2016.WEB-DL.1080p.Rus.Eng.AlexFilm.mkv

2. Сделайте отчет МедиаИнфо, он для раздач в формате MKV обязателен.

killermax2013 писал(а):

Формат: AVIВидео: 704x288 (2.44:1), 23.976 fps, XviD build 67 ~2063 kbps avg, 0.42 bit/pixelАудио: 48 kHz, AC3 Dolby Digital, 3/2 (L,C,R,l,r) + LFE ch, ~384 kbps avg

3. Укажите тех. данные о файле в соответствии с отчетом МИ.4. Сделайте самостоятельно скриншоты с раздаваемого материала и перезалейте на рекомендуемый администрацией фотохостинг.Список рекомендованных хостингов для заливки скринов, постеров, картинок с этих хостингов, на Пиратбите!

Последний раз редактировалось: -Lexx- (2016-12-23 13:11), всего редактировалось 1 раз

22-12-2016 17:29 Демон внутри Скачать торрент  

Отличный ужастик, на мой взгляд лучший за этот год. Качайте не пожалеете!!!!

22-12-2016 17:51 Демон внутри Скачать торрент  

Воощпе не очень . Не понравился.

22-12-2016 20:57 Демон внутри Скачать торрент  

мож кто картинку 1080 выложит...подожду...

Юный Чикатилла

22-12-2016 21:11 Демон внутри Скачать торрент  

Цитата:

Качество: WEB-DLRip [The.Autopsy.of.Jane.Doe.2016.1080p.WEB-DL.DD5.1.h364-FGT]Формат: AVIВидео: 704x288

Я чо то вообще не понял чему верить то! Так Разрешение: 704x288 в раздаче или 1080Р?Скрины в шапке тут имеют разрешение 704x288, http://pb.wtf/goo.php?url=http://pb.wtf/goo.php?url=http://imageban.ru/show/2016/12/21/53b05d4c7cfe972c8914a122157d77ce/jpgа такое кино мне тогда и бесплатно не нужно, смотреть сидеть квадратики на метр сорок экране.

К примеру в др. месте Рунета скрины соответствуют тому что в раздаче там ↓Видео: 1920х792 [2.40:1], 4537 Kbps, 23.976 fps А тут что в итоге в реале-то?

geka123_08 писал(а):

Отличный ужастик, на мой взгляд лучший за этот год.

Так я поэтому и визжу, что хотел скачать, но только не квадратики в семьсот на триста точек Ибо пишут просмотревшие

"..Добротный мистический ''камерный'' ужастик. Заметно выделяется на фоне бесконечного потока бессмысленного кинотрэша о зомби, маньяках и заблудившихся подростках. Возможно, даже один из лучших, вышедших в этом году..."

Ночью посмотрел, скачав и там и тут.В общем, тут такое в раздаче по разрешению))

23-12-2016 13:08 Демон внутри Скачать торрент  

killermax2013, оформление поправил, т.к. технические данные в описании не соответствовали раздаваемому материалу. Прошу вас быть внимательнее при использовании парсера.

23-12-2016 21:12 Демон внутри Скачать торрент  

ух свежий ужастик посмотрю отпишусь)))

24-12-2016 14:40 Демон внутри Скачать торрент  

фильмец хороший-но не страшный-а так все солидно

Pекламный агент PB

26-12-2016 05:13 Демон внутри Скачать торрент  

Спасибо! Посмотрим :)

P.S. Посмотрел - понравился...

26-01-2017 07:16 Демон внутри Скачать торрент  

Фильм огонь,в капилку!!!

26-01-2017 19:33 Демон внутри Скачать торрент  

Хороший фильм..походу ждать 2-ю часть стоит...

22-02-2017 15:17 Демон внутри Скачать торрент  

фильм более менее чем нынешние ужастики...что то есть..с 90х..когда от страха страшно выходить на улицу...

09-07-2017 23:01 Демон внутри Скачать торрент  

Очень неплохой ужастик,смотреть стоит!

Дорогой пользователь! Огромная просьба, поблагодарите релизера, оцените раздачу и оставьте свои комментарий, если Вы скачали Демон внутри через торрент бесплатно! Внесите свою лепту в развитие PiratBit!

Комментировать посты могут только пользователи прошедшие не сложную регистрацию

Демон внутри через торрент Скачать бесплатно Демон внутри Демон внутри скачать торрент Демон внутри смотреть онлайн Cкачать фильм Демон внутри бесплатно Демон внутри скачать торрент в хорошем качестве Демон внутри смотреть онлайн бесплатно в хорошем качестве

Вы не можете начинать темыВы не можете отвечать на сообщенияВы не можете редактировать свои сообщенияВы не можете удалять свои сообщенияВы не можете голосовать в опросахВы не можете прикреплять файлы к сообщениямВы можете скачивать файлы

Скачать фильм Демон внутри через торрент в хорошем качестве бесплатно HDRip

piratbit.ru

Раздают: 2 [ 0 KB/s ]
Размер: 1.37 GB | Добавлен: 6 мес. назад | Торрент скачан:367 раз
Реклама Дарим 3000 рублей за регистрацию, не упусти свой шанс получить шикарный бонус!!!

12-04-2017 13:52 Демон внутри Скачать торрент  

Демон внутри / Вскрытие Джейн Доу / The Autopsy of Jane Doe

Год выпуска: 2016Страна: ВеликобританияЖанр: триллер, ужасы, детективПродолжительность: 01:25:49Перевод: Профессиональный многоголосый - [AlexFilm]Субтитры: отсутствуют

Режиссер: Андре Овредал

В ролях:

Олуэн Катрин Келли, Офелия Ловибонд, Эмиль Хирш, Брайан Кокс, Майкл МакЭлхаттон, Паркер Сойерс, Джейн Перри, Ив О Хара

Описание:

Тони, гробовщик маленького городка, получает тело жертвы таинственного убийства — красивой и молодой Джейн Доу, без видимой причины смерти. Он пытается выяснить, кто она и как умерла, обнаруживая все более причудливые подсказки, которые ведут к ужасным тайнам её жизни и смерти.

Качество: HDRipФормат: AVIВидео кодек: XviDАудио кодек: AC3

Видео: 720x304 (2.37:1), 23.976 fps, XviD build 50 ~1757 kbps avg, 0.35 bit/pixelАудио#1: Русский: 48 kHz, AC3 Dolby Digital, 3/2 (L,C,R,l,r) + LFE ch, ~384 kbps [Профессиональный (многоголосый закадровый)]Аудио#2: Английский: 48 kHz, AC3 Dolby Digital, 2/0 (L,R) ch, ~128 kbps [Оригинал]

Скачать Демон внутри через торрент http://s019.radikal.ru/i625/1704/9b/b5288f2a1e47.jpg Скачать фильм Демон внутри через торрент бесплантно в хорошем качестве Описание: Тони, гробовщик маленького городка, получает тело жертвы таинственного убийства — красивой и молодой Джейн Доу, без видимой ... 2017-04-12 13:52 9.1 10 11

Loading...

Loading...

% Раздел Тема Автор DL S | L
Фильмы (Blu-ray, BD-Remux, HDDVD) [ 17.24 GB ] Демон внутри / Вскрытие Джейн Доу / The Autopsy of Jane Doe [2016 BD Remux 1080p] MVO bober100 Скачать
Фильмы [HD 720p, 1080p] (Хороший звук DUB, MVO) [ 9.58 GB ] Демон внутри / Вскрытие Джейн Доу / The Autopsy of Jane Doe [2016 BDRip 1080p] MVO sheker187 Скачать
Фильмы (WEB-DL 720p, 1080p) [ 3.21 GB ] Демон внутри / Вскрытие Джейн Доу / The Autopsy of Jane Doe [2016 WEB-DL 1080p] многоголосый [AlexFilm] killermax2013 Скачать
Фильмы (HD 720p, 1080p) (48-60 fps) [ 13.06 GB ] Демон внутри / Вскрытие Джейн Доу / The Autopsy of Jane Doe [2016 BDRip 1080p / 60fps] MVO+2xVO sheker187 Скачать
Фильмы 2016 [DVDrip, WEB-DLRip, HDrip] (DUB, MVO) [ 1.42 GB ] Демон внутри / Вскрытие Джейн Доу / The Autopsy of Jane Doe [2016 BDRip] многоголосый [AlexFilm] Twi7ter Скачать
Фильмы [HD 720p, 1080p] (Хороший звук DUB, MVO) [ 4.91 GB ] Демон внутри / Вскрытие Джейн Доу / The Autopsy of Jane Doe [2016 BDRip 720p] MVO sheker187 Скачать
Фильмы 2016 [DVDrip, WEB-DLRip, HDrip] (DUB, MVO) [ 1.42 GB ] Демон внутри / Вскрытие Джейн Доу / The Autopsy of Jane Doe [2016 BDRip] многоголосый Twi7ter Скачать

Рекламный пират

12-04-2017 15:45 Демон внутри Скачать торрент  

Нормальное кинцо. Любители жанра не обломаются.

13-04-2017 14:11 Демон внутри Скачать торрент  

13-04-2017 15:24 Демон внутри Скачать торрент  

Прям отлично вошло вовремя ужина, автору спасибо!

Дорогой пользователь! Огромная просьба, поблагодарите релизера, оцените раздачу и оставьте свои комментарий, если Вы скачали Демон внутри через торрент бесплатно! Внесите свою лепту в развитие PiratBit!

Комментировать посты могут только пользователи прошедшие не сложную регистрацию

Демон внутри через торрент Скачать бесплатно Демон внутри Демон внутри скачать торрент Демон внутри смотреть онлайн Cкачать фильм Демон внутри бесплатно Демон внутри скачать торрент в хорошем качестве Демон внутри смотреть онлайн бесплатно в хорошем качестве

Вы не можете начинать темыВы не можете отвечать на сообщенияВы не можете редактировать свои сообщенияВы не можете удалять свои сообщенияВы не можете голосовать в опросахВы не можете прикреплять файлы к сообщениямВы можете скачивать файлы

Демон внутри (2016) скачать торрент в хорошем качестве бесплатно

Описание фильма "Демон внутри"

В сентябре 2016 года состоялась мировая премьера нового британского хоррора Демон Внутри, главные роли в которой исполнили небезызвестные актеры Эмиль Хирш и Брайан Кокс.

По сюжету полицейские одного отдаленного городка обнаружили мертвое тело молодой привлекательной девушки, закопанной неглубоко под землей. Труп был еще свежий, и все указывало на то, что жестокое убийство произошло именно в этом месте. Но одно обстоятельство очень удивило защитников правопорядка - на теле этой особы не было ни единого следа насилия. На этот вопрос могут ответить лишь специалисты-коронеры, мнение которых станет заключительным. Поблизости этим делом занимаются только отец и сын, владеющие собственным моргом и бюро похоронных услуг.

Молодого человека звали Тони, и он всю жизнь прожил в тихом и маленьком городе, в котором редко что-то происходило. Тем не менее, он не оставался без работы, ведь случаи преступлений все же давали о себе знать. У героя были стальные нервы, поэтому, выбирая профессию, он, недолго думая, решил пойти по стопам отца и стать патологоанатомом. Этот парень уже привык к тому, что мертвые тела - это всего лишь безжизненные останки людей, поэтому он без труда вскрывал их, чтобы установить причину смерти. Нередко Тони имел дело с местным шерифом, и этот человек на сей раз сообщил о серии необычных убийств. Служитель закона не понимал, как эти преступления связаны между собой, но с делом нужно было разобраться, как можно скорее, поэтому отец и сын приступили к осмотру мертвого тела той девушки, оказавшейся среди тех четырех жертв. Кроме неземной красоты умершей, Тони поразило то, что на ней действительно не было никаких отметин, указывающих на причину смерти, а также отсутствовали следы разложения. Эту девушку звали Джейн Доу, и она выглядела так, как и при жизни, если не считать слегка бледный цвет кожи и пелену на глазах. Уже который день ее внешний вид совершенно не менялся, словно она живая или, по крайней мере, в ней есть чей-то дух. Происходящее настолько заинтриговало главных героев фильма Демон внутри, что они решили начать собственное расследование. Но попытки узнать что-то у местных жителей, ни к чему не приводили, многие ничего не знали, а некоторые, если и знали, то боялись говорить. В результате оказалось, что Джейн Доу никто не знает и прежде не видел. Исследование трупа, в свою очередь, не дало результатов, но постепенно начали всплывать интересные факты о жизни погибшей. Помимо прочего, расследованию коронеров мешало то, что чем дальше они продвигались, тем более загадочные и пугающие вещи случались. А что, если горожане молчат по страшной причине, и в теле той девушки действительно находится демон? Чтобы узнать, так ли это на самом деле, советуем посмотреть интригующий хоррор Демон внутри.

Скачать Демон внутри через торрент

Сиды Качество Перевод Размер Видео Аудио
Скачать Загрузка... BDRemux Профессиональный многоголосый | iTunes 18,52 Гб MPEG-4 AVC, 1920x1080, 26.2 Mbit/s, 23.976 fps 48 kHz, DTS-HD MA, 5.1, 1984 Kbps | Оригинал |
Скачать Загрузка... BDRip1080 Профессиональный (многоголосый, закадровый) | 6,11 Гб MPEG-4 AVC, 8600 Кбит/с, 1920x800 [ENG] AC3 | 48 KHz | 5.1 (Front: L С R Side: L R) + LFE | ~448 kbps
Скачать Загрузка... BDRip1080 Профессиональный многоголосый [iTunes] 4,65 Гб AVC, 1920x800 (2,40:1), 6352 kbps, 23,976 fps AC3 / 5.1 / 48 kHz / 448 kbps / 16 bit |
Скачать Загрузка... BDRip720 Профессиональный многоголосый [iTunes] 3,12 Гб AVC, 1280x534 (1.852), 3987 kbps, 23,976 fps AC3 / 5.1 / 48 kHz / 448 kbps / 16 bit |
Скачать Загрузка... WEB-DL Профессиональный многоголосый [iTunes] 1,52 Гб AVC, 1056x440 (2.40:1), 1972 kbps, 23,976 fps, 0,177 bpp русский / AC3 / 5.1 / 48 kHz / 384 kbps / 16 bit
Скачать Загрузка... WEB-DL 409,07 Мб

У нас вы можете легко скачать Демон внутри через торрент бесплатно в хорошем качестве, оставляйте комментарии и делитесь впечатлениями!

kino.kak.to

Скачать торрент Демон внутри / The Autopsy Of Jane Doe (2016) BDRip 1080p от ExKinoRay

Информация о фильмеНазвание: Демон внутриОригинальное название: The Autopsy of Jane DoeГод выхода: 2016Жанр: УжасыРежиссер: Андре ОвредалВ ролях: Эмиль Хирш, Брайан Кокс, Офелия Ловибонд, Майкл МакЭлхаттон, Олуэн Катрин Келли, Паркер Сойерс, Джейн Перри, Ив О’Хара

О фильме:Тилдены. Морг и крематорий. Вот уже третье поколение Тилдены исправно выполняют свою работу. "Если взялись за дело, то выполняем его до конца!" Именно так звучит девиз этой небольшой семейной фирмы. Старший Тилден помогает полиции раскрывать преступления, используя свои обширные знания и опыт. Однажды, давний друг Тильманов, инспектор Берг, привозит в морг тело девушки, личность которой невозможно установить. Так же он просит провести вскрытие до утра следующего дня. Отец с сыном принимаются за работу...

Страна: ВеликобританияСтудия: 42, IM Global, Impostor PicturesПродолжительность: 01:26:22Перевод: Профессиональный многоголосый | iTunes

ФайлКачество: BDRip 1080pВидео: MPEG-4 AVC, 1920x800, 14.0 Mbit/s, 23.976 fpsЗвук: Аудио #01: 48 kHz, AC3, 5.1, 384 Kbps | Дублированный | iTunes | RUS |Аудио #02: 48 kHz, DTS, 5.1, 1510 Kbps | Оригинал | ENG |Субтитры: Русские, английские

MI

General Unique ID : 192297495778450261493460033083182658067 (0x90AB268976DFBD9DB50C45B602BBB213) Complete name : F:VideoThe.Autopsy.of.Jane.Doe.2016.BDRip.1080p.ExKInoRay.mkv Format : Matroska Format version : Version 4 / Version 2 File size : 9.58 GiB Duration : 1 h 26 min Overall bit rate : 15.9 Mb/s Encoded date : UTC 2017-04-18 09:34:27 Writing application : mkvmerge v10.0.0 ('To Drown In You') 64bit Writing library : libebml v1.3.4 + libmatroska v1.4.5

Video ID : 1 Format : AVC Format/Info : Advanced Video Codec Format profile : [email protected] Format settings, CABAC : Yes Format settings, ReFrames : 5 frames Codec ID : V_MPEG4/ISO/AVC Duration : 1 h 26 min Bit rate : 14.0 Mb/s Width : 1 920 pixels Height : 800 pixels Display aspect ratio : 2.40:1 Frame rate mode : Constant Frame rate : 23.976 (24000/1001) FPS Color space : YUV Chroma subsampling : 4:2:0 Bit depth : 8 bits Scan type : Progressive Bits/(Pixel*Frame) : 0.380 Stream size : 8.44 GiB (88%) Writing library : x264 core 142 r2431+42 c69a006 tMod [[email protected] X86_64] Encoding settings : cabac=1 / ref=5 / deblock=1:-3:-3 / analyse=0x3:0x133 / me=umh / subme=11 / psy=1 / fade_compensate=0.00 / psy_rd=1.05:1.05 / mixed_ref=1 / me_range=48 / chroma_me=1 / trellis=2 / 8x8dct=1 / cqm=0 / deadzone=21,11 / fast_pskip=0 / chroma_qp_offset=-4 / threads=16 / lookahead_threads=2 / sliced_threads=0 / nr=0 / decimate=0 / interlaced=0 / bluray_compat=0 / constrained_intra=0 / fgo=0 / bframes=8 / b_pyramid=2 / b_adapt=2 / b_bias=0 / direct=3 / weightb=1 / open_gop=0 / weightp=2 / keyint=240 / keyint_min=23 / scenecut=40 / intra_refresh=0 / rc_lookahead=150 / rc=2pass / mbtree=0 / bitrate=14000 / ratetol=1.0 / qcomp=0.80 / qpmin=0:0:0 / qpmax=69:69:69 / qpstep=4 / cplxblur=20.0 / qblur=0.5 / vbv_maxrate=62500 / vbv_bufsize=78125 / nal_hrd=none / filler=0 / ip_ratio=1.30 / pb_ratio=1.20 / aq=2:0.65 / aq-sensitivity=10.00 / aq-factor=1.00:1.00:1.00 / aq2=0 / aq3=0 Language : English Default : Yes Forced : No Color range : Limited Color primaries : BT.709 Transfer characteristics : BT.709 Matrix coefficients : BT.709

Audio #1 ID : 2 Format : AC-3 Format/Info : Audio Coding 3 Format settings, Endianness : Big Codec ID : A_AC3 Duration : 1 h 26 min Bit rate mode : Constant Bit rate : 384 kb/s Channel(s) : 6 channels Channel positions : Front: L C R, Side: L R, LFE Sampling rate : 48.0 kHz Frame rate : 31.250 FPS (1536 spf) Bit depth : 16 bits Compression mode : Lossy Stream size : 237 MiB (2%) Title : iTunes Language : Russian Service kind : Complete Main Default : Yes Forced : No

Audio #2 ID : 3 Format : DTS Format/Info : Digital Theater Systems Mode : 16 Format settings, Endianness : Big Codec ID : A_DTS Duration : 1 h 26 min Bit rate mode : Constant Bit rate : 1 509 kb/s Channel(s) : 6 channels Channel positions : Front: L C R, Side: L R, LFE Sampling rate : 48.0 kHz Frame rate : 93.750 FPS (512 spf) Bit depth : 16 bits Compression mode : Lossy Stream size : 932 MiB (10%) Title : Original Language : English Default : No Forced : No

Text #1 ID : 4 Format : UTF-8 Codec ID : S_TEXT/UTF8 Codec ID/Info : UTF-8 Plain Text Duration : 1 h 19 min Bit rate : 46 b/s Count of elements : 702 Stream size : 27.2 KiB (0%) Title : Full Language : Russian Default : No Forced : No

Text #2 ID : 5 Format : UTF-8 Codec ID : S_TEXT/UTF8 Codec ID/Info : UTF-8 Plain Text Duration : 1 h 18 min Bit rate : 32 b/s Count of elements : 600 Stream size : 18.4 KiB (0%) Title : Full Language : English Default : No Forced : No

Text #3 ID : 6 Format : UTF-8 Codec ID : S_TEXT/UTF8 Codec ID/Info : UTF-8 Plain Text Duration : 1 h 22 min Bit rate : 48 b/s Count of elements : 925 Stream size : 29.3 KiB (0%) Title : SDH {Colored) Language : English Default : No Forced : No

Menu 00:00:00.000 : en:00:00:00.000 00:08:38.601 : en:00:08:38.601 00:17:04.607 : en:00:17:04.607 00:26:37.971 : en:00:26:37.971 00:36:47.706 : en:00:36:47.706 00:45:33.898 : en:00:45:33.898 00:53:16.819 : en:00:53:16.819 01:00:45.600 : en:01:00:45.600 01:06:12.635 : en:01:06:12.635 01:10:49.746 : en:01:10:49.746 01:16:26.499 : en:01:16:26.499 01:18:22.448 : en:01:18:22.448

Релиз от: Автор релиза: Подпишись на меня:

mrutor.org

Демон внутри (2016) скачать торрент в хорошем качестве бесплатно

Описание фильма "Демон внутри"

В сентябре 2016 года состоялась мировая премьера нового британского хоррора Демон Внутри, главные роли в которой исполнили небезызвестные актеры Эмиль Хирш и Брайан Кокс.

По сюжету полицейские одного отдаленного городка обнаружили мертвое тело молодой привлекательной девушки, закопанной неглубоко под землей. Труп был еще свежий, и все указывало на то, что жестокое убийство произошло именно в этом месте. Но одно обстоятельство очень удивило защитников правопорядка - на теле этой особы не было ни единого следа насилия. На этот вопрос могут ответить лишь специалисты-коронеры, мнение которых станет заключительным. Поблизости этим делом занимаются только отец и сын, владеющие собственным моргом и бюро похоронных услуг.

Молодого человека звали Тони, и он всю жизнь прожил в тихом и маленьком городе, в котором редко что-то происходило. Тем не менее, он не оставался без работы, ведь случаи преступлений все же давали о себе знать. У героя были стальные нервы, поэтому, выбирая профессию, он, недолго думая, решил пойти по стопам отца и стать патологоанатомом. Этот парень уже привык к тому, что мертвые тела - это всего лишь безжизненные останки людей, поэтому он без труда вскрывал их, чтобы установить причину смерти. Нередко Тони имел дело с местным шерифом, и этот человек на сей раз сообщил о серии необычных убийств. Служитель закона не понимал, как эти преступления связаны между собой, но с делом нужно было разобраться, как можно скорее, поэтому отец и сын приступили к осмотру мертвого тела той девушки, оказавшейся среди тех четырех жертв. Кроме неземной красоты умершей, Тони поразило то, что на ней действительно не было никаких отметин, указывающих на причину смерти, а также отсутствовали следы разложения. Эту девушку звали Джейн Доу, и она выглядела так, как и при жизни, если не считать слегка бледный цвет кожи и пелену на глазах. Уже который день ее внешний вид совершенно не менялся, словно она живая или, по крайней мере, в ней есть чей-то дух. Происходящее настолько заинтриговало главных героев фильма Демон внутри, что они решили начать собственное расследование. Но попытки узнать что-то у местных жителей, ни к чему не приводили, многие ничего не знали, а некоторые, если и знали, то боялись говорить. В результате оказалось, что Джейн Доу никто не знает и прежде не видел. Исследование трупа, в свою очередь, не дало результатов, но постепенно начали всплывать интересные факты о жизни погибшей. Помимо прочего, расследованию коронеров мешало то, что чем дальше они продвигались, тем более загадочные и пугающие вещи случались. А что, если горожане молчат по страшной причине, и в теле той девушки действительно находится демон? Чтобы узнать, так ли это на самом деле, советуем посмотреть интригующий хоррор Демон внутри.

Скачать Демон внутри через торрент

Сиды Качество Перевод Размер Видео Аудио
Скачать Загрузка... BDRemux Профессиональный многоголосый | iTunes 18,52 Гб MPEG-4 AVC, 1920x1080, 26.2 Mbit/s, 23.976 fps 48 kHz, DTS-HD MA, 5.1, 1984 Kbps | Оригинал |
Скачать Загрузка... BDRip1080 Профессиональный (многоголосый, закадровый) | 6,11 Гб MPEG-4 AVC, 8600 Кбит/с, 1920x800 [ENG] AC3 | 48 KHz | 5.1 (Front: L С R Side: L R) + LFE | ~448 kbps
Скачать Загрузка... BDRip1080 Профессиональный многоголосый [iTunes] 4,65 Гб AVC, 1920x800 (2,40:1), 6352 kbps, 23,976 fps AC3 / 5.1 / 48 kHz / 448 kbps / 16 bit |
Скачать Загрузка... BDRip720 Профессиональный многоголосый [iTunes] 3,12 Гб AVC, 1280x534 (1.852), 3987 kbps, 23,976 fps AC3 / 5.1 / 48 kHz / 448 kbps / 16 bit |
Скачать Загрузка... WEB-DL Профессиональный многоголосый [iTunes] 1,52 Гб AVC, 1056x440 (2.40:1), 1972 kbps, 23,976 fps, 0,177 bpp русский / AC3 / 5.1 / 48 kHz / 384 kbps / 16 bit
Скачать Загрузка... WEB-DL 409,07 Мб

У нас вы можете легко скачать Демон внутри через торрент бесплатно в хорошем качестве, оставляйте комментарии и делитесь впечатлениями!

kino.kak.to


Смотрите также