Дэдпул скачать торрент в хорошем качестве hd 720 торрент


Скачать торрент Дэдпул / Deadpool (2016) BDRip 720p от NNNB | 60 fps

Информация о фильме
    Русское название: ДэдпулОригинальное название: DeadpoolГод выхода: 2016Жанр: фантастика, боевик, комедия, приключенияРежиссер: Тим МиллерВыпущено: США, Канада Продолжительность: 01:48:06Перевод: ДублированныйВ ролях: Райан Рейнольдс, Морена Баккарин, Эд Скрейн, ТиДжей Миллер, Джина Карано, Брианна Хилдебранд, Стефан Капичич, Лесли Уггэмс, Джед Риис, Каран Сони, Майкл Беняер, Стайл Дэйн, Кайл Кэсси, Тэйлор Хиксон, Айзи, Наика Туссэн, Рендал Ридер, Айзек С. Синглтон мл., Джастин Шиппелт, Донна Ямамото
Сюжет фильма
    Уэйд Уилсон — наёмник. Будучи побочным продуктом программы вооружённых сил под названием «Оружие X», Уилсон приобрёл невероятную силу, проворство и способность к исцелению. Но страшной ценой: его клеточная структура постоянно меняется, а здравомыслие сомнительно. Всё, чего Уилсон хочет, — это держаться на плаву в социальной выгребной яме. Но течение в ней слишком быстрое.
Файл
    Качество: BDRip 720p \(исходник Blu-ray Disc\)Контейнер: MKV (расширение файла)Видео: 1280x536, 3413 Кбит/сек, 60.000 кадр/сек, AVC, x264, [email protected], 2.40:1, 0.083 Бит/[Пиксели*Кадры] Аудио 1: AC-3, 448 Кбит/сек, 6 канала(ов), 48,0 КГц - Дублированный / Русский Аудио 2: AC-3, 640 Кбит/сек, 6 канала(ов), 48,0 КГц - Оригинал / АнглийскийСубтитры: Русские | Полные, Английские | ПолныеФорсированные субтитры: РусскиеЧаптеры (Главы): Есть
Автор Рипа: Сообщество: ← мы в VK

MediaInfo

Format : Matroska Format version : Version 2 File size : 3.47 GiB Duration : 1h 48mn Overall bit rate : 4 592 Kbps Movie name : Deadpool.(2016).BDRip.720p.[envy].[60fps] Encoded date : UTC 2016-05-15 16:38:23 Writing application : mkvmerge v5.8.0 ('No Sleep / Pillow') built on Sep 2 2012 15:37:04 Writing library : libebml v1.2.3 + libmatroska v1.3.0

Video ID : 1 Format : AVC Format/Info : Advanced Video Codec Format profile : [email protected] Format settings, CABAC : Yes Format settings, ReFrames : 9 frames Muxing mode : Header stripping Codec ID : V_MPEG4/ISO/AVC Duration : 1h 48mn Bit rate : 3 413 Kbps Width : 1 280 pixels Height : 536 pixels Display aspect ratio : 2.40:1 Frame rate mode : Constant Frame rate : 60.000 fps Color space : YUV Chroma subsampling : 4:2:0 Bit depth : 8 bits Scan type : Progressive Bits/(Pixel*Frame) : 0.083 Stream size : 2.58 GiB (74%) Title : Deadpool.(2016).BDRip.720p.[envy].[60fps] Writing library : x264 core 148 r2692 64f4e24 Encoding settings : cabac=1 / ref=9 / deblock=1:0:0 / analyse=0x3:0x133 / me=umh / subme=10 / psy=1 / psy_rd=1.00:0.00 / mixed_ref=1 / me_range=24 / chroma_me=1 / trellis=2 / 8x8dct=1 / cqm=0 / deadzone=21,11 / fast_pskip=0 / chroma_qp_offset=-2 / threads=12 / lookahead_threads=1 / sliced_threads=0 / nr=0 / decimate=1 / interlaced=0 / bluray_compat=0 / constrained_intra=0 / bframes=5 / b_pyramid=2 / b_adapt=2 / b_bias=0 / direct=3 / weightb=1 / open_gop=0 / weightp=2 / keyint=600 / keyint_min=60 / scenecut=40 / intra_refresh=0 / rc=crf / mbtree=0 / crf=18.0 / qcomp=0.60 / qpmin=0 / qpmax=69 / qpstep=4 / ip_ratio=1.40 / pb_ratio=1.30 / aq=2:0.70 Default : Yes Forced : No

Audio #1 ID : 2 Format : AC-3 Format/Info : Audio Coding 3 Mode extension : CM (complete main) Format settings, Endianness : Big Muxing mode : Header stripping Codec ID : A_AC3 Duration : 1h 48mn Bit rate mode : Constant Bit rate : 448 Kbps Channel(s) : 6 channels Channel positions : Front: L C R, Side: L R, LFE Sampling rate : 48.0 KHz Frame rate : 31.250 fps (1536 spf) Compression mode : Lossy Stream size : 346 MiB (10%) Title : Dub Language : Russian Default : Yes Forced : No

Audio #2 ID : 3 Format : AC-3 Format/Info : Audio Coding 3 Mode extension : CM (complete main) Format settings, Endianness : Big Muxing mode : Header stripping Codec ID : A_AC3 Duration : 1h 48mn Bit rate mode : Constant Bit rate : 640 Kbps Channel(s) : 6 channels Channel positions : Front: L C R, Side: L R, LFE Sampling rate : 48.0 KHz Frame rate : 31.250 fps (1536 spf) Compression mode : Lossy Stream size : 495 MiB (14%) Title : Eng Language : English Default : No Forced : No

Text #1 ID : 4 Format : UTF-8 Codec ID : S_TEXT/UTF8 Codec ID/Info : UTF-8 Plain Text Title : Rus forced Language : Russian Default : Yes Forced : Yes

Text #2 ID : 5 Format : UTF-8 Codec ID : S_TEXT/UTF8 Codec ID/Info : UTF-8 Plain Text Title : Rus full Language : Russian Default : No Forced : No

Text #3 ID : 6 Format : UTF-8 Codec ID : S_TEXT/UTF8 Codec ID/Info : UTF-8 Plain Text Title : Eng full Language : English Default : No Forced : No

Menu 00:00:00.000 : en:Chapter 1 00:03:04.726 : en:Chapter 2 00:05:53.019 : en:Chapter 3 00:09:30.820 : en:Chapter 4 00:13:19.089 : en:Chapter 5 00:16:48.716 : en:Chapter 6 00:20:12.544 : en:Chapter 7 00:22:06.408 : en:Chapter 8 00:27:09.628 : en:Chapter 9 00:31:58.958 : en:Chapter 10 00:36:51.709 : en:Chapter 11 00:41:06.172 : en:Chapter 12 00:44:45.766 : en:Chapter 13 00:46:56.605 : en:Chapter 14 00:50:10.966 : en:Chapter 15 00:53:18.028 : en:Chapter 16 00:55:33.038 : en:Chapter 17 00:59:07.752 : en:Chapter 18 01:03:05.239 : en:Chapter 19 01:07:06.439 : en:Chapter 20 01:09:15.568 : en:Chapter 21 01:12:29.720 : en:Chapter 22 01:16:46.393 : en:Chapter 23 01:20:43.713 : en:Chapter 24 01:25:53.398 : en:Chapter 25 01:31:03.791 : en:Chapter 26 01:34:46.972 : en:Chapter 27 01:39:52.736 : en:Chapter 28

ВАЖНО! Читать в первую очередь перед скачиванием!!!

Прежде чем скачивать фильм полностью, скачайте "сэмпл", и проверьте будет ли воспроизводится видео на вашем устройстве!

Q: Присутствуют ли артефакты на изображении?A: Да, есть, и будут, какие настройки скрипта не вписывай они будут постоянно! Так как это дорисованные кадры из исходных + Видео ряд обработан фильтром "Sharp"

Q: У меня не запускается видео на компьютере?A: Обновите кодеки. (попробуйте другие видео проигрыватели)

Q: У меня идет рассинхрон звука и видео?A: Проблема в мощности компьютера. (возможно также нужно обновить кодеки)

Q: Что нужно для воспроизведения данного видео.A: Что рекомендуется для воспроизведения мной: Процессор: 4х ядерный Видео карта: минимум 512Мб. И желательно включить обработку изображения с помощью видео карты. (Деинтерлейсинг, подавление блочности и т.д.) ОЗУ: 2-4Гб

Проигрыватели. MPC-HC (Media Player Classic - Home Cinema) The KMPlayer (Korean Multimedia Player) (оптимальный вариант) Mirillis Splash PRO (Если что то проигрыватель сам может преобразовывать видео вплоть до частоты кадров монитора. Или тех же 60fps.)

^Прежде чем отписывать комментарии по качеству, прочитайте спойлер!

Внимание: Данные фильмы делаются только под заказ (кому нужно знает где) с обязательным указанием ||60FPS|| !

krutor.org

Скачать торрент Дэдпул / Deadpool (2016) BDRip 720p от HQCLUB

Дэдпул / Deadpool (2016) BDRip [720p] от HQCLUB

Информация о фильмеНазвание: ДэдпулОригинальное название: DeadpoolГод выхода: 2016Жанр: : Фантастика, Боевик, Комедия, ПриключенияВ ролях: Райан Рейнольдс, Морена Баккарин, Эд Скрейн, ТиДжей Миллер, Джина Карано, Брианна Хилдебранд, Стефан Капичич, Лесли Уггэмс, Джед Риис, Каран Сони, Майкл Беняер, Стайл Дэйн, Кайл Кэсси, Тэйлор Хиксон, Айзи, Наика Туссэн, Рендал Ридер, Айзек С. Синглтон мл., Джастин Шиппелт, Донна ЯмамотоРежиссёр: Тим Миллер / Tim Miller

О фильме: Уэйд Уилсон — наёмник. Будучи побочным продуктом программы вооружённых сил под названием «Оружие X», Уилсон приобрёл невероятную силу, проворство и способность к исцелению. Но страшной ценой: его клеточная структура постоянно меняется, а здравомыслие сомнительно. Всё, чего Уилсон хочет, — это держаться на плаву в социальной выгребной яме. Но течение в ней слишком быстрое.

«Стань свидетелем, как он кончит»

Релиз от - Автор рипа: Rensler

Выпущено: США, Канада Студия: 20th Century Fox Film Corporation, Marvel Entertainment, TSG EntertainmentПродолжительность: 01:48:06Перевод: • Профессиональный (полное дублирование) «BD CEE» • Профессиональный (многоголосый, закадровый) «Кубик в Кубе» - Роли озвучивали: Петр Гланц, Денис Колесников, Ольга Кравцова, Руслан Габидуллин • Авторский (одноголосый закадровый) Валерий ГаевскийОригинальная аудиодорожка: АнглийскаяСубтитры: Русские (форсированные, полные), Английские (полные, SDH, SDH цветные)Главы: Сохранены чаптеры с оригинального Blu-ray Disc

Файл:Формат: MKVКачество: BDRip [720p] (источник: BLUEBIRD / Blu-ray Disc)Видео: 1280x536 (2,40:1) at 23.976, MPEG-4 AVC ~ 6395 kbps avg, 0.389 bit/pixelАудио#1: 48 kHz/16-bit, AC3 Dolby Digital, 3/2 (L,C,R,l,r) + LFE ch, ~ 640 kbps avg | RUS, «BD CEE»Аудио#2: 48 kHz/16-bit, AC3 Dolby Digital, 3/2 (L,C,R,l,r) + LFE ch, ~ 640 kbps avg | RUS, MVO «Кубик в Кубе» [нецензурная лексика]Аудио#3: 48 kHz/16-bit, AC3 Dolby Digital, 3/2 (L,C,R,l,r) + LFE ch, ~ 640 kbps avg | RUS, VO «В.Гаевский» [нецензурная лексика]Аудио#4: 48 kHz/16-bit, AC3 Dolby Digital, 3/2 (L,C,R,l,r) + LFE ch, ~ 640 kbps avg | ENG Размер: 6,76 GBСкачать: Семпл

Цитатаlogx.264 писал:x264 [info]: frame I:1281 Avg QP:15.21 size:108348 x264 [info]: frame P:33481 Avg QP:17.00 size: 50568 x264 [info]: frame B:120751 Avg QP:17.85 size: 27739 x264 [info]: ref P L0: 46.8% 6.2% 16.8% 8.7% 6.2% 4.7% 3.7% 2.3% 1.8% 1.5% 0.7% 0.1% 0.0% x264 [info]: ref B L0: 69.3% 13.9% 6.5% 3.4% 2.4% 1.7% 1.3% 0.8% 0.4% 0.2%ЦитатаMediaInfo писал:General Unique ID : 255034019143892966830998875523295179610 (0xBFDDC3F34399F8928A2BA9C71ECF735A) Complete name : K:RG RenslerRip' Release HQCLUBDeadpol.BluRay.720p.Rus.Eng.-HQCLUB.mkv Format : Matroska Format version : Version 4 / Version 2 File size : 6.76 GiB Duration : 1h 48mn Overall bit rate : 8 955 Kbps Movie name : Дэдпул / Deadpool (2016) BDRip [720p] Encoded date : UTC 2016-07-12 12:52:44 Writing application : mkvmerge v8.3.0 ('Over the Horizon') 64bit Writing library : libebml v1.3.1 + libmatroska v1.4.2 Attachments : 1.png

Video ID : 1 Format : AVC Format/Info : Advanced Video Codec Format profile : [email protected] Format settings, CABAC : Yes Format settings, ReFrames : 11 frames Codec ID : V_MPEG4/ISO/AVC Duration : 1h 48mn Bit rate : 6 395 Kbps Width : 1 280 pixels Height : 536 pixels Display aspect ratio : 2.40:1 Frame rate mode : Constant Frame rate : 23.976 (24000/1001) fps Color space : YUV Chroma subsampling : 4:2:0 Bit depth : 8 bits Scan type : Progressive Bits/(Pixel*Frame) : 0.389 Stream size : 4.83 GiB (71%) Title : Release by Rensler Writing library : x264 core 142 r2431 ac76440 Encoding settings : cabac=1 / ref=11 / deblock=1:-3:-3 / analyse=0x3:0x113 / me=umh / subme=11 / psy=1 / psy_rd=1.03:0.00 / mixed_ref=1 / me_range=48 / chroma_me=1 / trellis=2 / 8x8dct=1 / cqm=0 / deadzone=21,11 / fast_pskip=0 / chroma_qp_offset=-2 / threads=3 / lookahead_threads=1 / sliced_threads=0 / nr=0 / decimate=0 / interlaced=0 / bluray_compat=0 / constrained_intra=0 / bframes=16 / b_pyramid=2 / b_adapt=2 / b_bias=0 / direct=3 / weightb=1 / open_gop=0 / weightp=2 / keyint=230 / keyint_min=23 / scenecut=40 / intra_refresh=0 / rc_lookahead=60 / rc=2pass / mbtree=0 / bitrate=6395 / ratetol=1.0 / qcomp=0.80 / qpmin=0 / qpmax=69 / qpstep=4 / cplxblur=20.0 / qblur=0.5 / vbv_maxrate=50000 / vbv_bufsize=62500 / nal_hrd=none / filler=0 / ip_ratio=1.25 / pb_ratio=1.15 / aq=2:0.90 Language : English Default : Yes Forced : No

Audio #1 ID : 2 Format : AC-3 Format/Info : Audio Coding 3 Mode extension : CM (complete main) Format settings, Endianness : Big Codec ID : A_AC3 Duration : 1h 48mn Bit rate mode : Constant Bit rate : 640 Kbps Channel(s) : 6 channels Channel positions : Front: L C R, Side: L R, LFE Sampling rate : 48.0 KHz Frame rate : 31.250 fps (1536 spf) Compression mode : Lossy Stream size : 495 MiB (7%) Title : BD CEE Language : Russian Default : Yes Forced : No

Audio #2 ID : 3 Format : AC-3 Format/Info : Audio Coding 3 Mode extension : CM (complete main) Format settings, Endianness : Big Codec ID : A_AC3 Duration : 1h 48mn Bit rate mode : Constant Bit rate : 640 Kbps Channel(s) : 6 channels Channel positions : Front: L C R, Side: L R, LFE Sampling rate : 48.0 KHz Frame rate : 31.250 fps (1536 spf) Compression mode : Lossy Stream size : 495 MiB (7%) Title : MVO Kubik v kube Language : Russian Default : No Forced : No

Audio #3 ID : 4 Format : AC-3 Format/Info : Audio Coding 3 Mode extension : CM (complete main) Format settings, Endianness : Big Codec ID : A_AC3 Duration : 1h 48mn Bit rate mode : Constant Bit rate : 640 Kbps Channel(s) : 6 channels Channel positions : Front: L C R, Side: L R, LFE Sampling rate : 48.0 KHz Frame rate : 31.250 fps (1536 spf) Compression mode : Lossy Stream size : 495 MiB (7%) Title : AVO Gaevsky Language : Russian Default : No Forced : No

Audio #4 ID : 5 Format : AC-3 Format/Info : Audio Coding 3 Mode extension : CM (complete main) Format settings, Endianness : Big Codec ID : A_AC3 Duration : 1h 48mn Bit rate mode : Constant Bit rate : 640 Kbps Channel(s) : 6 channels Channel positions : Front: L C R, Side: L R, LFE Sampling rate : 48.0 KHz Frame rate : 31.250 fps (1536 spf) Compression mode : Lossy Stream size : 495 MiB (7%) Title : Original Language : English Default : No Forced : No

Text #1 ID : 6 Format : UTF-8 Codec ID : S_TEXT/UTF8 Codec ID/Info : UTF-8 Plain Text Duration : 1h 33mn Bit rate : 0 bps Count of elements : 3 Stream size : 136 Bytes (0%) Title : Forced Language : Russian Default : Yes Forced : No

Text #2 ID : 7 Format : UTF-8 Codec ID : S_TEXT/UTF8 Codec ID/Info : UTF-8 Plain Text Duration : 1h 47mn Bit rate : 88 bps Count of elements : 1403 Stream size : 69.4 KiB (0%) Title : Full Language : Russian Default : No Forced : No

Text #3 ID : 8 Format : UTF-8 Codec ID : S_TEXT/UTF8 Codec ID/Info : UTF-8 Plain Text Duration : 1h 47mn Bit rate : 81 bps Count of elements : 1853 Stream size : 64.5 KiB (0%) Title : Full Language : English Default : No Forced : No

Text #4 ID : 9 Format : UTF-8 Codec ID : S_TEXT/UTF8 Codec ID/Info : UTF-8 Plain Text Duration : 1h 47mn Bit rate : 64 bps Count of elements : 1853 Stream size : 50.5 KiB (0%) Title : SDH Language : English Default : No Forced : No

Text #5 ID : 10 Format : UTF-8 Codec ID : S_TEXT/UTF8 Codec ID/Info : UTF-8 Plain Text Duration : 1h 47mn Bit rate : 81 bps Count of elements : 1853 Stream size : 64.5 KiB (0%) Title : SDH colored Language : English Default : No Forced : No

Menu 00:00:00.000 : en:00:00:00.000 00:03:04.726 : en:00:03:04.726 00:05:53.019 : en:00:05:53.019 00:09:30.820 : en:00:09:30.820 00:13:19.090 : en:00:13:19.090 00:16:48.716 : en:00:16:48.716 00:20:12.545 : en:00:20:12.545 00:22:06.408 : en:00:22:06.408 00:27:09.628 : en:00:27:09.628 00:31:58.959 : en:00:31:58.959 00:36:51.709 : en:00:36:51.709 00:41:06.172 : en:00:41:06.172 00:44:45.766 : en:00:44:45.766 00:46:56.605 : en:00:46:56.605 00:50:10.966 : en:00:50:10.966 00:53:18.028 : en:00:53:18.028 00:55:33.038 : en:00:55:33.038 00:59:07.753 : en:00:59:07.753 01:03:05.240 : en:01:03:05.240 01:07:06.439 : en:01:07:06.439 01:09:15.568 : en:01:09:15.568 01:12:29.720 : en:01:12:29.720 01:16:46.393 : en:01:16:46.393 01:20:43.714 : en:01:20:43.714 01:25:53.398 : en:01:25:53.398 01:31:03.792 : en:01:31:03.792 01:34:46.973 : en:01:34:46.973 01:39:52.737 : en:01:39:52.737

krutor.org

Скачать фильм Дэдпул через торрент в хорошем качестве бесплатно 720p 60 fps от еnvy / NNNB

Раздают: 75 [ 0 KB/s ] Качают: 5 [ 0 KB/s ]
Размер: 3.47 GB | Добавлен: 1 год 5 мес. назад | Торрент скачан:1181 раз
Реклама Дарим 3000 рублей за регистрацию, не упусти свой шанс получить шикарный бонус!!!

15-05-2016 18:18 Дэдпул Скачать торрент  

Информация о фильмеРусское название: ДэдпулОригинальное название: DeadpoolГод выхода: 2016Жанр: фантастика, боевик, комедия, приключенияРежиссер: Тим МиллерВыпущено: США, Канада Продолжительность: 01:48:06Перевод: ДублированныйВ ролях: Райан Рейнольдс, Морена Баккарин, Эд Скрейн, ТиДжей Миллер, Джина Карано, Брианна Хилдебранд, Стефан Капичич, Лесли Уггэмс, Джед Риис, Каран Сони, Майкл Беняер, Стайл Дэйн, Кайл Кэсси, Тэйлор Хиксон, Айзи, Наика Туссэн, Рендал Ридер, Айзек С. Синглтон мл., Джастин Шиппелт, Донна Ямамото

Сюжет фильмаУэйд Уилсон — наёмник. Будучи побочным продуктом программы вооружённых сил под названием «Оружие X», Уилсон приобрёл невероятную силу, проворство и способность к исцелению. Но страшной ценой: его клеточная структура постоянно меняется, а здравомыслие сомнительно. Всё, чего Уилсон хочет, — это держаться на плаву в социальной выгребной яме. Но течение в ней слишком быстрое.

ФайлКачество: BDRip 720p (исходник Blu-ray Disc)Контейнер: MKV (расширение файла)Видео: 1280x536, 3413 Кбит/сек, 60.000 кадр/сек, AVC, x264, [email protected], 2.40:1, 0.083 Бит/[Пиксели*Кадры] Аудио 1: AC-3, 448 Кбит/сек, 6 канала(ов), 48,0 КГц - Дублированный / Русский Аудио 2: AC-3, 640 Кбит/сек, 6 канала(ов), 48,0 КГц - Оригинал / АнглийскийСубтитры: Русские | Полные, Английские | ПолныеФорсированные субтитры: РусскиеЧаптеры (Главы): Есть

Автор Рипа: Сообщество: ← мы в VK

Format : MatroskaFormat version : Version 2File size : 3.47 GiBDuration : 1h 48mnOverall bit rate : 4 592 KbpsMovie name : Deadpool.(2016).BDRip.720p.[envy].[60fps]Encoded date : UTC 2016-05-15 16:38:23Writing application : mkvmerge v5.8.0 ('No Sleep / Pillow') built on Sep 2 2012 15:37:04Writing library : libebml v1.2.3 + libmatroska v1.3.0

VideoID : 1Format : AVCFormat/Info : Advanced Video CodecFormat profile : [email protected] settings, CABAC : YesFormat settings, ReFrames : 9 framesMuxing mode : Header strippingCodec ID : V_MPEG4/ISO/AVCDuration : 1h 48mnBit rate : 3 413 KbpsWidth : 1 280 pixelsHeight : 536 pixelsDisplay aspect ratio : 2.40:1Frame rate mode : ConstantFrame rate : 60.000 fpsColor space : YUVChroma subsampling : 4:2:0Bit depth : 8 bitsScan type : ProgressiveBits/(Pixel*Frame) : 0.083Stream size : 2.58 GiB (74%)Title : Deadpool.(2016).BDRip.720p.[envy].[60fps]Writing library : x264 core 148 r2692 64f4e24Encoding settings : cabac=1 / ref=9 / deblock=1:0:0 / analyse=0x3:0x133 / me=umh / subme=10 / psy=1 / psy_rd=1.00:0.00 / mixed_ref=1 / me_range=24 / chroma_me=1 / trellis=2 / 8x8dct=1 / cqm=0 / deadzone=21,11 / fast_pskip=0 / chroma_qp_offset=-2 / threads=12 / lookahead_threads=1 / sliced_threads=0 / nr=0 / decimate=1 / interlaced=0 / bluray_compat=0 / constrained_intra=0 / bframes=5 / b_pyramid=2 / b_adapt=2 / b_bias=0 / direct=3 / weightb=1 / open_gop=0 / weightp=2 / keyint=600 / keyint_min=60 / scenecut=40 / intra_refresh=0 / rc=crf / mbtree=0 / crf=18.0 / qcomp=0.60 / qpmin=0 / qpmax=69 / qpstep=4 / ip_ratio=1.40 / pb_ratio=1.30 / aq=2:0.70Default : YesForced : No

Audio #1ID : 2Format : AC-3Format/Info : Audio Coding 3Mode extension : CM (complete main)Format settings, Endianness : BigMuxing mode : Header strippingCodec ID : A_AC3Duration : 1h 48mnBit rate mode : ConstantBit rate : 448 KbpsChannel(s) : 6 channelsChannel positions : Front: L C R, Side: L R, LFESampling rate : 48.0 KHzFrame rate : 31.250 fps (1536 spf)Compression mode : LossyStream size : 346 MiB (10%)Title : DubLanguage : RussianDefault : YesForced : No

Audio #2ID : 3Format : AC-3Format/Info : Audio Coding 3Mode extension : CM (complete main)Format settings, Endianness : BigMuxing mode : Header strippingCodec ID : A_AC3Duration : 1h 48mnBit rate mode : ConstantBit rate : 640 KbpsChannel(s) : 6 channelsChannel positions : Front: L C R, Side: L R, LFESampling rate : 48.0 KHzFrame rate : 31.250 fps (1536 spf)Compression mode : LossyStream size : 495 MiB (14%)Title : EngLanguage : EnglishDefault : NoForced : No

Text #1ID : 4Format : UTF-8Codec ID : S_TEXT/UTF8Codec ID/Info : UTF-8 Plain TextTitle : Rus forcedLanguage : RussianDefault : YesForced : Yes

Text #2ID : 5Format : UTF-8Codec ID : S_TEXT/UTF8Codec ID/Info : UTF-8 Plain TextTitle : Rus fullLanguage : RussianDefault : NoForced : No

Text #3ID : 6Format : UTF-8Codec ID : S_TEXT/UTF8Codec ID/Info : UTF-8 Plain TextTitle : Eng fullLanguage : EnglishDefault : NoForced : No

Menu00:00:00.000 : en:Chapter 100:03:04.726 : en:Chapter 200:05:53.019 : en:Chapter 300:09:30.820 : en:Chapter 400:13:19.089 : en:Chapter 500:16:48.716 : en:Chapter 600:20:12.544 : en:Chapter 700:22:06.408 : en:Chapter 800:27:09.628 : en:Chapter 900:31:58.958 : en:Chapter 1000:36:51.709 : en:Chapter 1100:41:06.172 : en:Chapter 1200:44:45.766 : en:Chapter 1300:46:56.605 : en:Chapter 1400:50:10.966 : en:Chapter 1500:53:18.028 : en:Chapter 1600:55:33.038 : en:Chapter 1700:59:07.752 : en:Chapter 1801:03:05.239 : en:Chapter 1901:07:06.439 : en:Chapter 2001:09:15.568 : en:Chapter 2101:12:29.720 : en:Chapter 2201:16:46.393 : en:Chapter 2301:20:43.713 : en:Chapter 2401:25:53.398 : en:Chapter 2501:31:03.791 : en:Chapter 2601:34:46.972 : en:Chapter 2701:39:52.736 : en:Chapter 28

Прежде чем скачивать фильм полностью, скачайте "сэмпл", и проверьте будет ли воспроизводится видео на вашем устройстве!

Q: Присутствуют ли артефакты на изображении?A: Да, есть, и будут, какие настройки скритпа не вписывай они будут постоянно! Так как это дорисованные кадры из исходных + Видео ряд обработан фильтром "Sharp"

Q: У меня не запускается видео на компьютере?A: Обновите кодеки. (попробуйте другие видео проигрыватели)

Q: У меня идет рассинхрон звука и видео?A: Проблема в мощности компьютера. (возможно также нужно обновить кодеки)

Q: Что нужно для воспроизведения данного видео.A: Что рекомендуется для воспроизведения мной:Процессор: 4х ядерныйВидео карта: минимум 512Мб. И желательно включить обработку изображения с помощью видео карты. (Деинтерлейсинг, подавление блочности и т.д.)ОЗУ: 2-4Гб

Проигрыватели.MPC-HC (Media Player Classic - Home Cinema)The KMPlayer (Korean Multimedia Player) (оптимальный вариант)Mirillis Splash PRO (Если что то проигрыватель сам может преобразовывать видео вплоть до частоты кадров монитора. Или тех же 60fps.)

^Прежде чем отписывать комментарии по качеству, прочитайте спойлер! Скачать Дэдпул через торрент http://img10.lostpic.net/2016/05/15/bef9357ab7d0a8db519d3dbda85c1861.png Скачать фильм Дэдпул через торрент бесплантно в хорошем качестве В ролях: Райан Рейнольдс, Морена Баккарин, Эд Скрейн, ТиДжей Миллер, Джина Карано, Брианна Хилдебранд, Стефан Капичич, Лесли Уггэмс, Джед ... 2016-05-15 18:18 8.6 10 20

Loading...

Loading...

% Раздел Тема Автор DL S | L
Фильмы [HD 720p, 1080p] (Хороший звук DUB, MVO) [ 5.9 GB ] Дэдпул / Deadpool [2016 BDRip 720p] DUB potroks Скачать
Фильмы (Blu-ray, BD-Remux, HDDVD) [ 45.92 GB ] Дэдпул / Deadpool [2016 Blu-Ray 1080p] [ BD CEE] killermax2013 Скачать
Фильмы 2016 [DVDrip, WEB-DLRip, HDrip] (DUB, MVO) [ 1.46 GB ] Дэдпул / Deadpool [2016 BDRip] DUB Twi7ter Скачать
Фильмы [HD 720p, 1080p] (Хороший звук DUB, MVO) [ 7.75 GB ] Дэдпул / Deadpool [2016 BDRip 1080p от еnvy / NNNB] DUB еnvy Скачать
Фильмы 2016 [DVDrip, WEB-DLRip, HDrip] (DUB, MVO) [ 2.91 GB ] Дэдпул / Deadpool [2016 BDRip-AVC от sokol_ok] DUB sokol_ok Скачать
Фильмы 2016 [DVDrip, WEB-DLRip, HDrip] (DUB, MVO) [ 2.18 GB ] Дэдпул / Deadpool [2016 BDRip-AVC от sokol_ok] DUB sokol_ok Скачать
Фильмы 2016 [DVDrip, WEB-DLRip, HDrip] (DUB, MVO) [ 2.18 GB ] Дэдпул / Deadpool [2016 BDRip-AVC] DUB potroks Скачать

Рекламный пират

15-05-2016 22:26 Дэдпул Скачать торрент  

В данном релизе на промежутке 01:23:10-01:23:12 это (просадки) отчетливо видно.Если смотреть по кадрово то видно что сами кадры продублированы аж по 6 раз на кадр.Жесть еще та .Автора прошу задуматься и сделать выводы относительно количества кадров-дублей.Я так понял искажений в этих сценах много поэтому и столько продублированных кадров.

По вашему алгоритму лучше делать 48 FPS.

P.S. Каждый кадр должен быть уникальным.А то создается впечатление как от сырой видео-игры нового поколения.

16-05-2016 06:42 Дэдпул Скачать торрент  

Tiberiumsun69, скорее всего что-то не до конуа установил и настроил, так как недавно перешел на win10.И всё по новой настраивал.В принципе не особо критично)))

16-05-2016 11:48 Дэдпул Скачать торрент  

Извиняюсь за вопрос, но 1080p 60fps можно ждать ? или 720p это окончательный релиз от вас ?

16-05-2016 12:25 Дэдпул Скачать торрент  

BuRn, 1080 никто и не заказывал.

16-05-2016 19:15 Дэдпул Скачать торрент  

еnvy писал(а):

Tiberiumsun69, скорее всего что-то не до конуа установил и настроил, так как недавно перешел на win10.И всё по новой настраивал.В принципе не особо критично)))

а параметр keyint=600 / keyint_min=60 тоже по ошибке

17-05-2016 06:37 Дэдпул Скачать торрент  

mimok, А вот на это не обратил внимание...в программе keyint=250 / keyint_min=25и только сейчас заметил что установлено FPS basedТак что как уже писал что всё исправлю к следующему релизу..Сейчас не до фильмов другие дела, просто фильмы по заказу.вот и сделал...

Дорогой пользователь! Огромная просьба, поблагодарите релизера, оцените раздачу и оставьте свои комментарий, если Вы скачали Дэдпул через торрент бесплатно! Внесите свою лепту в развитие PiratBit!

Комментировать посты могут только пользователи прошедшие не сложную регистрацию

Дэдпул через торрент Скачать бесплатно Дэдпул Дэдпул скачать торрент Дэдпул смотреть онлайн Cкачать фильм Дэдпул бесплатно Дэдпул скачать торрент в хорошем качестве Дэдпул смотреть онлайн бесплатно в хорошем качестве

Вы не можете начинать темыВы не можете отвечать на сообщенияВы не можете редактировать свои сообщенияВы не можете удалять свои сообщенияВы не можете голосовать в опросахВы не можете прикреплять файлы к сообщениямВы можете скачивать файлы

piratbit.ru

Скачать фильм Дэдпул через торрент в хорошем качестве бесплатно 720p] (Rus

Формат : MatroskaВерсия формата : Version 4 / Version 2Размер файла : 5,22 ГбайтПродолжительность : 1 ч. 48 м.Общий поток : 6907 Кбит/секДата кодирования : UTC 2016-04-26 20:38:11Программа кодирования : mkvmerge v8.3.0 ('Over the Horizon') 32bitБиблиотека кодирования : libebml v1.3.1 + libmatroska v1.4.2DURATION : 01:44:57.837000000NUMBER_OF_FRAMES : 1383NUMBER_OF_BYTES : 44083_STATISTICS_WRITING_APP : mkvmerge v8.3.0 ('Over the Horizon') 32bit_STATISTICS_WRITING_DATE_UTC : 2016-04-26 20:38:11_STATISTICS_TAGS : BPS DURATION NUMBER_OF_FRAMES NUMBER_OF_BYTES

ВидеоИдентификатор : 1Формат : AVCФормат/Информация : Advanced Video CodecПрофиль формата : [email protected]Параметр CABAC формата : ДаПараметр ReFrames формата : 5 кадровИдентификатор кодека : V_MPEG4/ISO/AVCПродолжительность : 1 ч. 48 м.Номинальный битрейт : 5727 Кбит/секШирина : 1280 пикселейВысота : 536 пикселейСоотношение сторон : 2,40:1Режим частоты кадров : ПостоянныйЧастота кадров : 23,976 кадра/секЦветовое пространство : YUVСубдискретизация насыщенности : 4:2:0Битовая глубина : 8 битТип развёртки : ПрогрессивнаяБит/(Пиксели*Кадры) : 0.348Библиотека кодирования : x264 core 148 r2692 64f4e24Настройки программы : cabac=1 / ref=5 / deblock=1:0:0 / analyse=0x3:0x133 / me=umh / subme=7 / psy=1 / psy_rd=1.00:0.00 / mixed_ref=1 / me_range=16 / chroma_me=1 / trellis=1 / 8x8dct=1 / cqm=0 / deadzone=21,11 / fast_pskip=0 / chroma_qp_offset=-2 / threads=17 / lookahead_threads=2 / sliced_threads=0 / nr=0 / decimate=1 / interlaced=0 / bluray_compat=0 / constrained_intra=0 / bframes=3 / b_pyramid=2 / b_adapt=1 / b_bias=0 / direct=1 / weightb=1 / open_gop=0 / weightp=2 / keyint=250 / keyint_min=23 / scenecut=40 / intra_refresh=0 / rc_lookahead=40 / rc=2pass / mbtree=1 / bitrate=5727 / ratetol=1.0 / qcomp=0.60 / qpmin=0 / qpmax=69 / qpstep=4 / cplxblur=20.0 / qblur=0.5 / ip_ratio=1.40 / aq=1:1.00Язык : EnglishDefault : ДаForced : НетDURATION : 01:48:06.199000000NUMBER_OF_FRAMES : 155513NUMBER_OF_BYTES : 4642685431_STATISTICS_WRITING_APP : mkvmerge v8.3.0 ('Over the Horizon') 32bit_STATISTICS_WRITING_DATE_UTC : 2016-04-26 20:38:11_STATISTICS_TAGS : BPS DURATION NUMBER_OF_FRAMES NUMBER_OF_BYTES

Аудио #1Идентификатор : 2Формат : AC-3Формат/Информация : Audio Coding 3Расширение режима : CM (complete main)Параметр Endianness формата : BigИдентификатор кодека : A_AC3Продолжительность : 1 ч. 48 м.Вид битрейта : ПостоянныйБитрейт : 384 Кбит/секКаналы : 6 каналовРасположение каналов : Front: L C R, Side: L R, LFEЧастота : 48,0 КГцМетод сжатия : С потерямиЗадержка видео : 2 с. 0 мс.Размер потока : 297 Мбайт (6%)Заголовок : iTunes (Rus)Язык : RussianDefault : ДаForced : Нет

Аудио #2Идентификатор : 3Формат : AACФормат/Информация : Advanced Audio CodecПрофиль формата : LCИдентификатор кодека : A_AACПродолжительность : 1 ч. 48 м.Каналы : 2 каналаРасположение каналов : Front: L RЧастота : 48,0 КГцМетод сжатия : С потерямиЗадержка видео : 2 с. 0 мс.Заголовок : iTunes (Ukr)Язык : UkrainianDefault : НетForced : Нет

Аудио #3Идентификатор : 4Формат : AC-3Формат/Информация : Audio Coding 3Расширение режима : CM (complete main)Параметр Endianness формата : BigИдентификатор кодека : A_AC3Продолжительность : 1 ч. 48 м.Вид битрейта : ПостоянныйБитрейт : 192 Кбит/секКаналы : 2 каналаРасположение каналов : Front: L RЧастота : 48,0 КГцМетод сжатия : С потерямиЗадержка видео : 2 с. 0 мс.Размер потока : 149 Мбайт (3%)Заголовок : ГаевскийЯзык : RussianDefault : НетForced : Нет

Аудио #4Идентификатор : 5Формат : AC-3Формат/Информация : Audio Coding 3Расширение режима : CM (complete main)Параметр Endianness формата : BigИдентификатор кодека : A_AC3Продолжительность : 1 ч. 48 м.Вид битрейта : ПостоянныйБитрейт : 448 Кбит/секКаналы : 6 каналовРасположение каналов : Front: L C R, Side: L R, LFEЧастота : 48,0 КГцМетод сжатия : С потерямиРазмер потока : 347 Мбайт (6%)Заголовок : ОригиналЯзык : EnglishDefault : НетForced : Нет

Текст #1Идентификатор : 6Формат : UTF-8Идентификатор кодека : S_TEXT/UTF8Идентификатор кодека/Информация : UTF-8 Plain TextЗаголовок : Форс РусскиеЯзык : RussianDefault : ДаForced : Нет

Текст #2Идентификатор : 7Формат : UTF-8Идентификатор кодека : S_TEXT/UTF8Идентификатор кодека/Информация : UTF-8 Plain TextЗаголовок : Полные русскиеЯзык : RussianDefault : НетForced : Нет

Текст #3Идентификатор : 8Формат : UTF-8Идентификатор кодека : S_TEXT/UTF8Идентификатор кодека/Информация : UTF-8 Plain TextЗаголовок : Форс УкраинскиеЯзык : UkrainianDefault : НетForced : Нет

Текст #4Идентификатор : 9Формат : UTF-8Идентификатор кодека : S_TEXT/UTF8Идентификатор кодека/Информация : UTF-8 Plain TextЗаголовок : Полные УкраинскиеЯзык : UkrainianDefault : НетForced : Нет

Текст #5Идентификатор : 10Формат : UTF-8Идентификатор кодека : S_TEXT/UTF8Идентификатор кодека/Информация : UTF-8 Plain TextЗаголовок : ОригинальныеЯзык : EnglishDefault : НетForced : Нет

Меню00:00:00.000 : en:00:00:00.00000:03:04.726 : en:00:03:04.72600:05:53.019 : en:00:05:53.01900:09:30.820 : en:00:09:30.82000:13:19.090 : en:00:13:19.09000:16:48.716 : en:00:16:48.71600:20:12.545 : en:00:20:12.54500:22:06.408 : en:00:22:06.40800:27:09.628 : en:00:27:09.62800:31:58.959 : en:00:31:58.95900:36:51.709 : en:00:36:51.70900:41:06.172 : en:00:41:06.17200:44:45.766 : en:00:44:45.76600:46:56.605 : en:00:46:56.60500:50:10.966 : en:00:50:10.96600:53:18.028 : en:00:53:18.02800:55:33.038 : en:00:55:33.03800:59:07.753 : en:00:59:07.75301:03:05.240 : en:01:03:05.24001:07:06.439 : en:01:07:06.43901:09:15.568 : en:01:09:15.56801:12:29.720 : en:01:12:29.72001:16:46.393 : en:01:16:46.39301:20:43.714 : en:01:20:43.71401:25:53.398 : en:01:25:53.39801:31:03.792 : en:01:31:03.79201:34:46.973 : en:01:34:46.97301:39:52.737 : en:01:39:52.737[/code]

piratbit.ru

Скачать фильм Дэдпул через торрент в хорошем качестве бесплатно 720p

GeneralUnique ID : 241221288426552989662662921046264303445 (0xB57987BF25E2AAD4ABF73825096ECF55)Complete name : D:\Торент\Deadpool.2016.720p.WEB-DL.Rus.Ukr.Eng.mkvFormat : MatroskaFormat version : Version 2File size : 3.60 GiBDuration : 1h 48mnOverall bit rate : 4 744 KbpsMovie name : Deadpool (2016) - Release for HDCLUBEncoded date : UTC 2016-04-25 18:45:13Writing application : mkvmerge v3.4.0 ('Rapunzel') built on May 15 2010 09:38:20Writing library : libebml v0.8.0 + libmatroska v0.9.0

VideoID : 1Format : AVCFormat/Info : Advanced Video CodecFormat profile : [email protected] settings, CABAC : NoFormat settings, ReFrames : 2 framesCodec ID : V_MPEG4/ISO/AVCDuration : 1h 48mnWidth : 1 280 pixelsHeight : 534 pixelsDisplay aspect ratio : 2.40:1Frame rate : 23.976 fpsColor space : YUVChroma subsampling : 4:2:0Bit depth : 8 bitsScan type : ProgressiveTitle : Deadpool (2016) - Release for HDCLUBLanguage : EnglishDefault : YesForced : NoColor primaries : BT.709-5, BT.1361, IEC 61966-2-4, SMPTE RP177Transfer characteristics : BT.709-5, BT.1361Matrix coefficients : BT.709-5, BT.1361, IEC 61966-2-4 709, SMPTE RP177

Audio #1ID : 2Format : AC-3Format/Info : Audio Coding 3Mode extension : CM (complete main)Codec ID : A_AC3Duration : 1h 48mnBit rate mode : ConstantBit rate : 384 KbpsChannel(s) : 6 channelsChannel positions : Front: L C R, Side: L R, LFESampling rate : 48.0 KHzBit depth : 16 bitsCompression mode : LossyStream size : 299 MiB (8%)Title : AC3 5.1 @ 384 kbps - DUB, iTunesLanguage : RussianDefault : YesForced : No

Audio #2ID : 3Format : AACFormat/Info : Advanced Audio CodecFormat profile : LCCodec ID : A_AACDuration : 1h 48mnChannel(s) : 2 channelsChannel positions : Front: L RSampling rate : 48.0 KHzCompression mode : LossyTitle : AAC 2.0 @ 160 kbps - DUB, iTunesLanguage : UkrainianDefault : NoForced : No

Audio #3ID : 4Format : AACFormat/Info : Advanced Audio CodecFormat profile : LCCodec ID : A_AACDuration : 1h 48mnChannel(s) : 2 channelsChannel positions : Front: L RSampling rate : 48.0 KHzCompression mode : LossyTitle : AAC 2.0 @ 160 kbpsLanguage : EnglishDefault : NoForced : No

Text #1ID : 5Format : UTF-8Codec ID : S_TEXT/UTF8Codec ID/Info : UTF-8 Plain TextTitle : Forced, iTunesLanguage : RussianDefault : YesForced : No

Text #2ID : 6Format : UTF-8Codec ID : S_TEXT/UTF8Codec ID/Info : UTF-8 Plain TextTitle : iTunesLanguage : RussianDefault : NoForced : No

Text #3ID : 7Format : UTF-8Codec ID : S_TEXT/UTF8Codec ID/Info : UTF-8 Plain TextTitle : Forced, iTunesLanguage : UkrainianDefault : NoForced : No

Text #4ID : 8Format : UTF-8Codec ID : S_TEXT/UTF8Codec ID/Info : UTF-8 Plain TextTitle : iTunesLanguage : UkrainianDefault : NoForced : No

Text #5ID : 9Format : UTF-8Codec ID : S_TEXT/UTF8Codec ID/Info : UTF-8 Plain TextTitle : iTunesLanguage : EnglishDefault : NoForced : No

Menu00:00:00.000 : en:100:03:02.724 : en:200:05:51.017 : en:300:09:28.818 : en:400:13:17.087 : en:500:16:46.713 : en:600:20:10.541 : en:700:22:04.404 : en:800:27:07.623 : en:900:31:56.953 : en:1000:36:49.704 : en:1100:41:04.166 : en:1200:44:43.760 : en:1300:46:54.599 : en:1400:50:08.960 : en:1500:53:16.022 : en:1600:55:31.032 : en:1700:59:05.746 : en:1801:03:03.233 : en:1901:07:04.432 : en:2001:09:13.561 : en:2101:12:27.713 : en:2201:16:44.386 : en:2301:20:41.706 : en:2401:25:51.390 : en:2501:31:01.783 : en:2601:34:44.964 : en:2701:39:50.728 : en:28

piratbit.ru

Скачать фильм Дэдпул через торрент в хорошем качестве бесплатно WEB-DLRip от Twi7ter

Раздают: 1 [ 0 KB/s ]
Размер: 1.46 GB | Добавлен: 1 год 5 мес. назад | Торрент скачан:215 раз
Реклама Дарим 3000 рублей за регистрацию, не упусти свой шанс получить шикарный бонус!!!

26-04-2016 16:23 Дэдпул Скачать торрент  

Дэдпул / Deadpool

«Стань свидетелем, как он кончит»

Год выпуска: 2016Страна: США, КанадаЖанр: фантастика, боевик, комедия, приключенияПродолжительность: 01:48:41Перевод: Профессиональный (полное дублирование) [iTunes]Субтитры: Русские (на надписи) - вшитыеРежиссер: Тим Миллер / Tim MillerВ ролях: Райан Рейнольдс (Wade / Deadpool), Морена Баккарин (Vanessa), Эд Скрейн (Ajax), ТиДжей Миллер (Weasel), Джина Карано (Angel Dust), Брианна Хилдебранд (Negasonic Teenage Warhead), Стефан Капичич (Colossus, озвучка), Лесли Уггэмс (Blind Al), Джед Риис (Recruiter), Каран Сони (Dopinder), Майкл Беняер (Warlord), Стайл Дэйн (Jeremy (Pizza Guy))Описание: Уэйд Уилсон - наёмник. Будучи побочным продуктом программы вооружённых сил под названием «Оружие X», Уилсон приобрёл невероятную силу, проворство и способность к исцелению. Но страшной ценой: его клеточная структура постоянно меняется, а здравомыслие сомнительно. Всё, чего Уилсон хочет, - это держаться на плаву в социальной выгребной яме. Но течение в ней слишком быстрое.Рейтинг:

MPAA: R - Лицам до 17 лет обязательно присутствие взрослого

Качество: WEB-DLRip | исх. DEADPOOL_WEB_DL_1080p-BLUEBIRD |Формат: AVIВидео кодек: XviDАудио кодек: AC3Видео: 720x304 (2.37:1), 23.976 fps, XviD build 73 ~1530 kbps avg, 0.29 bit/pixelАудио: 48 kHz, AC3 Dolby Digital, 3/2 (L,C,R,l,r) + LFE ch, ~384 kbps

Релиз:

Скачать Дэдпул через торрент http://s020.radikal.ru/i703/1604/75/110f485d26ee.png Скачать фильм Дэдпул через торрент бесплантно в хорошем качестве Описание: Уэйд Уилсон - наёмник. Будучи побочным продуктом программы вооружённых сил под названием «Оружие X», Уилсон приобрёл невероятную ... 2016-04-26 16:23 8.6 10 13

Loading...

Loading...

% Раздел Тема Автор DL S | L
Фильмы (WEB-DL 720p, 1080p) [ 3.9 GB ] Дэдпул / Deadpool [2016 WEB-DL 1080p ] Ворон Скачать
Фильмы 2016 [DVDrip, WEB-DLRip, HDrip] (DUB, MVO) [ 2.13 GB ] Дэдпул / Deadpool [2016 BDRip-AVC] Dub potroks Скачать
Фильмы [HD 720p, 1080p] (Хороший звук DUB, MVO) [ 10.68 GB ] Дэдпул / Deadpool [2016 BDRip 1080p ] -Lexx- Скачать
Фильмы [HD 720p, 1080p] (Хороший звук DUB, MVO) [ 12.08 GB ] Дэдпул / Deadpool [2016 BDRip 1080p] Dub AVO VO $-DRON-$ Скачать
R.G.Resident - Фильмы, Видео [ 1.43 GB ] Дэдпул / Deadpool [2016 BDRip-AVC ] White Smoke Скачать
Фильмы (WEB-DL 720p, 1080p) [ 3.6 GB ] Дэдпул / Deadpool [2016 WEB-DL 720p ] Ворон Скачать
Фильмы 2016 [DVDrip, WEB-DLRip, HDrip] (DUB, MVO) [ 746 MB ] Дэдпул / Deadpool [2016 BDRip-AVC от sokol_ok] Dub sokol_ok Скачать

Рекламный пират

Дорогой пользователь! Огромная просьба, поблагодарите релизера, оцените раздачу и оставьте свои комментарий, если Вы скачали Дэдпул через торрент бесплатно! Внесите свою лепту в развитие PiratBit!

Комментировать посты могут только пользователи прошедшие не сложную регистрацию

Дэдпул через торрент Скачать бесплатно Дэдпул Дэдпул скачать торрент Дэдпул смотреть онлайн Cкачать фильм Дэдпул бесплатно Дэдпул скачать торрент в хорошем качестве Дэдпул смотреть онлайн бесплатно в хорошем качестве

Вы можете начинать темыВы можете отвечать на сообщенияВы не можете редактировать свои сообщенияВы не можете удалять свои сообщенияВы не можете голосовать в опросахВы не можете прикреплять файлы к сообщениямВы можете скачивать файлы

piratbit.ru


Смотрите также