Что гложет гилберта грейпа скачать торрент в хорошем качестве hd 1080


Что гложет Гилберта Грейпа 1993

www.kinovit.net

Название: Что гложет Гилберта Грейпа? / What's Eating Gilbert Grape (1993) BDRip 720p | P, P2, A
Качество видео: BDRip 720p
Перевод: Профессиональный (многоголосый, закадровый) Videogram/R5 + Профессиональный (двухголосый, закадровый) А.Градов и подруга + Авторский (одноголосый, закадровый) С.Визгунов
Формат видео: Matroska
Видео: 1280x720 at 23.976 fps, [email protected], ~5843 kbps avg
Аудио: Russian: 48 kHz, AC3, 3/2 (L,C,R,l,r) + LFE ch, ~384 kbps avg |Многоголосый закадровый, Videogram/R5|Russian: 48 kHz, AC3, 2/0 (L,R) ch, ~192 kbps avg |Двухголосый закадровый, А.Градов и подруга|Russian: 48 kHz, AC3, 3/2 (L,C,R,l,r) + LFE ch, ~448 kbps avg |Авторский, С.Визгунов|English: 48 kHz, AC3, 3/2 (L,C,R,l,r) + LFE ch, ~448 kbps avg
Скачать

Загрузка начнется в течение 5 сек.

6.15 GB

Название: Что гложет Гилберта Грейпа? / What's Eating Gilbert Grape (1993) BDRip-AVC от 0ptimus | P, P2
Качество видео: BDRip-AVC
Перевод: Профессиональный многоголосый, профессиональный двухголосый
Видео: h.264 3223 Кбит/с, 1024x576, 23.976 кадр/с
Аудио: • №1: Русский (AC3, 6 ch, 384 Кбит/с) Профессиональный многоголосый [Videogram, R5]
Скачать

Загрузка начнется в течение 5 сек.

3.61 GB

Название: Что гложет Гилберта Грейпа? / What's Eating Gilbert Grape? (1993) BDRip 1080p | P
Качество видео: BDRip 1080p.
Перевод: Дорожка 1: DVO
Видео: h364 1920x1080 точек, 23,976 кадр/сек., 0.177 Бит/(Пиксели*Кадры), 8775 Кбит/сек.
Аудио: AC3,384,192,448 кбит/сек.,48.0 кГц., стерео, 5:1.
Скачать

Загрузка начнется в течение 5 сек.

8.07 GB

Название: Что гложет Гилберта Грейпа? / What's Eating Gilbert Grape (1993) BDRip от MediaClub | КПК
Качество видео: BDRip
Перевод: Профессиональный двухголосый
Видео: MPEG-4 AVC 500 Кбит/с, 320x160, 23.976 кадр/с
Аудио: Русский (AAC, 2 ch, 128 Кбит/с)
Скачать

Загрузка начнется в течение 5 сек.

534.31 MB

Название: Что гложет Гилберта Грейпа? / What's Eating Gilbert Grape (1993) HDRip от Scarabey | P
Качество видео: HDRip
Перевод: Профессиональный (многоголосый, закадровый)
Формат видео: AVI
Видео: 624x352 (1.77:1), 23.976 fps, XviD build 73 ~753 kbps avg, 0.14 bit/pixel
Аудио: 48 kHz, MPEG Layer 3, 2 ch, ~128.00 kbps avg
Скачать

Загрузка начнется в течение 5 сек.

749.94 MB

Название: Что гложет Гилберта Грейпа? / What's Eating Gilbert Grape (1993) HDRip от Scarabey | P
Качество видео: HDRip
Перевод: Профессиональный (многоголосый, закадровый)
Формат видео: AVI
Видео: 688x384 (1.79:1), 23.976 fps, XviD build 73 ~1371 kbps avg, 0.22 bit/pixel
Аудио: 48 kHz, AC3 Dolby Digital, 3/2 (L,C,R,l,r) + LFE ch, ~384 kbps
Скачать

Загрузка начнется в течение 5 сек.

1.45 GB

Название: Что гложет Гилберта Грейпа / What's Eating Gilbert Grape (1993) BDRemux
Качество видео: BD Remux
Формат видео: MKV
Видео: 1920x1080, MPEG-4 AVC, 19942 kbps, 1080p, 23.976fps, 16:9, High Profile 4.1
Аудио: Russian AC3 Dolby Digital, 3/2 (L,C,R,l,r) + LFE ch, 48 kHz, ~384 kbps |Двухголосый закадровый|Russian AC3 Dolby Digital, 2.0, 48 kHz, ~192 kbps |Двухголосый закадровый|English DTS-HD Master Audio 5.1 / 48kHz / 16-bit / 1786kbps (DTS Core: 5.1 / 48kHz / 16-bit / 1536kbps)
Скачать

Загрузка начнется в течение 5 сек.

18.38 GB

Что гложет Гилберта Грейпа (1993)

the-cinema.net

В подборке: Отношения в семье,Любовь

Информация о фильме:Жанр: Мелодрама, драмаСтрана: СШАГод выпуска: 1993Режиссер: Лассе ХалльстрёмПродолжительность: 01:57:59В ролях: Джонни Депп, Леонардо ДиКаприо, Джульетт Льюис, Мэри Стинберген, Дарлен Кэйтс, Лора Хэррингтон, Мэри Кейт Шеллхардт, Кевин Тай, Джон Си Райли, Криспин ГловерОписание фильма: Гилберт Грейп живет в штате Айова, в крошечном городке с населением в тысячу жителей. У него две сестры, слабоумный брат и толстуха-мать. Гилберт тянет лямку в магазине и крутит роман с замужней дамой. Но все меняется, когда в городок приезжает красивая молодая женщина по имени Беки.

Оценки зрителей: Также советуем к онлайн просмотру:

10.0

Занимательность:

10.0

Игра актеров: Зарегистрируйтесь, если не хотите видеть этот баннер!

Смотреть Что гложет Гилберта Грейпа онлайн:

  Скачать торрент "Что гложет Гилберта Грейпа" бесплатно:

Торрент №1

Торрент №2 | BDRip 1080p

Качество: HDTVRip (Что такое BDRip или DVDRip?)Видео: Matroska(V_MPEG4/ISO/AVC),1280x706(16:9) at 23.976 fps, x264, ~4690 kbpsАудио: Аудио1:Russian: 48 kHz, AC3, 2 (L,R), ~192.00 kbps (многоголосый, закадровый)Размер: 4.7 ГБПеревод: Проф. (многоголосый, закадровый) Качество: BDRip 1080p (Что такое BDRip или DVDRip?)Видео: 1920x1080 точек, 23,976 кадр/сек., 0.177 Бит/(Пиксели*Кадры), 8775 Кбит/секАудио: AC3,384,192,448 кбит/сек.,48.0 кГц., стерео, 5:1Размер: 8.07 GBПеревод: Профессиональный многоголосый закадровый

Ещё никто не оставил рецензию.

ИнформацияПосетители, находящиеся в группе Гости, не могут оставлять комментарии к данной публикации.

Что гложет Гилберта Грейпа? через торрент

ОбщееУникальный идентификатор : 180532103576419249422782316385432087111 (0x87D137EA61451CECB1153D774B1DAA47)Полное имя : D:\Video\Что гложет Гилберта Грейпа.2003.BDRip.1080p by msltel.mkvФормат : MatroskaВерсия формата : Version 4 / Version 2Размер файла : 15,6 ГбайтПродолжительность : 1 ч. 58 м.Общий поток : 18,9 Мбит/секНазвание фильма : Rip by msltelДата кодирования : UTC 2017-08-11 01:39:50Программа кодирования : mkvmerge v8.2.0 ('World of Adventure') 64bitБиблиотека кодирования : libebml v1.3.1 + libmatroska v1.4.2

ВидеоИдентификатор : 1Формат : AVCФормат/Информация : Advanced Video CodecПрофиль формата : [email protected]Параметр CABAC формата : ДаПараметр RefFrames формата : 4 кадраИдентификатор кодека : V_MPEG4/ISO/AVCПродолжительность : 1 ч. 57 м.Битрейт : 15,3 Мбит/секШирина : 1920 пикселейВысота : 1080 пикселейСоотношение сторон : 16:9Режим частоты кадров : ПостоянныйЧастота кадров : 23,976 (24000/1001) кадра/секЦветовое пространство : YUVСубдискретизация насыщенности : 4:2:0Битовая глубина : 8 битТип развёртки : ПрогрессивнаяБит/(Пиксели*Кадры) : 0.308Размер потока : 12,6 Гбайт (81%)Библиотека кодирования : x264 core 146 r2538 121396cНастройки программы : cabac=1 / ref=4 / deblock=1:-3:-2 / analyse=0x3:0x113 / me=umh / subme=11 / psy=1 / psy_rd=1.00:0.15 / mixed_ref=1 / me_range=32 / chroma_me=1 / trellis=2 / 8x8dct=1 / cqm=0 / deadzone=21,11 / fast_pskip=0 / chroma_qp_offset=-3 / threads=6 / lookahead_threads=1 / sliced_threads=0 / nr=0 / decimate=1 / interlaced=0 / bluray_compat=0 / constrained_intra=0 / bframes=9 / b_pyramid=2 / b_adapt=2 / b_bias=0 / direct=1 / weightb=1 / open_gop=0 / weightp=2 / keyint=230 / keyint_min=23 / scenecut=40 / intra_refresh=0 / rc_lookahead=40 / rc=crf / mbtree=0 / crf=20.0 / qcomp=0.60 / qpmin=0 / qpmax=69 / qpstep=4 / vbv_maxrate=62500 / vbv_bufsize=78125 / crf_max=0.0 / nal_hrd=none / filler=0 / ip_ratio=1.40 / pb_ratio=1.30 / aq=1:1.00Язык : EnglishDefault : ДаForced : Нет

Аудио #1Идентификатор : 2Формат : AC-3Формат/Информация : Audio Coding 3Параметр Endianness формата : BigИдентификатор кодека : A_AC3Продолжительность : 1 ч. 57 м.Вид битрейта : ПостоянныйБитрейт : 384 Кбит/секКаналы : 6 каналовРасположение каналов : Front: L C R, Side: L R, LFEЧастота : 48,0 КГцЧастота кадров : 31,250 кадров/сек (1536 SPF)Битовая глубина : 16 битМетод сжатия : С потерямиРазмер потока : 324 Мбайт (2%)Заголовок : MVO (Videogram, R5)Язык : RussianServiceKind/String : Complete MainDefault : ДаForced : Нет

Аудио #2Идентификатор : 3Формат : AC-3Формат/Информация : Audio Coding 3Параметр Endianness формата : BigИдентификатор кодека : A_AC3Продолжительность : 1 ч. 58 м.Вид битрейта : ПостоянныйБитрейт : 192 Кбит/секКаналы : 2 каналаРасположение каналов : Front: L RЧастота : 48,0 КГцЧастота кадров : 31,250 кадров/сек (1536 SPF)Битовая глубина : 16 битМетод сжатия : С потерямиРазмер потока : 162 Мбайт (1%)Заголовок : DVOЯзык : RussianServiceKind/String : Complete MainDefault : НетForced : Нет

Аудио #3Идентификатор : 4Формат : DTSФормат/Информация : Digital Theater SystemsРежим : 16Параметр Endianness формата : BigИдентификатор кодека : A_DTSПродолжительность : 1 ч. 57 м.Вид битрейта : ПостоянныйБитрейт : 1509 Кбит/секКаналы : 6 каналовРасположение каналов : Front: L C R, Side: L R, LFEЧастота : 48,0 КГцЧастота кадров : 93,750 кадра/сек (512 SPF)Битовая глубина : 16 битМетод сжатия : С потерямиРазмер потока : 1,24 Гбайт (8%)Заголовок : AVO (Сергей Визгунов)Язык : RussianDefault : НетForced : Нет

Аудио #4Идентификатор : 5Формат : DTSФормат/Информация : Digital Theater SystemsРежим : 16Параметр Endianness формата : BigИдентификатор кодека : A_DTSПродолжительность : 1 ч. 57 м.Вид битрейта : ПостоянныйБитрейт : 1509 Кбит/секКаналы : 6 каналовРасположение каналов : Front: L C R, Side: L R, LFEЧастота : 48,0 КГцЧастота кадров : 93,750 кадра/сек (512 SPF)Битовая глубина : 16 битМетод сжатия : С потерямиРазмер потока : 1,24 Гбайт (8%)Заголовок : originalЯзык : EnglishDefault : НетForced : Нет

Текст #1Идентификатор : 6Формат : UTF-8Идентификатор кодека : S_TEXT/UTF8Идентификатор кодека/Информация : UTF-8 Plain TextПродолжительность : 1 ч. 54 м.Битрейт : 78 бит/секElementCount : 1012Размер потока : 65,4 Кбайт (0%)Заголовок : русскиеЯзык : RussianDefault : НетForced : Нет

Текст #2Идентификатор : 7Формат : UTF-8Идентификатор кодека : S_TEXT/UTF8Идентификатор кодека/Информация : UTF-8 Plain TextПродолжительность : 1 ч. 54 м.Битрейт : 56 бит/секElementCount : 1343Размер потока : 47,0 Кбайт (0%)Заголовок : английскиеЯзык : EnglishDefault : НетForced : Нет

Меню00:00:00.000 : :00:00:00.00000:08:25.046 : :00:08:25.04600:15:56.622 : :00:15:56.62200:24:02.107 : :00:24:02.10700:30:40.380 : :00:30:40.38000:37:58.193 : :00:37:58.19300:44:11.899 : :00:44:11.89900:52:58.425 : :00:52:58.42500:58:43.353 : :00:58:43.35301:06:41.539 : :01:06:41.53901:16:16.989 : :01:16:16.98901:21:34.848 : :01:21:34.84801:31:46.376 : :01:31:46.37601:38:47.255 : :01:38:47.25501:44:51.160 : :01:44:51.16001:54:53.386 : :01:54:53.386

piratbit.ru

Что гложет Гилберта Грейпа? через торрент

ОбщееУникальный идентификатор : 217280943913126964976792846185951402426 (0xA376C9A1A43069B5BCDBAAFEB0E819BA)Полное имя : D:\Video\Что гложет Гилберта Грейпа.2003.BDRip.720p by msltel.mkvФормат : MatroskaВерсия формата : Version 4 / Version 2Размер файла : 6,15 ГбайтПродолжительность : 1 ч. 58 м.Общий поток : 7463 Кбит/секНазвание фильма : Rip by msltelДата кодирования : UTC 2017-08-10 01:52:45Программа кодирования : mkvmerge v8.2.0 ('World of Adventure') 64bitБиблиотека кодирования : libebml v1.3.1 + libmatroska v1.4.2

ВидеоИдентификатор : 1Формат : AVCФормат/Информация : Advanced Video CodecПрофиль формата : [email protected]Параметр CABAC формата : ДаПараметр RefFrames формата : 9 кадровИдентификатор кодека : V_MPEG4/ISO/AVCПродолжительность : 1 ч. 57 м.Битрейт : 5994 Кбит/секШирина : 1280 пикселейВысота : 720 пикселейСоотношение сторон : 16:9Режим частоты кадров : ПостоянныйЧастота кадров : 23,976 (24000/1001) кадра/секЦветовое пространство : YUVСубдискретизация насыщенности : 4:2:0Битовая глубина : 8 битТип развёртки : ПрогрессивнаяБит/(Пиксели*Кадры) : 0.271Размер потока : 4,94 Гбайт (80%)Библиотека кодирования : x264 core 146 r2538 121396cНастройки программы : cabac=1 / ref=9 / deblock=1:-3:-2 / analyse=0x3:0x113 / me=umh / subme=11 / psy=1 / psy_rd=1.00:0.15 / mixed_ref=1 / me_range=32 / chroma_me=1 / trellis=2 / 8x8dct=1 / cqm=0 / deadzone=21,11 / fast_pskip=0 / chroma_qp_offset=-3 / threads=6 / lookahead_threads=1 / sliced_threads=0 / nr=0 / decimate=1 / interlaced=0 / bluray_compat=0 / constrained_intra=0 / bframes=9 / b_pyramid=2 / b_adapt=2 / b_bias=0 / direct=1 / weightb=1 / open_gop=0 / weightp=2 / keyint=230 / keyint_min=23 / scenecut=40 / intra_refresh=0 / rc_lookahead=40 / rc=crf / mbtree=0 / crf=20.4 / qcomp=0.60 / qpmin=0 / qpmax=69 / qpstep=4 / vbv_maxrate=62500 / vbv_bufsize=78125 / crf_max=0.0 / nal_hrd=none / filler=0 / ip_ratio=1.40 / pb_ratio=1.30 / aq=1:1.00Язык : EnglishDefault : ДаForced : Нет

Аудио #1Идентификатор : 2Формат : AC-3Формат/Информация : Audio Coding 3Параметр Endianness формата : BigИдентификатор кодека : A_AC3Продолжительность : 1 ч. 57 м.Вид битрейта : ПостоянныйБитрейт : 384 Кбит/секКаналы : 6 каналовРасположение каналов : Front: L C R, Side: L R, LFEЧастота : 48,0 КГцЧастота кадров : 31,250 кадров/сек (1536 SPF)Битовая глубина : 16 битМетод сжатия : С потерямиРазмер потока : 324 Мбайт (5%)Заголовок : MVO (Videogram, R5)Язык : RussianServiceKind/String : Complete MainDefault : ДаForced : Нет

Аудио #2Идентификатор : 3Формат : AC-3Формат/Информация : Audio Coding 3Параметр Endianness формата : BigИдентификатор кодека : A_AC3Продолжительность : 1 ч. 58 м.Вид битрейта : ПостоянныйБитрейт : 192 Кбит/секКаналы : 2 каналаРасположение каналов : Front: L RЧастота : 48,0 КГцЧастота кадров : 31,250 кадров/сек (1536 SPF)Битовая глубина : 16 битМетод сжатия : С потерямиРазмер потока : 162 Мбайт (3%)Заголовок : DVOЯзык : RussianServiceKind/String : Complete MainDefault : НетForced : Нет

Аудио #3Идентификатор : 4Формат : AC-3Формат/Информация : Audio Coding 3Параметр Endianness формата : BigИдентификатор кодека : A_AC3Продолжительность : 1 ч. 57 м.Вид битрейта : ПостоянныйБитрейт : 448 Кбит/секКаналы : 6 каналовРасположение каналов : Front: L C R, Side: L R, LFEЧастота : 48,0 КГцЧастота кадров : 31,250 кадров/сек (1536 SPF)Битовая глубина : 16 битМетод сжатия : С потерямиРазмер потока : 378 Мбайт (6%)Заголовок : AVO (Сергей Визгунов)Язык : RussianServiceKind/String : Complete MainDefault : НетForced : Нет

Аудио #4Идентификатор : 5Формат : AC-3Формат/Информация : Audio Coding 3Параметр Endianness формата : BigИдентификатор кодека : A_AC3Продолжительность : 1 ч. 57 м.Вид битрейта : ПостоянныйБитрейт : 448 Кбит/секКаналы : 6 каналовРасположение каналов : Front: L C R, Side: L R, LFEЧастота : 48,0 КГцЧастота кадров : 31,250 кадров/сек (1536 SPF)Битовая глубина : 16 битМетод сжатия : С потерямиРазмер потока : 378 Мбайт (6%)Заголовок : originalЯзык : EnglishServiceKind/String : Complete MainDefault : НетForced : Нет

Текст #1Идентификатор : 6Формат : UTF-8Идентификатор кодека : S_TEXT/UTF8Идентификатор кодека/Информация : UTF-8 Plain TextПродолжительность : 1 ч. 54 м.Битрейт : 78 бит/секElementCount : 1012Размер потока : 65,4 Кбайт (0%)Заголовок : русскиеЯзык : RussianDefault : НетForced : Нет

Текст #2Идентификатор : 7Формат : UTF-8Идентификатор кодека : S_TEXT/UTF8Идентификатор кодека/Информация : UTF-8 Plain TextПродолжительность : 1 ч. 54 м.Битрейт : 56 бит/секElementCount : 1343Размер потока : 47,0 Кбайт (0%)Заголовок : английскиеЯзык : EnglishDefault : НетForced : Нет

Меню00:00:00.000 : :00:00:00.00000:08:25.046 : :00:08:25.04600:15:56.622 : :00:15:56.62200:24:02.107 : :00:24:02.10700:30:40.380 : :00:30:40.38000:37:58.193 : :00:37:58.19300:44:11.899 : :00:44:11.89900:52:58.425 : :00:52:58.42500:58:43.353 : :00:58:43.35301:06:41.539 : :01:06:41.53901:16:16.989 : :01:16:16.98901:21:34.848 : :01:21:34.84801:31:46.376 : :01:31:46.37601:38:47.255 : :01:38:47.25501:44:51.160 : :01:44:51.16001:54:53.386 : :01:54:53.386

piratbit.ru


Смотрите также