Бриллиантовый полицейский скачать торрент в хорошем качестве


Скачать Бриллиантовый полицейский через торрент

Категория: Фильмы 2346 0 Торрент добавлен: 18-04-2015 Рейтинг:

1999 / боевик, триллер, комедия, криминал / 94 мин.Страна: США, Германия Режиссер: Лес Мейфилд /Les Mayfield/ В ролях: Мартин Лоуренс /Martin Lawrence/, Люк Уилсон /Luke Wilson/, Дейв Чаппелл /Dave Chappelle/, Питер Грин /Peter Greene/, Никол Ари Паркер /Nicole Ari Parker/, Грем Беккел /Graham Beckel/

Майлс Логан зарабатывает на жизнь ограблениями, и у него неплохо получается. В очередной раз он проворачивает ограбление крупного бриллианта, тянущего на несколько миллионов. Однако в команде Майлса произошел разлад, один из его напарников после удачно украденного бриллианта решил ни с кем не делиться, и в результате началась перестрелка. Полиция тут как тут. Майлсу удалось, прежде чем его схватили копы, спрятать бриллиант в вентиляционной шахте строящегося здания. После того как он отсидел положенный срок и вернулся, чтобы забрать свою добычу, здание уже было достроено. Там построили полицейский участок. Логану теперь нужно исхитриться, чтобы пробраться внутрь и отыскать ту самую шахту.

Трейлер к фильму Бриллиантовый полицейский

Бриллиантовый полицейский скачать торрент

Формат: DVD VideoВидео кодек: MPEG2Аудио кодек: AC3Видео: PAL 16:9 ([email protected]) VBR, ~9800Kbps Аудио: Аудио#1 - Русский (Dolby AC3, 6 ch), 48000 Hz, 448 KbpsПроф. (многоголосный)

6,76 Gb

Кодек: Н.264Качество: BDRip 1080p Видео: 1920x1040 , 6200 Кбит/сек , 23,976 кадр/сек , 0.130 bit/pixelЗвук: 48 kHz, AC3 Dolby Digital, 3/2 (L,C,R,l,r) + LFE ch, ~448 kbps (Dub)Профессиональные(многоголосые)

5,37 Gb

Качество: НDRipФормат: AVIВидео: 688x368 (1.87:1), 23.976 fps, XviD build 50 ~1749 kbps avg, 0.29 bit/pixelАудио: 48 kHz, AC3 Dolby Digital, 3/2 (L,C,R,l,r) + LFE ch, ~384.00 kbps avgПрофессиональный (полное дублирование)

скачать

Вы находитесь на странице, где можете совершенно бесплатно скачать фильм Бриллиантовый полицейский в хорошем качестве через торрент, в любом формате, который больше всего вам на данный момент подходит. Скачивание осуществляется через торрент, что означает максимально высокую скорость загрузки. Желаем Вам приятного просмотра!. Не забудь поделиться своими впечатлениями после того как посмотришь фильм Бриллиантовый полицейский.

Информация Посетители, находящиеся в группе Гости, не могут оставлять комментарии к данной публикации.

psp-gu.ru

Скачать фильм Бриллиантовый полицейский через торрент в хорошем качестве бесплатно HDRip

piratbit.ru

Размер: 1.54 GB | Добавлен: 4 года 4 мес. назад | Торрент скачан:147 раз
Реклама Дарим 3000 рублей за регистрацию, не упусти свой шанс получить шикарный бонус!!!

02-06-2013 08:45 Бриллиантовый полицейский Скачать торрент  

Бриллиантовый полицейский / Blue Streak«He's a cop that's not.» Год выпуска: 1999Страна: США, ГерманияЖанр: Комедия, БоевикПродолжительность: 01:34:06Перевод 1: Авторский (одноголосный)[П. Санаев]Перевод 2: Профессиональный (полное дублирование)Субтитры: Русские, Английские, [внешние .SRT]Режиссер: Лес Мэйфилд / Les MayfieldВ ролях: Мартин Лоуренс, Люк Уилсон, Дейв Чаппелл, Питер Грин, Никол Ари Паркер, Грем Беккел

Описание: Непревзойденный эксперт по сейфам и хранящимся в них драгоценностям Майлс Логан выходит из тюрьмы и сразу направляется… в полицию. Незадолго перед арестом он спрятал бесценный бриллиант в строящемся здании, которое вскоре превратилось в полицейский участок. Чтобы проникнуть на вражескую территорию и вернуть украденное, Майлс становится служителем закона, и, как назло, ему приходится участвовать в настоящих расследованиях. За считанные дни неисправимый рецидивист становится руководителем целого подразделения! Ведь никто лучше вора не знает всех тонкостей криминального мира. Однако все это время преступное сообщество внимательно следило за карьерой бриллиантового полицейского. И приняло меры...

Качество: HDRipФормат: AVI Видео кодек: XviDАудио кодек: AC3Видео: 720x384 (1.88:1), 23.976 fps, XviD build 50 ~1824 kbps avg, 0.28 bit/pixelАудио 1: 48 kHz, AC3 Dolby Digital, 3/2 (L,C,R,l,r) + LFE ch, ~384.00 kbps avg [AVO]Аудио 2: 48 kHz, MPEG Layer 3, 2 ch, ~128.00 kbps avg [DUB]

E:INTERNETБриллиантовый полицейский.1999.HDRip_[AVO] + [DUB].aviGeneralComplete name : E:INTERNETБриллиантовый полицейский.1999.HDRip_[AVO] + [DUB].aviFormat : AVIFormat/Info : Audio Video InterleaveFile size : 1.54 GiBDuration : 1h 34mnOverall bit rate : 2 350 KbpsMovie name : Blue.Streak.1996.HDRip.SFC555Director : SFC555Writing application : VirtualDubMod 1.5.10.3 (build 2550/release)Writing library : VirtualDubMod build 2550/releaseVideo #0ID : 0Format : MPEG-4 VisualFormat profile : Advanced [email protected] settings, BVOP : 1Format settings, QPel : NoFormat settings, GMC : No warppointsFormat settings, Matrix : Default (MPEG)Codec ID : XVIDCodec ID/Hint : XviDDuration : 1h 34mnBit rate : 1 824 KbpsWidth : 720 pixelsHeight : 384 pixelsDisplay aspect ratio : 1.85:1Frame rate : 23.976 fpsColor space : YUVChroma subsampling : 4:2:0Bit depth : 8 bitsScan type : ProgressiveCompression mode : LossyBits/(Pixel*Frame) : 0.275Stream size : 1.20 GiB (78%)Writing library : XviD 1.2.1 (UTC 2008-12-04)Audio #1ID : 1Format : AC-3Format/Info : Audio Coding 3Mode extension : CM (complete main)Format settings, Endianness : BigCodec ID : 2000Duration : 1h 34mnBit rate mode : ConstantBit rate : 384 KbpsChannel(s) : 6 channelsChannel positions : Front: L C R, Side: L R, LFESampling rate : 48.0 KHzBit depth : 16 bitsCompression mode : LossyStream size : 258 MiB (16%)Alignment : Split accross interleavesInterleave, duration : 42 ms (1.00 video frame)Interleave, preload duration : 500 msAudio #2ID : 2Format : MPEG AudioFormat version : Version 1Format profile : Layer 3Codec ID : 55Codec ID/Hint : MP3 Duration : 1h 34mnBit rate mode : ConstantBit rate : 128 KbpsChannel(s) : 2 channelsSampling rate : 48.0 KHzCompression mode : LossyStream size : 86.2 MiB (5%)Alignment : Aligned on interleavesInterleave, duration : 42 ms (1.00 video frame)Interleave, preload duration : 504 msWriting library : LAME3.98rEncoding settings : -m s -V 4 -q 2 -lowpass 17 -b 128

Скачать Бриллиантовый полицейский через торрент http://i47.fastpic.ru/big/2013/0602/62/d28f90dbde45eb30f7c4a9d4befbb262.png Скачать фильм Бриллиантовый полицейский через торрент бесплантно в хорошем качестве Описание: Непревзойденный эксперт по сейфам и хранящимся в них драгоценностям Майлс Логан выходит из тюрьмы и сразу направляется… в ... 2013-06-02 08:45 9.3 10 14

Loading...

Loading...

Рекламный пират

02-06-2013 08:48 Бриллиантовый полицейский Скачать торрент  

02-06-2013 09:06 Бриллиантовый полицейский Скачать торрент  

хороший фильм

02-06-2013 10:56 Бриллиантовый полицейский Скачать торрент  

Фильм хороший жаль что с такой скоростью качать 2 недели

02-06-2013 11:14 Бриллиантовый полицейский Скачать торрент  

Basco96 писал(а):

Фильм хороший жаль что с такой скоростью качать 2 недели скорость не большая, раздаю как могу

02-06-2013 12:47 Бриллиантовый полицейский Скачать торрент  

Стоит посмотреть!!!!

02-06-2013 12:57 Бриллиантовый полицейский Скачать торрент  

02-06-2013 16:45 Бриллиантовый полицейский Скачать торрент  

Странно у меня только Авторский (одноголосный)[П. Санаев] работает второй молчит

02-06-2013 16:48 Бриллиантовый полицейский Скачать торрент  

Basco96 писал(а):

Странно у меня только Авторский (одноголосный)[П. Санаев] работает второй молчит на чем смотрите? я проверял на KMPLayer, VLC, Daum PotPlayer, и все отлично работает у меня

Pекламный агент PB

02-06-2013 17:31 Бриллиантовый полицейский Скачать торрент  

На KMPLayer. Audio AC3(48 - Работает, Audio 2(48 - не работает

02-06-2013 19:02 Бриллиантовый полицейский Скачать торрент  

Basco96 писал(а):

На KMPLayer. Audio AC3(48 - Работает, Audio 2(48 - не работает

без понятия, у меня KMPLayer воспроизводит без проблем

Дорогой пользователь! Огромная просьба, поблагодарите релизера, оцените раздачу и оставьте свои комментарий, если Вы скачали Бриллиантовый полицейский через торрент бесплатно! Внесите свою лепту в развитие PiratBit!

Комментировать посты могут только пользователи прошедшие не сложную регистрацию

Бриллиантовый полицейский через торрент Скачать бесплатно Бриллиантовый полицейский Бриллиантовый полицейский скачать торрент Бриллиантовый полицейский смотреть онлайн Cкачать фильм Бриллиантовый полицейский бесплатно Бриллиантовый полицейский скачать торрент в хорошем качестве Бриллиантовый полицейский смотреть онлайн бесплатно в хорошем качестве

Вы не можете начинать темыВы не можете отвечать на сообщенияВы не можете редактировать свои сообщенияВы не можете удалять свои сообщенияВы не можете голосовать в опросахВы не можете прикреплять файлы к сообщениямВы можете скачивать файлы

Скачать фильм Бриллиантовый полицейский (1999) через торрент

gig-torrent.net

31 марта 2016 09:53 Бриллиантовый полицейский / Blue Streak (1999) Blu-ray CEE 1080p | D | Лицензия .torrent   [Информация о файле (нажмите для просмотра)] Перевод: Профессиональный (полное дублирование) + Итальянский + Чешский + Венгерский + Польский + Оригинал (Английский)Субтитры: Английский, Арабский, Болгарский, Хорватский, Чешский, Датский, Эстонский, Финский, Греческий, Хинди, Венгерский, Исландский, Итальянский, Литовский, Норвежский, Польский, Румынский, Словенский, Шведский, Турецкий[PGS]Качество: Blu-ray 1080pФормат: BDMVВидео: 1920x1080 (16:9), 23.976 fps, MPEG-4 AVC Video, ~27818 kbps, High Profile 4.1Аудио#1: Dolby TrueHD Audio English 1604 kbps 5.1 / 48 kHz / 1604 kbps / 16-bit (AC3 Embedded: 5.1 / 48 kHz / 640 kbps / DN -4dB)Аудио#2: Dolby TrueHD Audio Italian 1588 kbps 5.1 / 48 kHz / 1588 kbps / 16-bit (AC3 Embedded: 5.1 / 48 kHz / 640 kbps / DN -4dB)Аудио#3: Dolby Digital Audio Czech 640 kbps 5.1 / 48 kHz / 640 kbps / DN -4dBАудио#4: Dolby Digital Audio Hungarian 640 kbps 5.1 / 48 kHz / 640 kbps / DN -4dBАудио#5: Dolby Digital Audio Polish 640 kbps 5.1 / 48 kHz / 640 kbps / DN -4dBАудио#6: Dolby Digital Audio Russian 640 kbps 5.1 / 48 kHz / 640 kbps / DN -4dB |Профессиональный (полное дублирование)| 31,77 Gb 5 6
31 марта 2016 09:53 Бриллиантовый полицейский / Blue Streak (1999) BDRip 1080p от NNNB .torrent   [Информация о файле (нажмите для просмотра)] Перевод: Дублированный, профессиональный многоголосыйКачество: BDRip 1080p (исходник Blu-ray)Видео: 1920x1038, 9880 Кбит/сек, 23.976 кадр/сек, AVC, x264, [email protected], 0.207 Бит/[Пиксели*Кадры], 2passАудио 1: AC3 5.1 48 kHz 640 kbps -Дублированный, (Blu-ray CEE)Аудио 2: AC3 5.1 48 kHz 448 kbps -профессиональный (многоголосый закадровый)Аудио 3: AC3 2.0 48 kHz 192 kbps -профессиональный (многоголосый закадровый) - ОРТАудио 4: AC3 5.1 48 kHz 640 kbps -EnglishСубтитры: Russian 7,75 Gb 13 5
31 марта 2016 09:53 Бриллиантовый полицейский / Blue Streak (1999) BDRip 1080p | D | Лицензия .torrent   [Информация о файле (нажмите для просмотра)] Перевод: ДублированныйКодек: x264Формат: MKVКачество: BDRip 1080pВидео: MPEG-4 AVCСубтитры: SRT 11,55 Gb 5 3
31 марта 2016 09:52 Бриллиантовый полицейский / Blue Streak (1999) Blu-Ray Remux | D, 2xP, 2xA .torrent   [Информация о файле (нажмите для просмотра)] Перевод: Дублированный, профессиональный многоголосый, авторскийФормат: m2tsКачество: Blu-Ray RemuxВидео: 1920x1080 at 23.976 fps, MPEG-4 AVC, ~27818 kbps avgАудио#1: Russian: 48 kHz, AC3, 3/2 (L,C,R,l,r) + LFE ch, ~640 kbps avg |Дубляж, BD CEE|Аудио#2: Russian: 48 kHz/16-bit, DTS-HD MA 5.1, ~2157 kbps avg |Многоголосый закадровый, R5|Аудио#3: Russian: 48 kHz, AC3, 2/0 (L,R) ch, ~192 kbps avg |Многоголосый закадровый, ОРТ|Аудио#4: Russian: 48 kHz/16-bit, DTS-HD MA 5.1, ~2155 kbps avg |Одноголосый закадровый, Санаев|Аудио#5: Russian: 48 kHz, AC3, 3/2 (L,C,R,l,r) + LFE ch, ~384 kbps avg |Одноголосый закадровый, Латышев|Аудио#6: Ukrainian: 48 kHz, AC3, 2/0 (L,R) ch, ~192 kbps avg |Многоголосый закадровый, ТРК "Украина"|Аудио#7: Ukrainian: 48 kHz, AC3, 2/0 (L,R) ch, ~192 kbps avg |Двухголосый закадровый, ТРК "1+1"|Аудио#8: English: 48 kHz/16-bit, Dolby TrueHD 5.1, ~1604 kbps avgСубтитры: Russian, English 25,86 Gb 5 6
31 марта 2016 09:52 Бриллиантовый полицейский / Blue Streak (1999) BDRip 720p от New-Team .torrent   [Информация о файле (нажмите для просмотра)] Перевод: Профессиональный (полное дублирование), Профессиональный (многоголосый, закадровый)Контейнер: MKVВидео: 1280x692 (1,85:1), 23,976 fps, h364 ~ 4278 kbps avg, 0.201 bit/pixelАудио: 48 kHz, Dolby Digital AC3 5.1, 448 kbps DUBАудио: 48 kHz, Dolby Digital AC3 5.1, 448 kbps MVO R5Аудио: 48 kHz, Dolby Digital AC3 5.1, 448 kbps AVO СанаевАудио: 48 kHz, Dolby Digital AC3 5.1, 384 kbps AVO ЛатышевАудио: 48 kHz, Dolby Digital AC3 2.0, 192 kbps MVO ОРТАудио: 48 kHz, Dolby Digital AC3 5.1, 448 kbps АнглийскийСубтитры: SoftSub (srt)Видео: Идентификатор : 1 Формат : AVC Формат/Информация : Advanced Video Codec Профиль формата : [email protected] Параметр CABAC формата : Да Параметр ReFrames формата : 6 кадров Идентификатор кодека : V_MPEG4/ISO/AVC Продолжительность : 1 ч. 34 м. Битрейт : 4278 Кбит/сек Ширина : 1280 пикселей Высота : 692 пикселя Соотношение сторон : 1,85:1 Режим частоты кадров : Постоянный Частота кадров : 23,976 кадра/сек Цветовое пространство : YUV Субдискретизация насыщенности : 4:2:0 Битовая глубина : 8 бит Тип развёртки : Прогрессивная Бит/(Пиксели*Кадры) : 0.201 Размер потока : 2,72 Гбайт (62%) Заголовок : Источник BDRemux Библиотека кодирования : x264 core 138 r2356 a1d3d17 Настройки программы : cabac=1 / ref=6 / deblock=1:-3:-3 / analyse=0x3:0x133 / me=umh / subme=10 / psy=1 / psy_rd=1.00:0.05 / mixed_ref=1 / me_range=32 / chroma_me=1 / trellis=2 / 8x8dct=1 / cqm=0 / deadzone=21,11 / fast_pskip=0 / chroma_qp_offset=-3 / threads=6 / lookahead_threads=1 / sliced_threads=0 / nr=0 / decimate=0 / interlaced=0 / bluray_compat=0 / constrained_intra=0 / bframes=8 / b_pyramid=2 / b_adapt=2 / b_bias=0 / direct=3 / weightb=1 / open_gop=0 / weightp=2 / keyint=240 / keyint_min=24 / scenecut=40 / intra_refresh=0 / rc=2pass / mbtree=0 / bitrate=4278 / ratetol=1.0 / qcomp=0.60 / qpmin=0 / qpmax=69 / qpstep=4 / cplxblur=20.0 / qblur=0.5 / ip_ratio=1.40 / pb_ratio=1.30 / aq=1:1.00 Язык : Russian Default : Да Forced : НетАудио #1: Идентификатор : 2 Формат : AC-3 Формат/Информация : Audio Coding 3 Расширение режима : CM (complete main) Параметр Endianness формата : Big Идентификатор кодека : A_AC3 Продолжительность : 1 ч. 34 м. Вид битрейта : Постоянный Битрейт : 448 Кбит/сек Каналы : 6 каналов Расположение каналов : Front: L C R, Side: L R, LFE Частота : 48,0 КГц Битовая глубина : 16 бит Метод сжатия : С потерями Размер потока : 302 Мбайт (7%) Заголовок : Источник BDRemux Dolby Digital 5,1 448 kbps DUB Язык : Russian Default : Да Forced : НетАудио #2: Идентификатор : 3 Формат : AC-3 Формат/Информация : Audio Coding 3 Расширение режима : CM (complete main) Параметр Endianness формата : Big Идентификатор кодека : A_AC3 Продолжительность : 1 ч. 34 м. Вид битрейта : Постоянный Битрейт : 448 Кбит/сек Каналы : 6 каналов Расположение каналов : Front: L C R, Side: L R, LFE Частота : 48,0 КГц Битовая глубина : 16 бит Метод сжатия : С потерями Размер потока : 302 Мбайт (7%) Заголовок : Источник BDRemux Dolby Digital 5,1 448 kbps MVO R5 Язык : Russian Default : Нет Forced : НетАудио #3: Идентификатор : 4 Формат : AC-3 Формат/Информация : Audio Coding 3 Расширение режима : CM (complete main) Параметр Endianness формата : Big Идентификатор кодека : A_AC3 Продолжительность : 1 ч. 34 м. Вид битрейта : Постоянный Битрейт : 448 Кбит/сек Каналы : 6 каналов Расположение каналов : Front: L C R, Side: L R, LFE Частота : 48,0 КГц Битовая глубина : 16 бит Метод сжатия : С потерями Размер потока : 302 Мбайт (7%) Заголовок : Источник BDRemux Dolby Digital 5,1 448 kbps MVO ОРТ Язык : Russian Default : Нет Forced : НетАудио #4: Идентификатор : 5 Формат : AC-3 Формат/Информация : Audio Coding 3 Расширение режима : CM (complete main) Параметр Endianness формата : Big Идентификатор кодека : A_AC3 Продолжительность : 1 ч. 34 м. Вид битрейта : Постоянный Битрейт : 384 Кбит/сек Каналы : 6 каналов Расположение каналов : Front: L C R, Side: L R, LFE Частота : 48,0 КГц Битовая глубина : 16 бит Метод сжатия : С потерями Размер потока : 259 Мбайт (6%) Заголовок : Источник BDRemux Dolby Digital 5,1 384 kbps AVO Санаев Язык : Russian Default : Нет Forced : НетАудио #5: Идентификатор : 6 Формат : AC-3 Формат/Информация : Audio Coding 3 Расширение режима : CM (complete main) Параметр Endianness формата : Big Идентификатор кодека : A_AC3 Продолжительность : 1 ч. 34 м. Вид битрейта : Постоянный Битрейт : 192 Кбит/сек Каналы : 2 канала Расположение каналов : Front: L R Частота : 48,0 КГц Битовая глубина : 16 бит Метод сжатия : С потерями Размер потока : 129 Мбайт (3%) Заголовок : Источник BDRemux Dolby Digital 2,0 192 kbps AVO Латышев Язык : Russian Default : Нет Forced : НетАудио #6: Идентификатор : 7 Формат : AC-3 Формат/Информация : Audio Coding 3 Расширение режима : CM (complete main) Параметр Endianness формата : Big Идентификатор кодека : A_AC3 Продолжительность : 1 ч. 34 м. Вид битрейта : Постоянный Битрейт : 448 Кбит/сек Каналы : 6 каналов Расположение каналов : Front: L C R, Side: L R, LFE Частота : 48,0 КГц Битовая глубина : 16 бит Метод сжатия : С потерями Размер потока : 302 Мбайт (7%) Заголовок : Источник BDRemux Dolby Digital 5,1 448 kbps Язык : English Default : Нет Forced : Нет 4,37 Gb 4 2
31 марта 2016 09:52 Бриллиантовый полицейский / Blue Streak (1999) BDRip-AVC от New-Team .torrent   [Информация о файле (нажмите для просмотра)] Перевод: Профессиональный (полное дублирование)Контейнер: MKVВидео: 1024x554 (1,85:1), 23,976 fps, h364 ~ 2428 kbps avg, 0.179 bit/pixelАудио: 48 kHz, Dolby Digital AC3 5.1, 448 kbps DUBАудио: 48 kHz, Dolby Digital AC3 5.1, 448 kbps АнглийскийСубтитры: SoftSub (srt)Видео: Идентификатор : 1 Формат : AVC Формат/Информация : Advanced Video Codec Профиль формата : [email protected] Параметр CABAC формата : Да Параметр ReFrames формата : 8 кадров Идентификатор кодека : V_MPEG4/ISO/AVC Продолжительность : 1 ч. 34 м. Битрейт : 2428 Кбит/сек Ширина : 1024 пикселя Высота : 554 пикселя Соотношение сторон : 1,85:1 Режим частоты кадров : Постоянный Частота кадров : 23,976 кадра/сек Цветовое пространство : YUV Субдискретизация насыщенности : 4:2:0 Битовая глубина : 8 бит Тип развёртки : Прогрессивная Бит/(Пиксели*Кадры) : 0.179 Размер потока : 1,55 Гбайт (71%) Заголовок : Источник BDRemux Библиотека кодирования : x264 core 138 r2356 a1d3d17 Настройки программы : cabac=1 / ref=8 / deblock=1:-3:-2 / analyse=0x3:0x113 / me=umh / subme=10 / psy=1 / psy_rd=1.00:0.05 / mixed_ref=1 / me_range=32 / chroma_me=1 / trellis=2 / 8x8dct=1 / cqm=0 / deadzone=21,11 / fast_pskip=0 / chroma_qp_offset=-3 / threads=6 / lookahead_threads=1 / sliced_threads=0 / nr=0 / decimate=0 / interlaced=0 / bluray_compat=0 / constrained_intra=0 / bframes=8 / b_pyramid=2 / b_adapt=2 / b_bias=0 / direct=3 / weightb=1 / open_gop=0 / weightp=2 / keyint=240 / keyint_min=24 / scenecut=40 / intra_refresh=0 / rc_lookahead=40 / rc=2pass / mbtree=1 / bitrate=2428 / ratetol=1.0 / qcomp=0.60 / qpmin=0 / qpmax=69 / qpstep=4 / cplxblur=20.0 / qblur=0.5 / ip_ratio=1.40 / aq=1:1.00 Язык : English Default : Да Forced : НетАудио #1: Идентификатор : 2 Формат : AC-3 Формат/Информация : Audio Coding 3 Расширение режима : CM (complete main) Параметр Endianness формата : Big Идентификатор кодека : A_AC3 Продолжительность : 1 ч. 34 м. Вид битрейта : Постоянный Битрейт : 448 Кбит/сек Каналы : 6 каналов Расположение каналов : Front: L C R, Side: L R, LFE Частота : 48,0 КГц Битовая глубина : 16 бит Метод сжатия : С потерями Размер потока : 302 Мбайт (13%) Заголовок : Источник BDRemux Dolby Digital 5,1 448 kbps DUB Язык : Russian Default : Да Forced : НетАудио #2: Идентификатор : 3 Формат : AC-3 Формат/Информация : Audio Coding 3 Расширение режима : CM (complete main) Параметр Endianness формата : Big Идентификатор кодека : A_AC3 Продолжительность : 1 ч. 34 м. Вид битрейта : Постоянный Битрейт : 448 Кбит/сек Каналы : 6 каналов Расположение каналов : Front: L C R, Side: L R, LFE Частота : 48,0 КГц Битовая глубина : 16 бит Метод сжатия : С потерями Размер потока : 302 Мбайт (13%) Заголовок : Источник BDRemux Dolby Digital 5,1 448 kbps Язык : English Default : Нет Forced : Нет 2,19 Gb 23 4
31 марта 2016 09:52 Бриллиантовый полицейский / Blue Streak (1999) BDRip-AVC от New-Team | D .torrent   [Информация о файле (нажмите для просмотра)] Перевод: Профессиональный (полное дублирование)Субтитры: русскийКачество: BDRip-AVC [Исходник BDRemux 1080p]Формат: MKVВидео: 744x402 (1.851), 23.976 fps, h364 ~ 1 041 Kbps, 0.145 bit/pixelАудио: 48 KHz / 24 KHz, AAC HE-AAC / LC, 2/0 (L,R) ch, ~64 kbps 744,46 Mb 7 2
31 марта 2016 09:52 Бриллиантовый полицейский / Blue Streak (1999) BDRemux 1080p от NovaLan .torrent   [Информация о файле (нажмите для просмотра)] Перевод: Дублированный / Профессиональный многоголосый (R5) / Профессиональный многоголосый (ОРТ) / Авторский одноголосый (Санаев, Латышев)Кодек: H.264Качество: Blu-Ray Remux 1080pВидео: MPEG-4 AVC, 27.8 Мбит/с, 1920x1080, 23.976 кадр/сЗвук: Русский (AC3, 6 ch, 640 Кбит/с), (AC3, 6 ch, 448 Кбит/с), (AC3, 6 ch, 384 Кбит/с), (AC3, 2 ch, 192 Кбит/с), английский (DTS-HD MA, 6 ch, 1561 Кбит/с)Субтитры: Русские, английскиеВидео: Идентификатор : 1 Формат : AVC Формат/Информация : Advanced Video Codec Профиль формата : [email protected] Параметр CABAC формата : Да Параметр ReFrames формата : 4 кадра Параметр GOP формата : M=3, N=12 Идентификатор кодека : V_MPEG4/ISO/AVC Продолжительность : 1 ч. 34 м. Вид битрейта : Переменный Битрейт : 27,8 Мбит/сек Максимальный битрейт : 29,5 Мбит/сек Ширина : 1920 пикселей Высота : 1080 пикселей Соотношение сторон : 16:9 Частота кадров : 23,976 кадра/сек Цветовое пространство : YUV Субдискретизация насыщенности : 4:2:0 Битовая глубина : 8 бит Тип развёртки : Прогрессивная Бит/(Пиксели*Кадры) : 0.559 Размер потока : 18,3 Гбайт (87%) Заголовок : Blue Streak 1999 - NovaLan Default : Да Forced : Нет Основные цвета : BT.709-5, BT.1361, IEC 61966-2-4, SMPTE RP177 Характеристики трансфера : BT.709-5, BT.1361 Коэффициенты матрицы : BT.709-5, BT.1361, IEC 61966-2-4 709, SMPTE RP177Аудио #1: Идентификатор : 2 Формат : AC-3 Формат/Информация : Audio Coding 3 Расширение режима : CM (complete main) Параметр Endianness формата : Big Идентификатор кодека : A_AC3 Продолжительность : 1 ч. 34 м. Вид битрейта : Постоянный Битрейт : 640 Кбит/сек Каналы : 6 каналов Расположение каналов : Front: L C R, Side: L R, LFE Частота : 48,0 КГц Битовая глубина : 16 бит Метод сжатия : С потерями Размер потока : 431 Мбайт (2%) Язык : Russian Default : Да Forced : НетАудио #2: Идентификатор : 3 Формат : AC-3 Формат/Информация : Audio Coding 3 Расширение режима : CM (complete main) Параметр Endianness формата : Big Идентификатор кодека : A_AC3 Продолжительность : 1 ч. 34 м. Вид битрейта : Постоянный Битрейт : 448 Кбит/сек Каналы : 6 каналов Расположение каналов : Front: L C R, Side: L R, LFE Частота : 48,0 КГц Битовая глубина : 16 бит Метод сжатия : С потерями Размер потока : 302 Мбайт (1%) Язык : Russian Default : Нет Forced : НетАудио #3: Идентификатор : 4 Формат : AC-3 Формат/Информация : Audio Coding 3 Расширение режима : CM (complete main) Параметр Endianness формата : Big Идентификатор кодека : A_AC3 Продолжительность : 1 ч. 34 м. Вид битрейта : Постоянный Битрейт : 448 Кбит/сек Каналы : 6 каналов Расположение каналов : Front: L C R, Side: L R, LFE Частота : 48,0 КГц Битовая глубина : 16 бит Метод сжатия : С потерями Размер потока : 302 Мбайт (1%) Язык : Russian Default : Нет Forced : НетАудио #4: Идентификатор : 5 Формат : AC-3 Формат/Информация : Audio Coding 3 Расширение режима : CM (complete main) Параметр Endianness формата : Big Идентификатор кодека : A_AC3 Продолжительность : 1 ч. 34 м. Вид битрейта : Постоянный Битрейт : 384 Кбит/сек Каналы : 6 каналов Расположение каналов : Front: L C R, Side: L R, LFE Частота : 48,0 КГц Битовая глубина : 16 бит Метод сжатия : С потерями Размер потока : 259 Мбайт (1%) Язык : Russian Default : Нет Forced : НетАудио #5: Идентификатор : 6 Формат : AC-3 Формат/Информация : Audio Coding 3 Расширение режима : CM (complete main) Параметр Endianness формата : Big Идентификатор кодека : A_AC3 Продолжительность : 1 ч. 34 м. Вид битрейта : Постоянный Битрейт : 192 Кбит/сек Каналы : 2 канала Расположение каналов : Front: L R Частота : 48,0 КГц Битовая глубина : 16 бит Метод сжатия : С потерями Размер потока : 129 Мбайт (1%) Язык : Russian Default : Нет Forced : НетАудио #6: Идентификатор : 7 Формат : DTS Формат/Информация : Digital Theater Systems Профиль формата : MA / Core Идентификатор кодека : A_DTS Продолжительность : 1 ч. 34 м. Вид битрейта : Переменный Битрейт : 1561 Кбит/сек / 1510 Кбит/сек Каналы : 6 каналов Расположение каналов : Front: L C R, Side: L R, LFE Частота : 48,0 КГц Битовая глубина : 16 бит Метод сжатия : Без потерь / Lossy Язык : English Default : Нет Forced : Нет 21,11 Gb 1 1
31 марта 2016 09:52 Бриллиантовый полицейский / Blue Streak (1999) BDRip от HQCLUB .torrent   [Информация о файле (нажмите для просмотра)] Перевод: Профессиональный (полное дублирование)Blu-ray CEE + Оригинальная английская дорожка (отдельно в папке)Субтитры: Русские, английские (внешние, srt*)Формат: AVIКачество: BDRip (источник: HDmonSK / Blu-ray Disc CEE / 1080p)Видео: 704x384 (1.83:1), 23.976 fps, XviD build 50 ~1823 kbps avg, 0.28 bit/pixelАудио #1: 48 kHz, AC3 Dolby Digital, 3/2 (L,C,R,l,r) + LFE ch, ~384.00 kbps avg|DUB: Blu-ray CEE|Аудио #2: 48 kHz, AC3 Dolby Digital, 3/2 (L,C,R,l,r) + LFE ch, ~448.00 kbps avg|Original: English| (отдельно в папке)Аудио #3: 48 kHz, AC3 Dolby Digital, 3/2 (L,C,R,l,r) + LFE ch, ~384.00 kbps avg|MVO: R5| (отдельно, на drive.hqclub.net)Аудио #4: 48 kHz, AC3 Dolby Digital, 2/0 (L,R) ch, ~192.00 kbps avg|MVO: ОРТ| (отдельно, на drive.hqclub.net)Аудио #5: 48 kHz, AC3 Dolby Digital, 3/2 (L,C,R,l,r) + LFE ch, ~384.00 kbps avg|AVO: М. Латышев| (отдельно, на drive.hqclub.net)Аудио #6: 48 kHz, AC3 Dolby Digital, 3/2 (L,C,R,l,r) + LFE ch, ~384.00 kbps avg|AVO: П. Санаев| (отдельно, на drive.hqclub.net)Аудио #7: 48 kHz, AC3 Dolby Digital, 3/2 (L,C,R,l,r) + LFE ch, ~384.00 kbps avg|UKR: MVO - ТРК "Украина"| (отдельно, на drive.hqclub.net) 1,75 Gb 5 3
31 марта 2016 09:52 Бриллиантовый полицейский / Blue Streak (1999) HDRip от Scarabey | D .torrent   [Информация о файле (нажмите для просмотра)] Перевод: Профессиональный (полное дублирование)Качество: НDRipФормат: AVIВидео: 688x368 (1.87:1), 23.976 fps, XviD build 50 ~1749 kbps avg, 0.29 bit/pixelАудио: 48 kHz, AC3 Dolby Digital, 3/2 (L,C,R,l,r) + LFE ch, ~384.00 kbps avg 1,41 Gb 77 9
31 марта 2016 09:52 Бриллиантовый полицейский / Blue Streak (1999) HDRip от Scarabey | D .torrent   [Информация о файле (нажмите для просмотра)] Перевод: Профессиональный (полное дублирование)Качество: НDRipФормат: AVIВидео: 624x336 (1.86:1), 23.976 fps, XviD build 50 ~964 kbps avg, 0.19 bit/pixelАудио: 48 kHz, MPEG Layer 3, 2 ch, ~128.00 kbps avg 741,79 Mb 8 4
31 марта 2016 09:52 Бриллиантовый полицейский / Blue Streak (1999) BDRip 720p .torrent   [Информация о файле (нажмите для просмотра)] Перевод: Дублированный, профессиональный многоголосый, авторский одноголосыйФормат: MKVКачество: BDRip 720pВидео: MPEG-4 AVC, 5140 Кбит/c, 1280x692Звук: Аудио #1: Русский (AC3, 6 ch, 640 Кбит/с) - Дублированный Аудио #2: Русский (AC3, 6 ch, 448 Кбит/с) - Профессиональный многоголосый Аудио #3: Русский (AC3, 6 ch, 448 Кбит/с) - Авторский одноголосый ( Павел Санаев) Аудио #4: Английский (DTS, 6 ch, 1536 Кбит/с) - ОригиналСубтитры: Русские, английские 5,38 Gb 5 5
31 марта 2016 09:52 Бриллиантовый полицейский / Blue Streak (1999) HDRip .torrent   [Информация о файле (нажмите для просмотра)] Перевод: Профессиональный (полное дублирование)Кодек: XviDКачество: HDRip - рип с BDRip 720pВидео: 688x368 (1.87:1), 23.976 fps, XviD build 50 ~971 kbps avg, 0.16 bit/pixelЗвук: 48 kHz, MPEG Layer 3, 2 ch, ~128.00 kbps avg 746,43 Mb 6 2
31 марта 2016 09:52 Бриллиантовый полицейский / Blue Streak (1999) DVD9 .torrent   [Информация о файле (нажмите для просмотра)] Перевод: профессиональный (многоголосый), дублированныйСубтитры: Английские, РусскиеКодек: MPEG2Качество: DVD9Видео: PAL 16:9 () VBR, ~9800KbpsЗвук: Аудио#1 - Русский (Dolby AC3, 6 ch), 48000 Hz, 448 Kbps Аудио#2 - Русский (Dolby AC3, 6 ch), 48000 Hz, 448 Kbps Аудио#3 - Английский (Dolby AC3, 6 ch), 48000 Hz, 448 Kbps 6,76 Gb 5 3
31 марта 2016 09:52 Бриллиантовый полицейский / Blue Streak (1999) BDRip 1080p от Freeisland .torrent   [Информация о файле (нажмите для просмотра)] Перевод: ДублированныйКодек: Н.264Качество: BDRip 1080pВидео: 1920x1040 , 6200 Кбит/сек , 23,976 кадр/сек , 0.130 bit/pixelЗвук: 48 kHz, AC3 Dolby Digital, 3/2 (L,C,R,l,r) + LFE ch, ~448 kbps (Dub)Субтитры: Русские, АнглийскиеВидео: Идентификатор : 1 Формат : AVC Формат/Информация : Advanced Video Codec Профиль формата : [email protected] Параметр CABAC формата : Да Параметр ReFrames формата : 4 кадра Идентификатор кодека : V_MPEG4/ISO/AVC Продолжительность : 1 ч. 34 м. Битрейт : 6200 Кбит/сек Ширина : 1920 пикс. Высота : 1040 пикс. Соотношение сторон : 16:9 Частота кадров : 23,976 кадр/сек Цветовое пространство : YUV Подвыборка цветности : 4:2:0 Битовая глубина : 8 бит Тип развёртки : Прогрессивная Бит/(Пиксели*Кадры) : 0.130 Размер потока : 3,98 Гбайт (91%) Библиотека кодирования : x264 core 116 r2074 2641b9e Настройки программы : cabac=1 / ref=4 / deblock=1:-2:-2 / analyse=0x3:0x113 / me=umh / subme=8 / psy=1 / psy_rd=1.00:0.15 / mixed_ref=1 / me_range=32 / chroma_me=1 / trellis=1 / 8x8dct=1 / cqm=0 / deadzone=21,11 / fast_pskip=1 / chroma_qp_offset=-3 / threads=6 / sliced_threads=0 / nr=0 / decimate=1 / interlaced=0 / bluray_compat=0 / constrained_intra=0 / bframes=6 / b_pyramid=2 / b_adapt=1 / b_bias=0 / direct=1 / weightb=1 / open_gop=0 / weightp=2 / keyint=250 / keyint_min=23 / scenecut=40 / intra_refresh=0 / rc=2pass / mbtree=0 / bitrate=6200 / ratetol=1.0 / qcomp=0.60 / qpmin=0 / qpmax=69 / qpstep=4 / cplxblur=20.0 / qblur=0.5 / ip_ratio=1.40 / pb_ratio=1.30 / aq=1:1.00 Язык : EnglishАудио: Идентификатор : 2 Формат : AC-3 Формат/Информация : Audio Coding 3 Расширение режима : CM (complete main) Идентификатор кодека : A_AC3 Продолжительность : 1 ч. 34 м. Вид битрейта : Постоянный Битрейт : 448 Кбит/сек Каналы : 6 каналов Расположение каналов : Front: L C R, Side: L R, LFE Частота : 48,0 КГц Битовая глубина : 16 бит Метод сжатия : С потерями Размер потока : 302 Мбайт (7%) Язык : Russian 5,37 Gb 3 4
31 марта 2016 09:52 Бриллиантовый полицейский / Blue Streak (1999) DVDRip .torrent   [Информация о файле (нажмите для просмотра)] Качество: DVDRipВидео: 704x384 (1.83:1), 25 fps, XviD build 47 ~957 kbps avg, 0.14 bit/pixelАудио: 48 kHz, MPEG Layer 3, 2 ch, ~112.90 kbps avgПеревод: Профессиональный (многоголосный) 701,19 Mb 3 2
31 марта 2016 09:52 Бриллиантовый полицейский / Blue Streak (1999) BDRip от HQ-ViDEO .torrent   1,46 Gb 29 4

Скачать фильм Бриллиантовый полицейский через торрент в хорошем качестве бесплатно 1080p

Format : MatroskaFormat version : Version 2File size : 7.75 GiBDuration : 1h 34mnOverall bit rate : 11.8 MbpsMovie name : Brilliantovyj policejskij.(1999).BDRip.1080p.[denis100]Encoded date : UTC 2014-03-12 09:40:39Writing application : mkvmerge v5.8.0 ('No Sleep / Pillow') built on Sep 2 2012 15:37:04Writing library : libebml v1.2.3 + libmatroska v1.3.0

VideoID : 1Format : AVCFormat/Info : Advanced Video CodecFormat profile : [email protected] settings, CABAC : YesFormat settings, ReFrames : 4 framesCodec ID : V_MPEG4/ISO/AVCDuration : 1h 34mnBit rate : 9 880 KbpsWidth : 1 920 pixelsHeight : 1 038 pixelsDisplay aspect ratio : 1.85:1Frame rate mode : ConstantFrame rate : 23.976 fpsColor space : YUVChroma subsampling : 4:2:0Bit depth : 8 bitsScan type : ProgressiveBits/(Pixel*Frame) : 0.207Stream size : 6.34 GiB (82%)Title : Brilliantovyj policejskij.(1999).BDRip.1080p.[denis100]Writing library : x264 core 138 r2358 9e941d1Encoding settings : cabac=1 / ref=4 / deblock=1:-3:-3 / analyse=0x3:0x133 / me=umh / subme=11 / psy=1 / psy_rd=1.00:0.10 / mixed_ref=1 / me_range=32 / chroma_me=1 / trellis=2 / 8x8dct=1 / cqm=0 / deadzone=21,11 / fast_pskip=0 / chroma_qp_offset=-3 / threads=6 / lookahead_threads=1 / sliced_threads=0 / nr=0 / decimate=1 / interlaced=0 / bluray_compat=0 / constrained_intra=0 / bframes=6 / b_pyramid=2 / b_adapt=2 / b_bias=0 / direct=3 / weightb=1 / open_gop=0 / weightp=2 / keyint=240 / keyint_min=23 / scenecut=40 / intra_refresh=0 / rc=2pass / mbtree=0 / bitrate=9880 / ratetol=1.0 / qcomp=0.60 / qpmin=0 / qpmax=69 / qpstep=4 / cplxblur=20.0 / qblur=0.5 / ip_ratio=1.40 / pb_ratio=1.30 / aq=1:0.90Language : EnglishDefault : YesForced : No

Audio #1ID : 2Format : AC-3Format/Info : Audio Coding 3Mode extension : CM (complete main)Format settings, Endianness : BigCodec ID : A_AC3Duration : 1h 34mnBit rate mode : ConstantBit rate : 640 KbpsChannel(s) : 6 channelsChannel positions : Front: L C R, Side: L R, LFESampling rate : 48.0 KHzBit depth : 16 bitsCompression mode : LossyStream size : 431 MiB (5%)Title : дубляж (Blu-ray CEE)Language : RussianDefault : YesForced : No

Audio #2ID : 3Format : AC-3Format/Info : Audio Coding 3Mode extension : CM (complete main)Format settings, Endianness : BigCodec ID : A_AC3Duration : 1h 34mnBit rate mode : ConstantBit rate : 448 KbpsChannel(s) : 6 channelsChannel positions : Front: L C R, Side: L R, LFESampling rate : 48.0 KHzBit depth : 16 bitsCompression mode : LossyStream size : 302 MiB (4%)Title : профессиональный (многоголосый закадровый)Language : RussianDefault : NoForced : No

Audio #3ID : 4Format : AC-3Format/Info : Audio Coding 3Mode extension : CM (complete main)Format settings, Endianness : BigCodec ID : A_AC3Duration : 1h 34mnBit rate mode : ConstantBit rate : 192 KbpsChannel(s) : 2 channelsChannel positions : Front: L RSampling rate : 48.0 KHzBit depth : 16 bitsCompression mode : LossyStream size : 129 MiB (2%)Title : профессиональный (многоголосый закадровый) - ОРТLanguage : RussianDefault : NoForced : No

Audio #4ID : 5Format : AC-3Format/Info : Audio Coding 3Mode extension : CM (complete main)Format settings, Endianness : BigCodec ID : A_AC3Duration : 1h 34mnBit rate mode : ConstantBit rate : 640 KbpsChannel(s) : 6 channelsChannel positions : Front: L C R, Side: L R, LFESampling rate : 48.0 KHzBit depth : 16 bitsCompression mode : LossyStream size : 431 MiB (5%)Title : EnglishLanguage : EnglishDefault : NoForced : No

TextID : 6Format : UTF-8Codec ID : S_TEXT/UTF8Codec ID/Info : UTF-8 Plain TextTitle : RussianLanguage : RussianDefault : NoForced : No

Menu00:00:00.000 : en:00:00:00.00000:11:04.330 : en:00:11:04.33000:18:03.082 : en:00:18:03.08200:22:22.383 : en:00:22:22.38300:30:13.895 : en:00:30:13.89500:35:49.314 : en:00:35:49.31400:38:51.246 : en:00:38:51.24600:47:50.493 : en:00:47:50.49300:50:29.026 : en:00:50:29.02600:56:26.258 : en:00:56:26.25801:03:15.125 : en:01:03:15.12501:07:44.477 : en:01:07:44.47701:11:27.533 : en:01:11:27.53301:17:29.144 : en:01:17:29.14401:23:10.986 : en:01:23:10.986

piratbit.ru

Скачать фильм Бриллиантовый полицейский через торрент в хорошем качестве бесплатно 720p by msltel] DUB

ОбщееУникальный идентификатор : 226500192764173835286869003734782905883 (0xAA6659B18C0028E2B50719173AD10E1B)Полное имя : D:\Video\Бриллиантовый полицейский.1999.BDRip.720p by msltel.mkvФормат : MatroskaВерсия формата : Version 4 / Version 2Размер файла : 5,87 ГбайтПродолжительность : 1 ч. 34 м.Общий поток : 8933 Кбит/секНазвание фильма : Rip by msltelДата кодирования : UTC 2017-09-02 04:08:18Программа кодирования : mkvmerge v8.2.0 ('World of Adventure') 64bitБиблиотека кодирования : libebml v1.3.1 + libmatroska v1.4.2

ВидеоИдентификатор : 1Формат : AVCФормат/Информация : Advanced Video CodecПрофиль формата : [email protected]Параметр CABAC формата : ДаПараметр RefFrames формата : 9 кадровИдентификатор кодека : V_MPEG4/ISO/AVCПродолжительность : 1 ч. 34 м.Битрейт : 6178 Кбит/секШирина : 1280 пикселейВысота : 692 пикселяСоотношение сторон : 1,85:1Режим частоты кадров : ПостоянныйЧастота кадров : 23,976 (24000/1001) кадра/секЦветовое пространство : YUVСубдискретизация насыщенности : 4:2:0Битовая глубина : 8 битТип развёртки : ПрогрессивнаяБит/(Пиксели*Кадры) : 0.291Размер потока : 4,06 Гбайт (69%)Библиотека кодирования : x264 core 146 r2538 121396cНастройки программы : cabac=1 / ref=9 / deblock=1:-3:-2 / analyse=0x3:0x113 / me=umh / subme=11 / psy=1 / psy_rd=1.00:0.15 / mixed_ref=1 / me_range=32 / chroma_me=1 / trellis=2 / 8x8dct=1 / cqm=0 / deadzone=21,11 / fast_pskip=0 / chroma_qp_offset=-3 / threads=6 / lookahead_threads=1 / sliced_threads=0 / nr=0 / decimate=1 / interlaced=0 / bluray_compat=0 / constrained_intra=0 / bframes=8 / b_pyramid=2 / b_adapt=2 / b_bias=0 / direct=1 / weightb=1 / open_gop=0 / weightp=2 / keyint=230 / keyint_min=23 / scenecut=40 / intra_refresh=0 / rc_lookahead=40 / rc=crf / mbtree=0 / crf=20.6 / qcomp=0.60 / qpmin=0 / qpmax=69 / qpstep=4 / vbv_maxrate=62500 / vbv_bufsize=78125 / crf_max=0.0 / nal_hrd=none / filler=0 / ip_ratio=1.40 / pb_ratio=1.30 / aq=1:1.00Язык : EnglishDefault : ДаForced : Нет

Аудио #1Идентификатор : 2Формат : AC-3Формат/Информация : Audio Coding 3Параметр Endianness формата : BigИдентификатор кодека : A_AC3Продолжительность : 1 ч. 34 м.Вид битрейта : ПостоянныйБитрейт : 640 Кбит/секКаналы : 6 каналовРасположение каналов : Front: L C R, Side: L R, LFEЧастота : 48,0 КГцЧастота кадров : 31,250 кадров/сек (1536 SPF)Битовая глубина : 16 битМетод сжатия : С потерямиРазмер потока : 431 Мбайт (7%)Заголовок : DUBЯзык : RussianServiceKind/String : Complete MainDefault : ДаForced : Нет

Аудио #2Идентификатор : 3Формат : AC-3Формат/Информация : Audio Coding 3Параметр Endianness формата : BigИдентификатор кодека : A_AC3Продолжительность : 1 ч. 34 м.Вид битрейта : ПостоянныйБитрейт : 448 Кбит/секКаналы : 6 каналовРасположение каналов : Front: L C R, Side: L R, LFEЧастота : 48,0 КГцЧастота кадров : 31,250 кадров/сек (1536 SPF)Битовая глубина : 16 битМетод сжатия : С потерямиРазмер потока : 302 Мбайт (5%)Заголовок : MVO, R5Язык : RussianServiceKind/String : Complete MainDefault : НетForced : Нет

Аудио #3Идентификатор : 4Формат : AC-3Формат/Информация : Audio Coding 3Параметр Endianness формата : BigИдентификатор кодека : A_AC3Продолжительность : 1 ч. 34 м.Вид битрейта : ПостоянныйБитрейт : 192 Кбит/секКаналы : 2 каналаРасположение каналов : Front: L RЧастота : 48,0 КГцЧастота кадров : 31,250 кадров/сек (1536 SPF)Битовая глубина : 16 битМетод сжатия : С потерямиРазмер потока : 129 Мбайт (2%)Заголовок : MVO, OPTЯзык : RussianServiceKind/String : Complete MainDefault : НетForced : Нет

Аудио #4Идентификатор : 5Формат : AC-3Формат/Информация : Audio Coding 3Параметр Endianness формата : BigИдентификатор кодека : A_AC3Продолжительность : 1 ч. 34 м.Вид битрейта : ПостоянныйБитрейт : 384 Кбит/секКаналы : 6 каналовРасположение каналов : Front: L C R, Side: L R, LFEЧастота : 48,0 КГцЧастота кадров : 31,250 кадров/сек (1536 SPF)Битовая глубина : 16 битМетод сжатия : С потерямиРазмер потока : 258 Мбайт (4%)Заголовок : AVO, Максим ЛатышевЯзык : RussianServiceKind/String : Complete MainDefault : НетForced : Нет

Аудио #5Идентификатор : 6Формат : AC-3Формат/Информация : Audio Coding 3Параметр Endianness формата : BigИдентификатор кодека : A_AC3Продолжительность : 1 ч. 34 м.Вид битрейта : ПостоянныйБитрейт : 448 Кбит/секКаналы : 6 каналовРасположение каналов : Front: L C R, Side: L R, LFEЧастота : 48,0 КГцЧастота кадров : 31,250 кадров/сек (1536 SPF)Битовая глубина : 16 битМетод сжатия : С потерямиРазмер потока : 302 Мбайт (5%)Заголовок : Павел СанаевЯзык : RussianServiceKind/String : Complete MainDefault : НетForced : Нет

Аудио #6Идентификатор : 7Формат : AC-3Формат/Информация : Audio Coding 3Параметр Endianness формата : BigИдентификатор кодека : A_AC3Продолжительность : 1 ч. 34 м.Вид битрейта : ПостоянныйБитрейт : 640 Кбит/секКаналы : 6 каналовРасположение каналов : Front: L C R, Side: L R, LFEЧастота : 48,0 КГцЧастота кадров : 31,250 кадров/сек (1536 SPF)Битовая глубина : 16 битМетод сжатия : С потерямиРазмер потока : 431 Мбайт (7%)Заголовок : originalЯзык : EnglishServiceKind/String : Complete MainDefault : НетForced : Нет

Текст #1Идентификатор : 8Формат : UTF-8Идентификатор кодека : S_TEXT/UTF8Идентификатор кодека/Информация : UTF-8 Plain TextПродолжительность : 1 ч. 29 м.Битрейт : 79 бит/секElementCount : 1259Размер потока : 52,0 Кбайт (0%)Заголовок : русскиеЯзык : RussianDefault : НетForced : Нет

Текст #2Идентификатор : 9Формат : UTF-8Идентификатор кодека : S_TEXT/UTF8Идентификатор кодека/Информация : UTF-8 Plain TextПродолжительность : 1 ч. 27 м.Битрейт : 60 бит/секElementCount : 1224Размер потока : 38,8 Кбайт (0%)Заголовок : английскиеЯзык : EnglishDefault : НетForced : Нет

Меню00:00:00.000 : :Chapter 0100:11:04.329 : :Chapter 0200:18:03.082 : :Chapter 0300:22:22.382 : :Chapter 0400:30:13.895 : :Chapter 0500:35:49.313 : :Chapter 0600:38:51.245 : :Chapter 0700:47:50.492 : :Chapter 0800:50:29.025 : :Chapter 0900:56:26.257 : :Chapter 1001:03:15.124 : :Chapter 1101:07:44.477 : :Chapter 1201:11:27.533 : :Chapter 1301:17:29.144 : :Chapter 1401:23:10.985 : :Chapter 1501:27:58.189 : :Chapter 16

piratbit.ru


Смотрите также