Беглецы скачать через торрент бесплатно в хорошем качестве


Скачать фильм Беглецы (2014) через торрент

gig-torrent.net

20 февраля 2016 08:30 Беглецы (2014) HDTVRip от GeneralFilm .torrent   [Информация о файле (нажмите для просмотра)] Перевод: Не требуетсяФормат: aviКачество: HDTVRipВидео: 656х368 (16:9), 25 fps, XviD, 979 kbps avg, 0.162 bit/pixelЗвук: 48 kHz, MP3, 2 ch, 128 kbps avgВидео: Идентификатор : 0 Формат : MPEG-4 Visual Профиль формата : Advanced [email protected] Параметр BVOP формата : 1 Параметр QPel формата : Нет Параметр GMC формата : Без точки перехода Параметр матрицы формата : Выборочная Идентификатор кодека : XVID Идентификатор кодека/Подсказка : XviD Продолжительность : 1 ч. 27 м. Битрейт : 979 Кбит/сек Ширина : 656 пикселей Высота : 368 пикселей Соотношение сторон : 16:9 Частота кадров : 25,000 кадров/сек Цветовое пространство : YUV Субдискретизация насыщенности : 4:2:0 Битовая глубина : 8 бит Тип развёртки : Прогрессивная Метод сжатия : С потерями Бит/(Пиксели*Кадры) : 0.162 Размер потока : 616 Мбайт (88%) Библиотека кодирования : XviD 73Аудио: Идентификатор : 1 Формат : MPEG Audio Версия формата : Version 1 Профиль формата : Layer 3 Идентификатор кодека : 55 Идентификатор кодека/Подсказка : MP3 Продолжительность : 1 ч. 27 м. Вид битрейта : Постоянный Битрейт : 128 Кбит/сек Каналы : 2 канала Частота : 48,0 КГц Метод сжатия : С потерями Размер потока : 80,5 Мбайт (11%) Выравнивание : Соединение по промежуткам Продолжительность промежутка : 40 мс. (1,00 видеокадр) Время предзагрузки промежутка : 504 мс. Библиотека кодирования : LAME3.99r Настройки программы : -m s -V 4 -q 0 -lowpass 17 -b 128 702,36 Mb 72 7
20 февраля 2016 08:30 Беглецы (2014) HDTVRip-AVC от Files-х .torrent   [Информация о файле (нажмите для просмотра)] Кодек: h.264Качество: HDTVRip-AVCВидео: MPEG-4 AVC, ~ 2031 Кбит/с, 720x400, 25 кадр/сАудио: AAC, 2 ch, 192 Кбит/с 1,37 Gb 139 6
20 февраля 2016 08:30 Беглецы (2014) HDTV 1080i от MediaClub .torrent   [Информация о файле (нажмите для просмотра)] Перевод: Не требуетсяКодек: MPEG-4 AVCКачество: HDTV 1080iВидео: 1920х1080 (16:9), 25 fps, AVC MPEG-4 (x264), [email protected] 12.0 Мbps avg, 0.208 bit/pixelЗвук: 48 kHz, AC3, 6 ch, ~ 448, MP2, 2 ch, ~ 192 kbps avg 7,39 Gb 30 6
20 февраля 2016 08:30 Беглецы (2014) WEB-DLRip от Scarabey | iTunes .torrent   [Информация о файле (нажмите для просмотра)] Перевод: не требуетсяКачество: WEB-DLRipФормат: AVIВидео: 624x352 (1.77:1), 25 fps, XviD build 73 ~1046 kbps avg, 0.19 bit/pixelАудио: 48 kHz, MPEG Layer 3, 2 ch, ~128.00 kbps avg 747,82 Mb 15 4
20 февраля 2016 08:30 Беглецы (2014) WEB-DLRip от Scarabey | iTunes .torrent   [Информация о файле (нажмите для просмотра)] Перевод: не требуетсяКачество: WEB-DLRipФормат: AVIВидео: 688x384 (1.79:1), 25 fps, XviD build 73 ~1954 kbps avg, 0.30 bit/pixelАудио: 48 kHz, AC3 Dolby Digital, 3/2 (L,C,R,l,r) + LFE ch, ~384.00 kbps avg 1,45 Gb 32 2
20 февраля 2016 08:30 Беглецы (2014) DVDRip от MediaClub | КПК .torrent   [Информация о файле (нажмите для просмотра)] Перевод: ОригиналКодек: MPEG-4Качество: DVDRipВидео: 498 Кбит/с, 320x176, 25.000 кадр/сЗвук: Русский (AAC, 2 ch, 128 Кбит/с) 399,82 Mb 13 3
20 февраля 2016 08:30 Беглецы (2014) WEBRip-AVC от Rulya74 .torrent   [Информация о файле (нажмите для просмотра)] Перевод: ОригиналКодек: x.264Качество: WEBRip-AVCВидео: 912x512 (16:9), 25.000 fps, 1577 kbps, 0.135 bit/pixelАудио: 48 kHz, AC3 Dolby Digital, 2 ch, ~192.00 kbpsВидео: Идентификатор : 1 Формат : AVC Формат/Информация : Advanced Video Codec Профиль формата : [email protected] Параметр CABAC формата : Да Параметр ReFrames формата : 10 кадров Идентификатор кодека : V_MPEG4/ISO/AVC Продолжительность : 1 ч. 28 м. Битрейт : 1577 Кбит/сек Ширина : 912 пикселей Высота : 512 пикселей Соотношение сторон : 16:9 Режим частоты кадров : Постоянный Частота кадров : 25,000 кадров/сек Цветовое пространство : YUV Субдискретизация насыщенности : 4:2:0 Битовая глубина : 8 бит Тип развёртки : Прогрессивная Бит/(Пиксели*Кадры) : 0.135 Размер потока : 973 Мбайт (87%) Библиотека кодирования : x264 core 133 r2334 a3ac64b Настройки программы : cabac=1 / ref=10 / deblock=1:-1:-1 / analyse=0x3:0x113 / me=umh / subme=10 / psy=1 / psy_rd=1.10:0.22 / mixed_ref=1 / me_range=32 / chroma_me=1 / trellis=2 / 8x8dct=1 / cqm=0 / deadzone=21,11 / fast_pskip=0 / chroma_qp_offset=-3 / threads=4 / lookahead_threads=1 / sliced_threads=0 / nr=0 / decimate=1 / interlaced=0 / bluray_compat=0 / constrained_intra=0 / bframes=5 / b_pyramid=2 / b_adapt=1 / b_bias=0 / direct=3 / weightb=1 / open_gop=0 / weightp=2 / keyint=250 / keyint_min=25 / scenecut=40 / intra_refresh=0 / rc_lookahead=40 / rc=2pass / mbtree=1 / bitrate=1577 / ratetol=1.0 / qcomp=0.60 / qpmin=0 / qpmax=69 / qpstep=4 / cplxblur=20.0 / qblur=0.5 / vbv_maxrate=62500 / vbv_bufsize=78125 / nal_hrd=none / ip_ratio=1.40 / aq=1:1.00 Default : Да Forced : Нет Аудио: Идентификатор : 2 Формат : AC-3 Формат/Информация : Audio Coding 3 Расширение режима : CM (complete main) Параметр Endianness формата : Big Идентификатор кодека : A_AC3 Продолжительность : 1 ч. 28 м. Вид битрейта : Постоянный Битрейт : 192 Кбит/сек Каналы : 2 канала Расположение каналов : Front: L R Частота : 48,0 КГц Битовая глубина : 16 бит Метод сжатия : С потерями Размер потока : 121 Мбайт (11%) Язык : Russian Default : Да Forced : НетСкриншоты 1,09 Gb 12 5
20 февраля 2016 08:30 Беглецы (2014) DVD-9 .torrent   [Информация о файле (нажмите для просмотра)] Кодек: MPEG-2Качество: DVD-9Видео: MPEG2, PAL, 16:9 (720x576) VBR, 25 кадр/сЗвук: Русский DD 5.1 (384Kbps)Видео: Идентификатор : 224 (0xE0) Формат : MPEG Video Версия формата : Version 2 Профиль формата : [email protected] Параметр BVOP формата : Да Параметр матрицы формата : По умолчанию Параметр GOP формата : M=3, N=13 Продолжительность : 18 м. Вид битрейта : Переменный Битрейт : 7022 Кбит/сек Максимальный битрейт : 9008 Кбит/сек Ширина : 720 пикселей Высота : 576 пикселей Соотношение сторон : 16:9 Частота кадров : 25,000 кадров/сек Стандарт вещания : PAL Цветовое пространство : YUV Субдискретизация насыщенности : 4:2:0 Битовая глубина : 8 бит Тип развёртки : Прогрессивная Метод сжатия : С потерями Бит/(Пиксели*Кадры) : 0.677 TimeCode_FirstFrame : 00:00:00:00 TimeCode_Source : Group of pictures header Размер потока : 930 Мбайт (93%)Аудио: Идентификатор : 189 (0xBD)-128 (0x80) Формат : AC-3 Формат/Информация : Audio Coding 3 Расширение режима : CM (complete main) Параметр Endianness формата : Big Режим смешивания : DVD-Video Продолжительность : 18 м. Вид битрейта : Постоянный Битрейт : 384 Кбит/сек Каналы : 6 каналов Расположение каналов : Front: L C R, Side: L R, LFE Частота : 48,0 КГц Битовая глубина : 16 бит Метод сжатия : С потерями Размер потока : 50,8 Мбайт (5%) 4,97 Gb 10 1
20 февраля 2016 08:30 Беглецы (2014) DVDRip от bittracker .torrent   [Информация о файле (нажмите для просмотра)] Кодек: XviD (AVI)Качество: DVDRipВидео: 656x368 (1.78:1), 25 fps, ~1036 kbps avg, 0.17 bit/pixelЗвук: 48 kHz, MPEG Layer 3, 2 ch, ~128.00 kbps avg 743,08 Mb 17 2
20 февраля 2016 08:30 Беглецы (2014) WEB-DLRip-AVC от ExKinoRay .torrent   [Информация о файле (нажмите для просмотра)] Качество: WEB-DLRip (AVC)Видео: MPEG-4 AVC, 2676 Кбит/с, 1024x576Аудио: AC3, 6 ch, 384 Кбит/с 1,89 Gb 18 1
20 февраля 2016 08:30 Беглецы (2014) WEB-DL 720p .torrent   [Информация о файле (нажмите для просмотра)] Формат: MKVКачество: WEB-DL 720pВидео: 4164 Kb/s, [email protected]Аудио: AC3, 384 Kb/s (6 ch) 2,86 Gb 39 2
20 февраля 2016 08:30 Беглецы (2014) DVDRip | Лицензия .torrent   [Информация о файле (нажмите для просмотра)] Формат: AVI (XviD)Качество: DVDRipВидео: 1754 kb/s, 720x400Аудио: AC3, 448 kb/s (6 ch) 1,37 Gb 305 9

Беглецы 2014 - скачать бесплатно через торрент в хорошем качестве. Без регистрации

www.kinovit.net

Название: Беглецы (2014) HDTVRip от GeneralFilm
Качество видео: HDTVRip
Перевод: Не требуется
Формат видео: avi
Видео: 656х368 (16:9), 25 fps, XviD, 979 kbps avg, 0.162 bit/pixel
Аудио: 48 kHz, MP3, 2 ch, 128 kbps avg
Скачать

Загрузка начнется в течение 5 сек.

702.36 MB

Название: Беглецы (2014) HDTVRip-AVC от Files-х
Качество видео: HDTVRip-AVC
Видео: h.264 MPEG-4 AVC, ~ 2031 Кбит/с, 720x400, 25 кадр/с
Аудио: AAC, 2 ch, 192 Кбит/с
Скачать

Загрузка начнется в течение 5 сек.

1.37 GB

Название: Беглецы (2014) HDTV 1080i от MediaClub
Качество видео: 1080i
Перевод: Не требуется
Видео: MPEG-4 AVC 1920х1080 (16:9), 25 fps, AVC MPEG-4 (x264), [email protected] 12.0 Мbps avg, 0.208 bit/pixel
Аудио: 48 kHz, AC3, 6 ch, ~ 448, MP2, 2 ch, ~ 192 kbps avg
Скачать

Загрузка начнется в течение 5 сек.

7.39 GB

Название: Беглецы (2014) WEB-DLRip от Scarabey | iTunes
Качество видео: WEB-DLRip
Перевод: не требуется
Формат видео: AVI
Видео: 688x384 (1.79:1), 25 fps, XviD build 73 ~1954 kbps avg, 0.30 bit/pixel
Аудио: 48 kHz, AC3 Dolby Digital, 3/2 (L,C,R,l,r) + LFE ch, ~384.00 kbps avg
Скачать

Загрузка начнется в течение 5 сек.

1.45 GB

Название: Беглецы (2014) WEB-DLRip от Scarabey | iTunes
Качество видео: WEB-DLRip
Перевод: не требуется
Формат видео: AVI
Видео: 624x352 (1.77:1), 25 fps, XviD build 73 ~1046 kbps avg, 0.19 bit/pixel
Аудио: 48 kHz, MPEG Layer 3, 2 ch, ~128.00 kbps avg
Скачать

Загрузка начнется в течение 5 сек.

747.82 MB

Название: Беглецы (2014) DVDRip от MediaClub | КПК
Качество видео: DVDRip
Перевод: Оригинал
Видео: MPEG-4 498 Кбит/с, 320x176, 25.000 кадр/с
Аудио: Русский (AAC, 2 ch, 128 Кбит/с)
Скачать

Загрузка начнется в течение 5 сек.

399.82 MB

Название: Беглецы (2014) WEB-DLRip 1080p
Качество видео: WEB-DLRip 1080p
Перевод: Не требуется
Видео: MPEG4 Video (h364) MPEG4 Video (h364), 1916x1080, 25.00fps, 4941 Кбит/сек
Аудио: AC3, 48000Hz, 6ch, 384Kbps
Скачать

Загрузка начнется в течение 5 сек.

3.35 GB

Название: Беглецы (2014) WEBRip-AVC от Rulya74
Качество видео: WEBRip-AVC
Перевод: Оригинал
Видео: x.264 912x512 (16:9), 25.000 fps, 1577 kbps, 0.135 bit/pixel
Аудио: 48 kHz, AC3 Dolby Digital, 2 ch, ~192.00 kbps
Скачать

Загрузка начнется в течение 5 сек.

1.09 GB

Название: Беглецы (2014) DVD9
Качество видео: DVD-9
Видео: MPEG-2 MPEG2, PAL, 16:9 (720x576) VBR, 25 кадр/с
Аудио: Русский DD 5.1 (384Kbps)
Скачать

Загрузка начнется в течение 5 сек.

4.97 GB

Название: Беглецы (2014) DVDRip от bittracker
Качество видео: DVDRip
Видео: XviD (AVI) 656x368 (1.78:1), 25 fps, ~1036 kbps avg, 0.17 bit/pixel
Аудио: 48 kHz, MPEG Layer 3, 2 ch, ~128.00 kbps avg
Скачать

Загрузка начнется в течение 5 сек.

743.08 MB

Название: Беглецы (2014) WEB-DLRip-AVC от ExKinoRay
Качество видео: WEB-DLRip (AVC)
Перевод: Оригинальное [iTunes]
Видео: MPEG-4 AVC, 2676 Кбит/с, 1024x576
Аудио: AC3, 6 ch, 384 Кбит/с
Скачать

Загрузка начнется в течение 5 сек.

1.89 GB

Название: Беглецы (2014) WEB-DL 720p
Качество видео: WEB-DL 720p
Перевод: Оригинальное [iTunes]
Формат видео: MKV
Видео: 4164 Kb/s, [email protected]
Аудио: AC3, 384 Kb/s (6 ch)
Скачать

Загрузка начнется в течение 5 сек.

2.86 GB

Название: Беглецы (2014) DVDRip | Лицензия
Качество видео: DVDRip
Перевод: Оригинальное [Лицензия]
Формат видео: AVI (XviD)
Видео: 1754 kb/s, 720x400
Аудио: AC3, 448 kb/s (6 ch)
Скачать

Загрузка начнется в течение 5 сек.

1.37 GB

Скачать фильм Беглецы (1986) через торрент

gig-torrent.net

18 марта 2016 10:23 Беглецы / Les fugitifs (1986) BDRip 720p от Neofilm .torrent   [Информация о файле (нажмите для просмотра)] Формат: MKVВидео: 1280x720 atСубтитры: russian, french 10,15 Gb 3 3
18 марта 2016 10:23 Беглецы / Les Fugitifs (1986) BDRip-AVC от MediaClub .torrent   [Информация о файле (нажмите для просмотра)] Перевод: Дублированный + профессиональный многоголосый + профессиональный двухголосый + авторский + оригиналКодек: MPEG-4 AVCКачество: BDRip-AVCВидео: 3100 Кбит/с, 1024x576, 23.976 кадр/сАудио #1: Русский (AC3, 2 ch, 192 Кбит/с) | ДублированныйАудио #2: Русский (AC3, 2 ch, 192 Кбит/с) | Профессиональный многоголосый (ОРТ)Аудио #3: Русский (AC3, 2 ch, 384 Кбит/с) | Профессиональный многоголосый (CP-Digital)Аудио #4: Русский (AC3, 2 ch, 384 Кбит/с) | Профессиональный двухголосыйАудио #5: Русский (AC3, 2 ch, 224 Кбит/с) | Авторский (А. Гаврилов)Аудио #6: Французский (AC3, 2 ch, 224 Кбит/с)Субтитры: Русские 2,93 Gb 4 2
18 марта 2016 10:23 Беглецы / Fugitives / Les fugitifs (1986) BDRip от HQCLUB .torrent   [Информация о файле (нажмите для просмотра)] Перевод: Профессиональный (полное дублирование) СССР + Оригинал (французский)Субтитры: русскиеФормат: AVIКачество: BDRip (источник:Видео: 720x400 (1.80:1), 24 fps, XviD build 65 ~1929 kbps avg, 0.28 bit/pixelАудио #1: 48 kHz, AC3 Dolby Digital, 2/0 (L,R) ch, ~192 kbps avg (DUB)Аудио #2: 48 kHz, AC3 Dolby Digital, 2/0 (L,R) ch, ~192 kbps avg (FRE)Аудио #3: 48 kHz, AC3 Dolby Digital, 2/0 (L,R) ch, ~192 kbps avg (MVO.CP)(отдельно)Аудио #4: 48 kHz, AC3 Dolby Digital, 2/0 (L,R) ch, ~192 kbps avg (MVO.ORT)(отдельно)Аудио #5: 48 kHz, AC3 Dolby Digital, 2/0 (L,R) ch, ~192 kbps avg (DVO)(отдельно) 1,45 Gb 25 1
18 марта 2016 10:23 Беглецы / Les Fugitifs (1986) HDRip-AVC от New-Team .torrent   [Информация о файле (нажмите для просмотра)] Перевод: Профессиональный (многоголосый закадровый) (CP-Digital) и (ОРТ)Качество: HDRip-AVC [Исходник BDRip 1080p]Формат: MKVВидео: 856x482 (16:9), 24 fps, h364 ~ 1 704 kbps avg, 0.172 bit/pixelАудио #1: 48 kHz, AC3 Dolby Digital, 2/0 (L,R) ch, ~192 kbps | MVO (ОРТ)Аудио #2: 48 kHz, AC3 Dolby Digital, 3/2 (L,C,R,l,r) + LFE ch, ~448 kbps | MVOСубтитры: SoftSub (srt) 1,46 Gb 10 2
18 марта 2016 10:23 Беглецы / Les Fugitifs (1986) BDRip-AVC от New-Team .torrent   [Информация о файле (нажмите для просмотра)] Перевод: Профессиональный (дублированный) (Советский Дубляж) + Профессиональный (многоголосый закадровый) (CP-Digital) и (ОРТ)Контейнер: MKVВидео: 1024x576 (16:9), 24 fps, h364 ~ 2484 kbps avg, 0.175 bit/pixelАудио: 48 kHz, Dolby Digital AC3 2.0, 192 kbps DUBАудио: 48 kHz, Dolby Digital AC3 5.1, 448 kbps MVOАудио: 48 kHz, Dolby Digital AC3 2.0, 192 kbps MVO (ОРТ)Аудио: 48 kHz, Dolby Digital AC3 2.0, 192 kbps ФранцузскийСубтитры: SoftSub (srt)Видео: Идентификатор : 1 Формат : AVC Формат/Информация : Advanced Video Codec Профиль формата : [email protected] Параметр CABAC формата : Да Параметр ReFrames формата : 8 кадров Идентификатор кодека : V_MPEG4/ISO/AVC Продолжительность : 1 ч. 29 м. Битрейт : 2484 Кбит/сек Ширина : 1024 пикселя Высота : 576 пикселей Соотношение сторон : 16:9 Режим частоты кадров : Постоянный Частота кадров : 24,000 кадра/сек Цветовое пространство : YUV Субдискретизация насыщенности : 4:2:0 Битовая глубина : 8 бит Тип развёртки : Прогрессивная Бит/(Пиксели*Кадры) : 0.175 Размер потока : 1,51 Гбайт (69%) Заголовок : Источник BDRemux Библиотека кодирования : x264 core 138 r2356 a1d3d17 Настройки программы : cabac=1 / ref=8 / deblock=1:-3:-2 / analyse=0x3:0x113 / me=umh / subme=10 / psy=1 / psy_rd=1.00:0.05 / mixed_ref=1 / me_range=32 / chroma_me=1 / trellis=2 / 8x8dct=1 / cqm=0 / deadzone=21,11 / fast_pskip=0 / chroma_qp_offset=-3 / threads=3 / lookahead_threads=1 / sliced_threads=0 / nr=0 / decimate=0 / interlaced=0 / bluray_compat=0 / constrained_intra=0 / bframes=8 / b_pyramid=2 / b_adapt=2 / b_bias=0 / direct=3 / weightb=1 / open_gop=0 / weightp=2 / keyint=240 / keyint_min=24 / scenecut=40 / intra_refresh=0 / rc_lookahead=40 / rc=2pass / mbtree=1 / bitrate=2484 / ratetol=1.0 / qcomp=0.60 / qpmin=0 / qpmax=69 / qpstep=4 / cplxblur=20.0 / qblur=0.5 / ip_ratio=1.40 / aq=1:1.00 Язык : English Default : Да Forced : НетАудио #1: Идентификатор : 2 Формат : AC-3 Формат/Информация : Audio Coding 3 Расширение режима : CM (complete main) Параметр Endianness формата : Big Идентификатор кодека : A_AC3 Продолжительность : 1 ч. 29 м. Вид битрейта : Постоянный Битрейт : 192 Кбит/сек Каналы : 2 канала Расположение каналов : Front: L R Частота : 48,0 КГц Битовая глубина : 16 бит Метод сжатия : С потерями Размер потока : 122 Мбайт (5%) Заголовок : Источник BDRemux Dolby Digital 2,0 192 kbps DUB Язык : Russian Default : Да Forced : НетАудио #2: Идентификатор : 3 Формат : AC-3 Формат/Информация : Audio Coding 3 Расширение режима : CM (complete main) Параметр Endianness формата : Big Идентификатор кодека : A_AC3 Продолжительность : 1 ч. 29 м. Вид битрейта : Постоянный Битрейт : 448 Кбит/сек Каналы : 6 каналов Расположение каналов : Front: L C R, Side: L R, LFE Частота : 48,0 КГц Битовая глубина : 16 бит Метод сжатия : С потерями Размер потока : 286 Мбайт (13%) Заголовок : Источник BDRemux Dolby Digital 5,1 448kb MVO Язык : Russian Default : Нет Forced : НетАудио #3: Идентификатор : 4 Формат : AC-3 Формат/Информация : Audio Coding 3 Расширение режима : CM (complete main) Параметр Endianness формата : Big Идентификатор кодека : A_AC3 Продолжительность : 1 ч. 29 м. Вид битрейта : Постоянный Битрейт : 192 Кбит/сек Каналы : 2 канала Расположение каналов : Front: L R Частота : 48,0 КГц Битовая глубина : 16 бит Метод сжатия : С потерями Размер потока : 122 Мбайт (5%) Заголовок : Источник BDRemux Dolby Digital 2,0 192 kbps MVO (OPT) Язык : Russian Default : Нет Forced : НетАудио #4: Идентификатор : 5 Формат : AC-3 Формат/Информация : Audio Coding 3 Профиль формата : Dolby Digital Расширение режима : CM (complete main) Параметр Endianness формата : Big Идентификатор кодека : A_AC3 Продолжительность : 1 ч. 29 м. Вид битрейта : Постоянный Битрейт : 192 Кбит/сек Каналы : 2 канала Расположение каналов : Front: L R Частота : 48,0 КГц Битовая глубина : 16 бит Метод сжатия : С потерями Размер потока : 122 Мбайт (5%) Заголовок : Источник BDRemux Dolby Digital 2,0 192 kbps Язык : French Default : Нет Forced : Нет 2,19 Gb 7 1
18 марта 2016 10:23 Беглецы / Les Fugitifs (1986) BDRip от New-Team .torrent   [Информация о файле (нажмите для просмотра)] Перевод: Профессиональный (дублированный) (Советский Дубляж)Контейнер: AVIВидео: 720x400 (16:9), 24 fps, XviD ~ 1029 kbps avg, 0.149 bit/pixelАудио: 48 kHz, MP3 2.0, 128 kbpВидео: Идентификатор : 0 Формат : MPEG-4 Visual Профиль формата : Advanced [email protected] Параметр BVOP формата : 1 Параметр QPel формата : Нет Параметр GMC формата : Без точки перехода Параметр матрицы формата : Выборочная Идентификатор кодека : XVID Идентификатор кодека/Подсказка : XviD Продолжительность : 1 ч. 29 м. Битрейт : 1029 Кбит/сек Ширина : 720 пикселей Высота : 400 пикселей Соотношение сторон : 16:9 Частота кадров : 24,000 кадра/сек Цветовое пространство : YUV Субдискретизация насыщенности : 4:2:0 Битовая глубина : 8 бит Тип развёртки : Прогрессивная Метод сжатия : С потерями Бит/(Пиксели*Кадры) : 0.149 Размер потока : 656 Мбайт (88%) Библиотека кодирования : XviD 73Аудио: Идентификатор : 1 Формат : MPEG Audio Версия формата : Version 1 Профиль формата : Layer 3 Идентификатор кодека : 55 Идентификатор кодека/Подсказка : MP3 Продолжительность : 1 ч. 29 м. Вид битрейта : Постоянный Битрейт : 128 Кбит/сек Каналы : 2 канала Частота : 48,0 КГц Метод сжатия : С потерями Размер потока : 81,7 Мбайт (11%) Выравнивание : Соединение по промежуткам Продолжительность промежутка : 42 мс. (1,00 видеокадр) Время предзагрузки промежутка : 504 мс. Библиотека кодирования : LAME3.99r Настройки программы : -m s -V 4 -q 2 -lowpass 17 -b 128 743,88 Mb 12 1
18 марта 2016 10:23 Беглецы / Les Fugitifs (1986) BDRip от New-Team .torrent   [Информация о файле (нажмите для просмотра)] Перевод: Профессиональный (дублированный) (Советский Дубляж) + Профессиональный (многоголосый закадровый) (CP-Digital) и (ОРТ)Контейнер: AVIВидео: 720x400 (16:9), 24 fps, XviD ~ 1302 kbps avg, 0.188 bit/pixelАудио: 48 kHz, Dolby Digital AC3 2.0, 192 kbps DUBАудио: 48 kHz, Dolby Digital AC3 5.1, 448 kbps MVOАудио: 48 kHz, Dolby Digital AC3 2.0, 192 kbps MVO (ОРТ)Аудио: 48 kHz, Dolby Digital AC3 2.0, 192 kbps ФранцузскийВидео: Идентификатор : 0 Формат : MPEG-4 Visual Профиль формата : Advanced [email protected] Параметр BVOP формата : 1 Параметр QPel формата : Нет Параметр GMC формата : Без точки перехода Параметр матрицы формата : Выборочная Идентификатор кодека : XVID Идентификатор кодека/Подсказка : XviD Продолжительность : 1 ч. 29 м. Битрейт : 1302 Кбит/сек Ширина : 720 пикселей Высота : 400 пикселей Соотношение сторон : 16:9 Частота кадров : 24,000 кадра/сек Цветовое пространство : YUV Субдискретизация насыщенности : 4:2:0 Битовая глубина : 8 бит Тип развёртки : Прогрессивная Метод сжатия : С потерями Бит/(Пиксели*Кадры) : 0.188 Размер потока : 831 Мбайт (55%) Библиотека кодирования : XviD 73Аудио #1: Идентификатор : 1 Формат : AC-3 Формат/Информация : Audio Coding 3 Расширение режима : CM (complete main) Параметр Endianness формата : Big Идентификатор кодека : 2000 Продолжительность : 1 ч. 29 м. Вид битрейта : Постоянный Битрейт : 192 Кбит/сек Каналы : 2 канала Расположение каналов : Front: L R Частота : 48,0 КГц Битовая глубина : 16 бит Метод сжатия : С потерями Размер потока : 122 Мбайт (8%) Выравнивание : Разделение по промежуткам Продолжительность промежутка : 42 мс. (1,00 видеокадр) Время предзагрузки промежутка : 500 мс.Аудио #2: Идентификатор : 2 Формат : AC-3 Формат/Информация : Audio Coding 3 Расширение режима : CM (complete main) Параметр Endianness формата : Big Идентификатор кодека : 2000 Продолжительность : 1 ч. 29 м. Вид битрейта : Постоянный Битрейт : 448 Кбит/сек Каналы : 6 каналов Расположение каналов : Front: L C R, Side: L R, LFE Частота : 48,0 КГц Битовая глубина : 16 бит Метод сжатия : С потерями Размер потока : 286 Мбайт (19%) Выравнивание : Разделение по промежуткам Продолжительность промежутка : 42 мс. (1,00 видеокадр) Время предзагрузки промежутка : 500 мс.Аудио #3: Идентификатор : 3 Формат : AC-3 Формат/Информация : Audio Coding 3 Расширение режима : CM (complete main) Параметр Endianness формата : Big Идентификатор кодека : 2000 Продолжительность : 1 ч. 29 м. Вид битрейта : Постоянный Битрейт : 192 Кбит/сек Каналы : 2 канала Расположение каналов : Front: L R Частота : 48,0 КГц Битовая глубина : 16 бит Метод сжатия : С потерями Размер потока : 122 Мбайт (8%) Выравнивание : Разделение по промежуткам Продолжительность промежутка : 42 мс. (1,00 видеокадр) Время предзагрузки промежутка : 500 мс.Аудио #4: Идентификатор : 4 Формат : AC-3 Формат/Информация : Audio Coding 3 Профиль формата : Dolby Digital Расширение режима : CM (complete main) Параметр Endianness формата : Big Идентификатор кодека : 2000 Продолжительность : 1 ч. 29 м. Вид битрейта : Постоянный Битрейт : 192 Кбит/сек Каналы : 2 канала Расположение каналов : Front: L R Частота : 48,0 КГц Битовая глубина : 16 бит Метод сжатия : С потерями Размер потока : 122 Мбайт (8%) Выравнивание : Разделение по промежуткам Продолжительность промежутка : 42 мс. (1,00 видеокадр) Время предзагрузки промежутка : 500 мс 1,46 Gb 4 2
18 марта 2016 10:23 Беглецы / Les fugitifs (1986) BDRip от Rulya74 | D. P .torrent   [Информация о файле (нажмите для просмотра)] Перевод: Профессиональный (многоголосый закадровый) CP-Digital + Дубляж (Советский)Кодек: XVIDКачество: BDRipВидео: 720x400 (16:9), 24.000 fps, XviD MPEG-4 ~2195 kbps avg, 0.318 bit/pixelСубтитры: Русские / внешние 2,06 Gb 6 2
18 марта 2016 10:23 Беглецы / Les fugitifs (1986) HDRip-AVC | iPhone .torrent   [Информация о файле (нажмите для просмотра)] Перевод: Русский многоголосый закадровыйКодек: H.264Качество: HDRip-AVC 480p iPhoneВидео: 640x480 (851x480) at 24.00 fps, AVC at 1800 kbpsЗвук: 1: 48 kHz, AAC 2.0, 160 kbps - Русский многоголосый закадровый 2: 48 kHz, AAC 2.0, 129 kbps - ФранцузскийСубтитры: РусскиеВидео #1: Идентификатор : 1 Формат : AVC Формат/Информация : Advanced Video Codec Профиль формата : [email protected] Параметр CABAC формата : Нет Параметр ReFrames формата : 2 кадра Идентификатор кодека : avc1 Идентификатор кодека/Информация : Advanced Video Coding Продолжительность : 1 ч. 29 м. Битрейт : 1800 Кбит/сек Максимальный битрейт : 4923 Кбит/сек Ширина : 640 пикселей Высота : 480 пикселей Соотношение сторон : 16:9 Режим частоты кадров : Постоянный Частота кадров : 24,000 кадра/сек Цветовое пространство : YUV Субдискретизация насыщенности : 4:2:0 Битовая глубина : 8 бит Тип развёртки : Прогрессивная Бит/(Пиксели*Кадры) : 0.244 Размер потока : 1,12 Гбайт (87%) Заголовок : Les Fugitifs _1986 Библиотека кодирования : x264 core 140 r2377+40 929f149 tMod [[email protected]:2:0 X86_64] Настройки программы : cabac=0 / ref=2 / deblock=1:-2:-2 / analyse=0x1:0x131 / me=umh / subme=7 / psy=1 / fade_compensate=0.10 / psy_rd=1.00:0.00 / mixed_ref=1 / me_range=32 / chroma_me=1 / trellis=2 / 8x8dct=0 / cqm=0 / deadzone=21,11 / fast_pskip=0 / chroma_qp_offset=-2 / threads=12 / lookahead_threads=2 / sliced_threads=0 / nr=0 / decimate=1 / interlaced=0 / bluray_compat=0 / constrained_intra=0 / fgo=0 / bframes=0 / weightp=0 / keyint=250 / keyint_min=24 / scenecut=40 / intra_refresh=0 / rc_lookahead=120 / rc=2pass / mbtree=1 / bitrate=1800 / ratetol=1.0 / qcomp=0.60 / qpmin=0:0:0 / qpmax=69:69:69 / qpstep=4 / cplxblur=20.0 / qblur=0.5 / vbv_maxrate=5000 / vbv_bufsize=5000 / nal_hrd=none / filler=0 / ip_ratio=1.40 / aq=1:1.00 / aq-sensitivity=10.00 / aq-factor=1.00:1.00:1.00 / aq2=0 / aq3=0 Язык : French Дата кодирования : UTC 2014-02-03 12:08:33 Дата пометки : UTC 2014-02-03 12:09:12 Коэффициенты матрицы : BT.709Видео #2: Идентификатор : 8 Формат : JPEG Идентификатор кодека : jpeg Продолжительность : 1 ч. 29 м. Вид битрейта : Переменный Битрейт : 1085 бит/сек Ширина : 640 пикселей Высота : 360 пикселей Соотношение сторон : 16:9 Режим частоты кадров : Переменный Частота кадров : 0,002 кадр/сек Минимальная частота кадров : 0,002 кадр/сек Максимальная частота кадров : 0,003 кадр/сек Цветовое пространство : YUV Субдискретизация насыщенности : 4:2:0 Битовая глубина : 8 бит Метод сжатия : С потерями Бит/(Пиксели*Кадры) : 2.355 Размер потока : 795 Кбайт (0%) Язык : French Дата кодирования : UTC 2014-02-03 14:25:00 Дата пометки : UTC 2014-02-03 14:25:01Аудио #1: Идентификатор : 2 Формат : AAC Формат/Информация : Advanced Audio Codec Профиль формата : LC Идентификатор кодека : 40 Продолжительность : 1 ч. 29 м. Вид битрейта : Переменный Битрейт : 144 Кбит/сек Максимальный битрейт : 219 Кбит/сек Каналы : 2 канала Расположение каналов : Front: L R Частота : 48,0 КГц Метод сжатия : С потерями Размер потока : 90,7 Мбайт (7%) Заголовок : AAC MVO Язык : Russian Дата кодирования : UTC 2014-02-03 12:02:07 Дата пометки : UTC 2014-02-03 12:09:12Аудио #2: Идентификатор : 4 Формат : AAC Формат/Информация : Advanced Audio Codec Профиль формата : LC Идентификатор кодека : 40 Продолжительность : 1 ч. 29 м. Вид битрейта : Переменный Битрейт : 110 Кбит/сек Максимальный битрейт : 178 Кбит/сек Каналы : 2 канала Расположение каналов : Front: L R Частота : 48,0 КГц Метод сжатия : С потерями Размер потока : 70,4 Мбайт (5%) Заголовок : AAC Original Язык : French Дата кодирования : UTC 2014-02-03 12:06:41 Дата пометки : UTC 2014-02-03 12:09:12 1,28 Gb 2 3
18 марта 2016 10:23 Беглецы / Les Fugitifs (1986) BDRip 720p от NNNB | D,P .torrent   [Информация о файле (нажмите для просмотра)] Перевод: Дублированный, профессиональный многоголосыйКачество: BDRip 720pВидео: 1200x720, 5 800 Кбит/сек, 24.000 кадр/сек, AVC, x264, [email protected], 0.262 Бит/[Пиксели*Кадры], 2passАудио 1: AC3 5.1 48 kHz 448 kbps -Профессиональный многоголосыйАудио 2: AC3 2.0 48 kHz 192 kbps -Многоголосый закадровый, ОРТАудио 3: AC3 2.0 48 kHz 192 kbps -Советский дубляжАудио 4: AC3 2.0 48 kHz 192 kbps -French 4,37 Gb 6 4
18 марта 2016 10:23 Беглецы / Les Fugitifs (1986) BDRip 1080p от MediaClub | D, P .torrent   [Информация о файле (нажмите для просмотра)] Перевод: Дублированный, профессиональный многоголосыйКачество: BDRip 1080pВидео: MPEG-4 AVC, 16 Mбит/с, 1916x1080, 24.000 кадр/сАудио #1: Русский (AC3, 6 ch, 448 Кбит/с) / Профессиональный многоголосыйАудио #2: Русский (AC3, 2 ch, 192 Кбит/с) / Дублированный (Советский)Аудио #3: Русский (AC3, 2 ch, 192 Кбит/с) / Профессиональный многоголосый (ОРТ)Аудио #4: Французский (AC3, 2 ch, 192 Кбит/с)Субтитры: Русские, французскиеВидео: Идентификатор : 1 Формат : AVC Формат/Информация : Advanced Video Codec Профиль формата : [email protected] Параметр CABAC формата : Да Параметр ReFrames формата : 4 кадра Идентификатор кодека : V_MPEG4/ISO/AVC Продолжительность : 1 ч. 29 м. Битрейт : 16,0 Мбит/сек Ширина : 1916 пикселей Высота : 1080 пикселей Соотношение сторон : 16:9 Режим частоты кадров : Постоянный Частота кадров : 24,000 кадра/сек Цветовое пространство : YUV Субдискретизация насыщенности : 4:2:0 Битовая глубина : 8 бит Тип развёртки : Прогрессивная Бит/(Пиксели*Кадры) : 0.322 Размер потока : 9,76 Гбайт (92%) Заголовок : -=MediaClub-kaspr=- Библиотека кодирования : x264 core 130 r2273 b3065e6 Настройки программы : cabac=1 / ref=4 / deblock=1:-3:-3 / analyse=0x3:0x133 / me=umh / subme=11 / psy=1 / psy_rd=1.00:0.20 / mixed_ref=1 / me_range=32 / chroma_me=1 / trellis=2 / 8x8dct=1 / cqm=0 / deadzone=21,11 / fast_pskip=0 / chroma_qp_offset=-3 / threads=12 / lookahead_threads=2 / sliced_threads=0 / nr=0 / decimate=0 / interlaced=0 / bluray_compat=0 / constrained_intra=0 / bframes=8 / b_pyramid=2 / b_adapt=2 / b_bias=0 / direct=3 / weightb=1 / open_gop=0 / weightp=2 / keyint=240 / keyint_min=24 / scenecut=40 / intra_refresh=0 / rc=2pass / mbtree=0 / bitrate=16000 / ratetol=1.0 / qcomp=0.60 / qpmin=0 / qpmax=69 / qpstep=4 / cplxblur=20.0 / qblur=0.5 / ip_ratio=1.40 / pb_ratio=1.30 / aq=1:1.00 Default : Да Forced : НетАудио #1: Идентификатор : 2 Формат : AC-3 Формат/Информация : Audio Coding 3 Расширение режима : CM (complete main) Параметр Endianness формата : Big Идентификатор кодека : A_AC3 Продолжительность : 1 ч. 29 м. Вид битрейта : Постоянный Битрейт : 448 Кбит/сек Каналы : 6 каналов Расположение каналов : Front: L C R, Side: L R, LFE Частота : 48,0 КГц Битовая глубина : 16 бит Метод сжатия : С потерями Размер потока : 286 Мбайт (3%) Заголовок : MVO-6ch Язык : Russian Default : Да Forced : ДаАудио #2: Идентификатор : 3 Формат : AC-3 Формат/Информация : Audio Coding 3 Расширение режима : CM (complete main) Параметр Endianness формата : Big Идентификатор кодека : A_AC3 Продолжительность : 1 ч. 29 м. Вид битрейта : Постоянный Битрейт : 192 Кбит/сек Каналы : 2 канала Расположение каналов : Front: L R Частота : 48,0 КГц Битовая глубина : 16 бит Метод сжатия : С потерями Размер потока : 122 Мбайт (1%) Заголовок : Дубляж Язык : Russian Default : Нет Forced : НетАудио #3: Идентификатор : 4 Формат : AC-3 Формат/Информация : Audio Coding 3 Расширение режима : CM (complete main) Параметр Endianness формата : Big Идентификатор кодека : A_AC3 Продолжительность : 1 ч. 29 м. Вид битрейта : Постоянный Битрейт : 192 Кбит/сек Каналы : 2 канала Расположение каналов : Front: L R Частота : 48,0 КГц Битовая глубина : 16 бит Метод сжатия : С потерями Размер потока : 122 Мбайт (1%) Заголовок : MVO (OPT) Язык : Russian Default : Нет Forced : НетАудио #4: Идентификатор : 5 Формат : AC-3 Формат/Информация : Audio Coding 3 Расширение режима : CM (complete main) Параметр Endianness формата : Big Идентификатор кодека : A_AC3 Продолжительность : 1 ч. 29 м. Вид битрейта : Постоянный Битрейт : 192 Кбит/сек Каналы : 2 канала Расположение каналов : Front: L R Частота : 48,0 КГц Битовая глубина : 16 бит Метод сжатия : С потерями Размер потока : 122 Мбайт (1%) Язык : French Default : Нет Forced : Нет 10,61 Gb 6 2
18 марта 2016 10:23 Беглецы / Les Fugitifs (1986) DVD9 .torrent   [Информация о файле (нажмите для просмотра)] Перевод: дублированныйСубтитры: РусскиеКодек: MPEG2Качество: DVD9Видео: NTSC 16:9 () VBR, ~9000KbpsЗвук: Аудио#1 - Русский (Dolby AC3, 2 ch), 48000 Hz, 256 Kbps Аудио#2 - Французский (Dolby AC3, 6 ch), 48000 Hz, 448 Kbps 5,06 Gb 5 5
18 марта 2016 10:23 Беглецы / Les fugitifs (1986) DVDRip от ExKinoRay .torrent   [Информация о файле (нажмите для просмотра)] Перевод: Профессиональный, многоголосый (ОРТ) / Профессиональный, многоголосыйКодек: DivXКачество: DVDRipВидео: 704x416, 1996 Кбит/сАудио: #1: AC3, 2 ch, 192 Кбит/с (Многоголосый) (ОРТ)Аудио: #2: AC3, 2 ch, 192 Кбит/с (Многоголосый) 1,43 Gb 4 1

vtorrents.net

!

: : The Runner : 2015: : , : , , , , ,

IMDB: 4.6/10 (3 737 ) : 4.8/10 (1 658 )

:: . . , . , . ? , , ??

: : 1:30 : : HDTVRip

740

722

udp://shubt.net:2710

52 3 37

http://xbtrutor.com:2710/announce

132 5 40065

http://tracker.filetracker.pl:8089/announce

16 91 39

http://tracker2.wasabii.com.tw:6969/announce

11 54 70

http://tracker.grepler.com:6969/announce

21 68 47

http://80.246.243.18:6969/announce

78 78 51

http://125.227.35.196:6969/announce

20 24 84

http://tracker.tiny-vps.com:6969/announce

33 65 98

http://87.248.186.252:8080/announce

1 43 13

http://www.torrentheaven.de/announce.php

43 14 94

http://tracker.mp3-es.com/announce.php

93 46 64

http://tracker.calculate.ru:6969/announce

85 64 92

http://210.244.71.25:6969/announce

89 3 2021

http://46.4.109.148:6969/announce

37 70 27

http://tracker.dler.org:6969/announce

29 94 43

1,17 Gb

3745

Beglec.2016.HDTVRip.Files-x (2 )

01.Beglec.2016.HDTVRip.Files-x.avi (600,5 Mb) 02.Beglec.2016.HDTVRip.Files-x.avi (600,65 Mb)

700

787

udp://shubt.net:2710

3 2 1

http://announce.opensharing.org:2710/announce

63 10 53

udp://open.demonii.com:1337

66 24 47

http://tracker.filetracker.pl:8089/announce

49 65 52

http://tracker2.wasabii.com.tw:6969/announce

95 94 43

http://tracker.grepler.com:6969/announce

28 67 61

http://80.246.243.18:6969/announce

51 29 44

http://125.227.35.196:6969/announce

25 39 100

http://tracker.tiny-vps.com:6969/announce

28 20 61

http://87.248.186.252:8080/announce

37 22 100

http://www.torrentheaven.de/announce.php

40 49 53

http://tracker.mp3-es.com/announce.php

16 71 81

http://tracker.calculate.ru:6969/announce

55 91 35

http://210.244.71.25:6969/announce

9 31 164

http://46.4.109.148:6969/announce

91 78 77

http://tracker.dler.org:6969/announce

44 95 88

5,41 Gb

60

Beglec.2016.HDTV.(1080i).Nikolspup (2 )

Beglec.(01.seriya.iz.02).2016.HDTV.(1080i).Nikolspup.ts (2,71 Gb) Beglec.(02.seriya.iz.02).2016.HDTV.(1080i).Nikolspup.ts (2,7 Gb)

Скачать фильм Беглецы через торрент в хорошем качестве бесплатно HDTVRip

piratbit.ru

Раздают: 1 [ 0 KB/s ]
Размер: 1.47 GB | Добавлен: 1 год 11 мес. назад | Торрент скачан:480 раз
Реклама Дарим 3000 рублей за регистрацию, не упусти свой шанс получить шикарный бонус!!!

16-11-2014 18:14 Беглецы Скачать торрент  

Беглецы

Год выпуска: 2014Страна: Россия , Казахстан / Forma Pro FilmsЖанр: триллер, приключенияПродолжительность: 01:28:09Перевод: Не требуетсяРежиссер: Рустам Мосафир В ролях: Пётр Фёдоров, Елизавета Боярская, Валерий Гришко, Сергей Цепов, Александр Самойлов, Ерик Жолжаксынов, Кирилл Анисимов, Юрис Лауциньш, Сейдулла Молдаханов, Гульнур Кожахметова

Описание: Он — вне закона, по его пятам идут охотники за головами. Она знает тайгу, как свои пять пальцев, и только вместе они могут остаться в живых. Тайга общая: кто сильнее, тот и прав, а охота уже началась…

Качество: HDTVRipФормат: AVIВидео кодек: XviDАудио кодек: AC3Видео: 720x400 (1.80:1), 25 fps, XviD build 50 ~1922 kbps avg, 0.27 bit/pixel(0.271 bit/pixel)Аудио: 48 kHz, AC3 Dolby Digital, 3/2 (L,C,R,l,r) + LFE ch, ~448 kbps

ОбщееПолное имя : F:\кино\Беглецы.2014.HDTVRip.aviФормат : AVIФормат/Информация : Audio Video InterleaveРазмер файла : 1,47 ГбайтПродолжительность : 1 ч. 28 м.Общий поток : 2381 Кбит/секПрограмма кодирования : VirtualDubMod 1.5.10.3 | www.virtualdub-fr.org || (build 2550/release)Библиотека кодирования : VirtualDubMod build 2550/release

ВидеоИдентификатор : 0Формат : MPEG-4 VisualПрофиль формата : Advanced [email protected]Параметр BVOP формата : 2Параметр QPel формата : НетПараметр GMC формата : Без точки переходаПараметр матрицы формата : Default (H.263)Идентификатор кодека : XVIDИдентификатор кодека/Подсказка : XviDПродолжительность : 1 ч. 28 м.Битрейт : 1923 Кбит/секШирина : 720 пикселейВысота : 400 пикселейСоотношение сторон : 16:9Частота кадров : 25,000 кадров/секЦветовое пространство : YUVСубдискретизация насыщенности : 4:2:0Битовая глубина : 8 битТип развёртки : ПрогрессивнаяМетод сжатия : С потерямиБит/(Пиксели*Кадры) : 0.267Размер потока : 1,18 Гбайт (81%)Библиотека кодирования : XviD 1.2.1 (UTC 2008-12-04)

АудиоИдентификатор : 1Формат : AC-3Формат/Информация : Audio Coding 3Расширение режима : CM (complete main)Параметр Endianness формата : BigИдентификатор кодека : 2000Продолжительность : 1 ч. 28 м.Вид битрейта : ПостоянныйБитрейт : 448 Кбит/секКаналы : 6 каналовРасположение каналов : Front: L C R, Side: L R, LFEЧастота : 48,0 КГцМетод сжатия : С потерямиРазмер потока : 283 Мбайт (19%)Выравнивание : Разделение по промежуткамПродолжительность промежутка : 40 мс. (1,00 видеокадр)Время предзагрузки промежутка : 500 мс.

Скачать Беглецы через торрент http://pic.pb.wtf/images/8/9zwnd.jpg Скачать фильм Беглецы через торрент бесплантно в хорошем качестве Описание: Он — вне закона, по его пятам идут охотники за головами. Она знает тайгу, как свои пять пальцев, и только вместе они могут ... 2015-10-27 17:29 8.8 10 40

Loading...

Loading...

Последний раз редактировалось: coc900 (2015-10-27 17:29), всего редактировалось 1 раз

Рекламный пират

20-11-2014 23:21 Беглецы Скачать торрент  

Заценим. Спасибо за раздачу

29-11-2014 14:23 Беглецы Скачать торрент  

Спасибо !!!

27-10-2015 17:31 Беглецы Скачать торрент  

Релиз обновлен ! Просьба перекачать торрент файл!

27-10-2015 18:34 Беглецы Скачать торрент  

Охота на пиранью?

27-10-2015 18:47 Беглецы Скачать торрент  

недавно смотрел по тв. могли бы сделать и по-круче, и оконцовочку по-лучше.мне понравилось: золото, медведи, охотники за беглыми и просто охотники.

28-10-2015 03:58 Беглецы Скачать торрент  

Дурдом полный! Все одно и то-же по 100 раз заливают на трекеры! Только перериповал и файл получился на 50Мб. поменьше или побольше и сразу на трекер! Новое надо что-то заливать,а не СТАРОЕ и по 100 раз перерипоаное! Жаль,что я не умею залить на трекер раздачу! Есть много хроших фильмов! Ищите! И найдете! Конечно, наша кинопромышленность не блещет, но ведь можно и что-то новое найти, а не заливать одно и то-же по 10 раз! Кому надо-сам перерипует!!!!!!

Дорогой пользователь! Огромная просьба, поблагодарите релизера, оцените раздачу и оставьте свои комментарий, если Вы скачали Беглецы через торрент бесплатно! Внесите свою лепту в развитие PiratBit!

Комментировать посты могут только пользователи прошедшие не сложную регистрацию

Беглецы через торрент Скачать бесплатно Беглецы Беглецы скачать торрент Беглецы смотреть онлайн Cкачать фильм Беглецы бесплатно Беглецы скачать торрент в хорошем качестве Беглецы смотреть онлайн бесплатно в хорошем качестве

Вы не можете начинать темыВы не можете отвечать на сообщенияВы не можете редактировать свои сообщенияВы не можете удалять свои сообщенияВы не можете голосовать в опросахВы не можете прикреплять файлы к сообщениямВы можете скачивать файлы


Смотрите также