Алладин 3 скачать через торрент бесплатно в хорошем качестве


Скачать фильм Аладдин и король разбойников (1996) через торрент

gig-torrent.net

4 марта 2016 09:48 Аладдин и король разбойников / Aladdin and the king of thieves (1995) DVDRip от Generalfilm | КПК .torrent   [Информация о файле (нажмите для просмотра)] Качество: DVDRip | КПКВидео: кодеккодек: x264,формат: mp4,размер кадра: 480х256, битрейт: 350 кб/сАудио: языкрусский, перевод: Дублированный, 269,81 Mb 16 3
4 марта 2016 09:48 Аладдин и король разбойников / Aladdin and the King of Thiev (1996) DVDRip-AVC от New-Team | D .torrent   [Информация о файле (нажмите для просмотра)] Перевод: Профессиональный (полное дублирование)Контейнер: MKVВидео: 720->1024x552 (1,85:1), 25 fps, h364 ~ 1830 kbps avg, 0.184 bit/pixelАудио: 48 kHz, Dolby Digital AC3 2.0, 192 kbps DUBАудио: 48 kHz, Dolby Digital AC3 5.1, 448 kbps АнглийскийАудио: 48 kHz, Dolby Digital AC3 2.0, 192 kbps ПольскийСубтитры: SoftSub (srt)Видео: Идентификатор : 1 Формат : AVC Формат/Информация : Advanced Video Codec Профиль формата : [email protected] Параметр CABAC формата : Да Параметр ReFrames формата : 8 кадров Идентификатор кодека : V_MPEG4/ISO/AVC Продолжительность : 1 ч. 18 м. Битрейт : 1830 Кбит/сек Ширина : 720 пикселей Высота : 552 пикселя Соотношение сторон : 1,85:1 Режим частоты кадров : Постоянный Частота кадров : 25,000 кадров/сек Цветовое пространство : YUV Субдискретизация насыщенности : 4:2:0 Битовая глубина : 8 бит Тип развёртки : Прогрессивная Бит/(Пиксели*Кадры) : 0.184 Размер потока : 996 Мбайт (67%) Заголовок : Источник DVD Библиотека кодирования : x264 core 138 r2356 a1d3d17 Настройки программы : cabac=1 / ref=8 / deblock=1:-2:-1 / analyse=0x3:0x113 / me=umh / subme=10 / psy=1 / psy_rd=1.00:0.05 / mixed_ref=1 / me_range=32 / chroma_me=1 / trellis=2 / 8x8dct=1 / cqm=0 / deadzone=21,11 / fast_pskip=0 / chroma_qp_offset=-3 / threads=6 / lookahead_threads=1 / sliced_threads=0 / nr=0 / decimate=0 / interlaced=0 / bluray_compat=0 / constrained_intra=0 / bframes=8 / b_pyramid=2 / b_adapt=2 / b_bias=0 / direct=3 / weightb=1 / open_gop=0 / weightp=2 / keyint=250 / keyint_min=25 / scenecut=40 / intra_refresh=0 / rc=2pass / mbtree=0 / bitrate=1830 / ratetol=1.0 / qcomp=0.60 / qpmin=0 / qpmax=69 / qpstep=4 / cplxblur=20.0 / qblur=0.5 / ip_ratio=1.40 / pb_ratio=1.30 / aq=1:1.00 Язык : English Default : Да Forced : НетАудио #1: Идентификатор : 2 Формат : AC-3 Формат/Информация : Audio Coding 3 Профиль формата : Dolby Digital Расширение режима : CM (complete main) Параметр Endianness формата : Big Идентификатор кодека : A_AC3 Продолжительность : 1 ч. 18 м. Вид битрейта : Постоянный Битрейт : 192 Кбит/сек Каналы : 2 канала Расположение каналов : Front: L R Частота : 48,0 КГц Битовая глубина : 16 бит Метод сжатия : С потерями Размер потока : 107 Мбайт (7%) Заголовок : Источник DVD Dolby Digital 2,0 192 kbps DUB Язык : Russian Default : Да Forced : НетАудио #2: Идентификатор : 3 Формат : AC-3 Формат/Информация : Audio Coding 3 Расширение режима : CM (complete main) Параметр Endianness формата : Big Идентификатор кодека : A_AC3 Продолжительность : 1 ч. 18 м. Вид битрейта : Постоянный Битрейт : 448 Кбит/сек Каналы : 6 каналов Расположение каналов : Front: L C R, Side: L R, LFE Частота : 48,0 КГц Битовая глубина : 16 бит Метод сжатия : С потерями Размер потока : 251 Мбайт (17%) Заголовок : Источник DVD Dolby Digital 5,1 448kb Язык : English Default : Нет Forced : НетАудио #3: Идентификатор : 4 Формат : AC-3 Формат/Информация : Audio Coding 3 Профиль формата : Dolby Digital Расширение режима : CM (complete main) Параметр Endianness формата : Big Идентификатор кодека : A_AC3 Продолжительность : 1 ч. 18 м. Вид битрейта : Постоянный Битрейт : 192 Кбит/сек Каналы : 2 канала Расположение каналов : Front: L R Частота : 48,0 КГц Битовая глубина : 16 бит Метод сжатия : С потерями Размер потока : 107 Мбайт (7%) Заголовок : Источник DVD Dolby Digital 2,0 192 kbps DUB Язык : Polish Default : Нет Forced : Нет 1,46 Gb 50 6
4 марта 2016 09:48 Аладдин и король разбойников / Aladdin and the King of Thiev (1996) DVDRip от New-Team | D .torrent   [Информация о файле (нажмите для просмотра)] Перевод: Профессиональный (полное дублирование)Контейнер: AVIВидео: 720x384 (1,85:1), 25 fps, XviD ~ 1194 kbps avg, 0.173 bit/pixelАудио: 48 kHz, MP3 2.0, 128 kbpsВидео: Идентификатор : 0 Формат : MPEG-4 Visual Профиль формата : Advanced [email protected] Параметр BVOP формата : 1 Параметр QPel формата : Нет Параметр GMC формата : Без точки перехода Параметр матрицы формата : Выборочная Идентификатор кодека : XVID Идентификатор кодека/Подсказка : XviD Продолжительность : 1 ч. 18 м. Битрейт : 1194 Кбит/сек Ширина : 720 пикселей Высота : 384 пикселя Соотношение сторон : 1,85:1 Частота кадров : 25,000 кадров/сек Цветовое пространство : YUV Субдискретизация насыщенности : 4:2:0 Битовая глубина : 8 бит Тип развёртки : Прогрессивная Метод сжатия : С потерями Бит/(Пиксели*Кадры) : 0.173 Размер потока : 668 Мбайт (90%) Библиотека кодирования : XviD 73Аудио: Идентификатор : 1 Формат : MPEG Audio Версия формата : Version 1 Профиль формата : Layer 3 Идентификатор кодека : 55 Идентификатор кодека/Подсказка : MP3 Продолжительность : 1 ч. 18 м. Вид битрейта : Постоянный Битрейт : 128 Кбит/сек Каналы : 2 канала Частота : 48,0 КГц Метод сжатия : С потерями Размер потока : 71,6 Мбайт (10%) Выравнивание : Соединение по промежуткам Продолжительность промежутка : 40 мс. (1,00 видеокадр) Время предзагрузки промежутка : 504 мс. Библиотека кодирования : LAME3.99r Настройки программы : -m s -V 4 -q 2 -lowpass 17 -b 128 745,11 Mb 27 3
4 марта 2016 09:48 Аладдин и король разбойников / Aladdin and the King of Thiev (1996) DVDRip от New-Team | D .torrent   [Информация о файле (нажмите для просмотра)] Перевод: Профессиональный (полное дублирование)Контейнер: AVIВидео: 720x384 (1,85:1), 25 fps, XviD ~ 1823 kbps avg, 0.264 bit/pixelАудио: 48 kHz, Dolby Digital AC3 2.0, 192 kbps DUBАудио: 48 kHz, Dolby Digital AC3 5.1, 448 kbps АнглийскийАудио: 48 kHz, Dolby Digital AC3 2.0, 192 kbps ПольскийСубтитры: SoftSub (srt)Видео: Идентификатор : 0 Формат : MPEG-4 Visual Профиль формата : Advanced [email protected] Параметр BVOP формата : 1 Параметр QPel формата : Нет Параметр GMC формата : Без точки перехода Параметр матрицы формата : Выборочная Идентификатор кодека : XVID Идентификатор кодека/Подсказка : XviD Продолжительность : 1 ч. 18 м. Битрейт : 1823 Кбит/сек Ширина : 720 пикселей Высота : 384 пикселя Соотношение сторон : 1,85:1 Частота кадров : 25,000 кадров/сек Цветовое пространство : YUV Субдискретизация насыщенности : 4:2:0 Битовая глубина : 8 бит Тип развёртки : Прогрессивная Метод сжатия : С потерями Бит/(Пиксели*Кадры) : 0.264 Размер потока : 1020 Мбайт (68%) Библиотека кодирования : XviD 73Аудио #1: Идентификатор : 1 Формат : AC-3 Формат/Информация : Audio Coding 3 Профиль формата : Dolby Digital Расширение режима : CM (complete main) Параметр Endianness формата : Big Идентификатор кодека : 2000 Продолжительность : 1 ч. 18 м. Вид битрейта : Постоянный Битрейт : 192 Кбит/сек Каналы : 2 канала Расположение каналов : Front: L R Частота : 48,0 КГц Битовая глубина : 16 бит Метод сжатия : С потерями Размер потока : 107 Мбайт (7%) Выравнивание : Разделение по промежуткам Продолжительность промежутка : 40 мс. (1,00 видеокадр) Время предзагрузки промежутка : 500 мс.Аудио #2: Идентификатор : 2 Формат : AC-3 Формат/Информация : Audio Coding 3 Расширение режима : CM (complete main) Параметр Endianness формата : Big Идентификатор кодека : 2000 Продолжительность : 1 ч. 18 м. Вид битрейта : Постоянный Битрейт : 448 Кбит/сек Каналы : 6 каналов Расположение каналов : Front: L C R, Side: L R, LFE Частота : 48,0 КГц Битовая глубина : 16 бит Метод сжатия : С потерями Размер потока : 251 Мбайт (17%) Выравнивание : Разделение по промежуткам Продолжительность промежутка : 40 мс. (1,00 видеокадр) Время предзагрузки промежутка : 500 мс.Аудио #3: Идентификатор : 3 Формат : AC-3 Формат/Информация : Audio Coding 3 Профиль формата : Dolby Digital Расширение режима : CM (complete main) Параметр Endianness формата : Big Идентификатор кодека : 2000 Продолжительность : 1 ч. 18 м. Вид битрейта : Постоянный Битрейт : 192 Кбит/сек Каналы : 2 канала Расположение каналов : Front: L R Частота : 48,0 КГц Битовая глубина : 16 бит Метод сжатия : С потерями Размер потока : 107 Мбайт (7%) Выравнивание : Разделение по промежуткам Продолжительность промежутка : 40 мс. (1,00 видеокадр) Время предзагрузки промежутка : 500 мс 1,46 Gb 405 20
4 марта 2016 09:48 Аладдин и король разбойников / Aladdin and the king of thieves (1995) DVDRip .torrent   [Информация о файле (нажмите для просмотра)] Перевод: Профессиональный (полное дублирование)Кодек: XviDКачество: DVDRipВидео: 720х384, 25 кадр/сек, 2239kbps, качество 0,33 b/p, 1,88:1Звук: AC-3 Dolby, 48000 hz, 192kbps, 2 канала 1,33 Gb 43 5

Алладин (1, 2, 3 сезон) Скачать Торрент

s1e01 - Air Feather Friends.avi (237.47 MB) s1e02 - Bad Mood Rising.avi (238.59 MB) s1e03 - To Cure a Thief.avi (237.85 MB) s1e04 - Do the Rat Thing.avi (246.98 MB) s1e05 - Never Say Nefir.avi (238.13 MB) s1e06 - Getting the Bugs Out.avi (237.81 MB) s1e07 - The Vapor Chase.avi (237.53 MB) s1e08 - Garden of Evil.avi (228.84 MB) s1e09 - Much Abu About Something.avi (180.69 MB) s1e10 - My Fair Aladdin.avi (236.93 MB) s1e11 - Some Enchanted Genie.avi (221.79 MB) s1e12 - Web of Fear.avi (247.78 MB) s1e13 - Mudder's Day.avi (238.18 MB) s1e14 - Plunder the Sea.avi (234.92 MB) s1e15 - Strike Up the Sand.avi (229.02 MB) s1e16 - I Never Mechanism I Didn't Like.avi (236.35 MB) s1e17 - Fowl Weather.avi (237.89 MB) s1e18 - Forget Me Lots.avi (225.28 MB) s1e19 - Scare Necessities.avi (235.67 MB) s1e20 - Sand Switch.avi (223.67 MB) s1e21 - Lost and Founded.avi (228.94 MB) s1e22 - Moonlight Madness.avi (227.96 MB) s1e23 - The Flawed Couple.avi (236.56 MB) s1e24 - Rain of Terror.avi (228.28 MB) s1e25 - Dune Quixote.avi (236.74 MB) s1e26 - The Day the Bird Stood Still.avi (228.77 MB) s1e27 - Of Ice and Men.avi (237.74 MB) s1e28 - Opposites Detract.avi (228.66 MB) s1e29 - Caught by the Tale.avi (236.25 MB) s1e30 - Elemental, My Dear Jasmine.avi (237.08 MB) s1e31 - Smolder and Wiser.avi (228.30 MB) s1e32 - The Game.avi (228.23 MB) s1e33 - Snowman is an Island.avi (227.89 MB) s1e34 - The Animal Kingdom.avi (236.92 MB) s1e35 - Power to the Parrot.avi (217.87 MB) s1e36 - The Sands of Fate.avi (223.46 MB) s1e37 - The Citadel.avi (237.62 MB) s1e38 - Poor Iago.avi (236.99 MB) s1e39 - The Secret of Dagger Rock.avi (226.84 MB) s1e40 - In the Heat of the Fright.avi (228.66 MB) s1e41 - The Seven Faces of Genie.avi (237.62 MB) s1e42 - The Wind Jackal of Mozenrath.avi (237.66 MB) s1e43 - A Clockwork Hero.avi (221.39 MB) s1e44 - Mission - Imp Possible.avi (228.75 MB) s1e45 - Stinker Belle.avi (270.33 MB) s1e46 - Shadow of a Doubt.avi (228.08 MB) s1e47 - Smells Like Trouble.avi (228.70 MB) s1e48 - The Way We War.avi (229.09 MB) s1e49 - Night of a Living Mud.avi (228.77 MB) s1e50 - Egg-stra Protection.avi (237.22 MB) s1e51 - Heads, You Lose.avi (227.06 MB) s1e52 - The Love Bug.avi (228.74 MB) s1e53 - When Chaos Comes Calling.avi (228.99 MB) s1e54 - Armored and Dangerous.avi (229.05 MB) s1e55 - Shark Treatment.avi (224.23 MB) s1e56 - Black Sand.avi (237.02 MB) s1e57 - Love at First Sprite.avi (224.09 MB) s1e58 - Vocal Hero.avi (228.68 MB) s1e59 - The Lost City of the Sun.avi (228.68 MB) s1e60 - As the Netherworld Turns.avi (229.04 MB) s1e61 - Seems Like Old Crimes - Part One.avi (229.02 MB) s1e62 - Seems Like Old Crimes - Part Two.avi (228.57 MB) s1e63 - From Hippsodeth, With Love.avi (229.09 MB) s1e64 - Destiny of Fire.avi (223.62 MB) s1e65 - The Return of Malcho.avi (224.06 MB) s2e01 - Raiders of the Lost Shark.avi (227.95 MB) s2e02 - Sneeze the Day.avi (238.01 MB) s2e03 - The Prophet Motive.avi (233.70 MB) s2e04 - The Stinking Feeling.avi (228.73 MB) s2e05 - Beast or Famine.avi (237.78 MB) s2e06 - The Spice is Right.avi (228.37 MB) s2e07 - Hero with a Thousand Feathers.avi (237.15 MB) s2e08 - Witch Way Did She Go.avi (237.76 MB) s2e09 Sea No Evil.avi (237.37 MB) s2e10 - A Sultan Worth His Salt.avi (223.33 MB) s2e11 - Genie Hunt.avi (236.97 MB) s2e12 - The Lost Ones.avi (194.20 MB) s2e13 - Eye of the Beholder.avi (237.01 MB) s3e01 - The Hunted.avi (222.82 MB) s3e02 - Riders Redux.avi (223.68 MB) s3e03 - The Book of Khartoum.avi (223.67 MB) s3e04 - While the City Snoozes.avi (223.52 MB) s3e05 - Two to Tangle.avi (231.28 MB) s3e06 - The Ethereal.avi (223.66 MB) s3e07 - The Shadow Knows.avi (233.80 MB) s3e08 - The Great Rift.avi (223.48 MB)

www.gvirt.com

Аладдин / Aladdin [1992-1995мультфильм мюзикл ] скачать через торрент

piratbit.ru

Качают: 1 [ 0 KB/s ]
Размер: 3.99 GB | Добавлен: 5 лет 11 мес. назад | Торрент скачан:722 раза
Реклама Дарим 3000 рублей за регистрацию, не упусти свой шанс получить шикарный бонус!!!

23-11-2011 00:47 Аладдин Скачать торрент  

Аладдин/AladdinГод выпуска: 1992Страна: СШАЖанр: мультфильм, мюзикл, фэнтези, мелодрама, приключения, семейныйПродолжительность: 01:26:02Перевод: Профессиональный (полное дублирование)Субтитры: ОтсутствуютРежиссер: Рон Клементс, Джон МаскерВ ролях: Скотт Венгер, Робин Уильямс, Линда Ларкин, Джонатан Фриман, Фрэнк Уэлкер, Гилберт Готтфрид, Дуглас Сил, Чарльз Адлер, Джек Эйнджел, Кори Бертон

Описание: В славном граде Аграба живет Аладдин, веселый воришка с золотым сердцем. Живет и не знает, что вскоре его ждет величайшее приключение в жизни. Ведь только с его помощью черный маг Джафар может овладеть невероятным сокровищем лампой, в которой заключен исполняющий желания могущественный Джинн. И только хитроумие, смекалка и доброта Аладдина и его друзей обезьянки Абу, принцессы Джасмин и самого Джинна способны помешать Джафару завладеть лампой и захватить власть над миром.

Качество: DVDRipФормат: AVIВидео кодек: XviDАудио кодек: AC-3Видео: 720x432 (1.667), 25.000 fps, 1 802 Kbps (0.232 bit/pixel)Аудио: 48.0 KHz, 6 ch, 384 Kbps, CBR (Russian)

Аладдин 2: Возвращение Джафара/Aladdin 2: The Return of JafarГод выпуска: 1994Страна: СШАЖанр: мультфильм, мюзикл, фэнтези, мелодрама, приключения, семейныйПродолжительность: 01:06:26Перевод: Профессиональный (полное дублирование)Субтитры: ОтсутствуютРежиссер: Тоби Шелтон, Тэд Стоунс, Алан ЗасловВ ролях: Джейсон Александр, Джонатан Фриман, Джефф Беннетт, Гилберт Готтфрид, Вэл Бэттин, Брэд Кэйн, Лиз Колэуэй, Линда Ларкин, Дэн Кастелланета, Б.Дж. Уорд

Описание: Продолжение волшебной сказки об Аладдине. Вторая часть захватывающей трилогии о храбром уличном воришке начинается прямо там, где закончился первый мультфильм. Уже казалось бы, что черному чародею и новоявленному джинну Джафару суждено навеки остаться пленником волшебной лампы, но ему удается освободиться! И на уме у коварного злодея лишь одно: он жаждет отомстить Аладдину.А тем временем, в Аграбе жизнь идет своим чередом. Неунывающий проказник Джинн вернулся из кругосветного путешествия, и рассказывает друзьям невероятные истории о своих приключениях. Но счастье продлится недолго. Нашим героям вновь придется встретиться с Джафаром лицом к лицу, и им пригодится вся их магия и отвага.Немало препятствий встанет на пути наших старых знакомых Аладдина, принцессы Джасмин, Абу, Коврика и (конечно же!) Джинна. Тут и сражения с ворами на летающих лошадях, и объятые пламенем клокочущие расщелины с лавой. Но отступить нельзя ведь на кону судьба всего королевства!

Качество: DVDRipФормат: AVIВидео кодек: XviDАудио кодек: AC-3Видео: 720x544 (4/3), 25.000 fps, 2 671 Kbps (0.273 bit/pixel)Аудио: 48.0 KHz, 2 ch, 192 Kbps, CBR (Russian)

Аладдин 3: Аладдин и король разбойников/Aladdin 3: Aladdin and the King of Thieves

Год выпуска: 1995Страна: СШАЖанр: мультфильм, мюзикл, фэнтези, мелодрама, семейныйПродолжительность: 01:18:31Перевод: Профессиональный (полное дублирование)Субтитры: ОтсутствуютРежиссер: Тэд СтоунсВ ролях: Робин Уильямс, Скотт Венгер, Линда Ларкин, Джон Рис-Дэвис, Гилберт Готтфрид, Джерри Орбак, Вэл Бэттин, Фрэнк Уэлкер, Джефф Беннетт, Джим Каммингс

Описание: Все жители Аграбы дружно готовятся к величайшему празднику вот-вот состоится долгожданная свадьба Аладдина и принцессы Жасмин! Но сначала нашему герою придется остановить легендарную шайку сорока разбойников ведь они хотят похитить свадебный подарок всевидящего Оракула, с помощью которого злодеи хотят отыскать и прибрать к своим рукам все сокровища мира.Аладдину и его неразлучным друзьям Жасмин, Абу, Коврику и весельчаку Джинну придется пережить немало приключений и найти выход из самых безвыходных ситуаций в погоне за Королем Разбойников и его удалой безжалостной шайкой.

Качество: DVDRipФормат: AVIВидео кодек: XviDАудио кодек: AC-3Видео: 720x384 (1.875), 25.000 fps, 2 232 Kbps (0.323 bit/pixel)Аудио: 48.0 KHz, 2 ch, 192 Kbps, CBR (Russian)

Скачать Аладдин через торрент http://pic.pb.wtf/images/2011/wfu6kua8tf.jpg Скачать фильм Аладдин через торрент бесплантно в хорошем качестве Описание: В славном граде Аграба живет Аладдин, веселый воришка с золотым сердцем. Живет и не знает, что вскоре его ждет величайшее ... 2011-11-23 00:47 9.9 10 7

Loading...

Loading...

Рекламный пират

23-11-2011 04:17 Аладдин Скачать торрент  

Первая часть лучшая! =)

23-11-2011 06:22 Аладдин Скачать торрент  

1 и 2 часть смотрел в детстве на VHS-кассетах, а вот про третью знать не знал.

23-11-2011 09:58 Аладдин Скачать торрент  

МордаТочно такая же ситуация тоже в детстве видел на касетах 2 части а про 3 узнал не давно

28-11-2011 21:23 Аладдин Скачать торрент  

TrustНесмотря на большой размер постера ставлю, проверено.

Дорогой пользователь! Огромная просьба, поблагодарите релизера, оцените раздачу и оставьте свои комментарий, если Вы скачали Аладдин через торрент бесплатно! Внесите свою лепту в развитие PiratBit!

Комментировать посты могут только пользователи прошедшие не сложную регистрацию

Аладдин через торрент Скачать бесплатно Аладдин Аладдин скачать торрент Аладдин смотреть онлайн Cкачать фильм Аладдин бесплатно Аладдин скачать торрент в хорошем качестве Аладдин смотреть онлайн бесплатно в хорошем качестве

Вы не можете начинать темыВы не можете отвечать на сообщенияВы не можете редактировать свои сообщенияВы не можете удалять свои сообщенияВы не можете голосовать в опросахВы не можете прикреплять файлы к сообщениямВы можете скачивать файлы

Алладин (СЕРИАЛ)+3 Полнометражки. скачать торрент

Название: Алладин (серии 1-86 + 3 полнометражки) Оригинальное название: Aladdin Год выхода: 1991-1996 Жанр: Комедия Студия: Уолта Диснея Режиссер: Уолта Дисней

ОПИСАНИЕ Описание: «Аладдин» (англ. Aladdin) — полнометражный мультипликационный фильм, созданный студией Уолта Диснея в 1992 году. Фильм снят по мотивам известной сказки об Аладдине из «1001 ночи». Мультфильм стал одной из самых успешных картин студии, получив две премии «Оскар». Было выпущено продолжение в виде телесериала (который, в отличие от полнометражной версии, не имеет особенного успеха), а также два полнометражных продолжения: «Возвращение Джафара» (1994) и «Аладдин и король разбойников» (1996). Для любой зрительской аудитории. ГЕРОИ Аладдин — симпатичный бездомный юноша, мелкий воришка. Изобретательный, ловкий, добрый, мечтает разбогатеть. * Абу — его ручная обезьянка, помогает хозяину воровать. * Жасмин — принцесса Аграбы. Независимая и гордая девушка, очень красивая. Всеми силами противится насильственному браку. * Джафар — великий визирь Аграбы, по традиции — главный злодей. Пользуется полным доверием простачка-султана, которого гипнотизирует своим волшебным посохом. Властолюбивый, хитрый и жестокий человек, не без мрачного юмора. * Яго — попугай, наверное, единственное существо, к которому Джафар питает нечто вроде симпатии. Болтливый, с замашками садиста, постоянно попадает в дурацкие ситуации. * Джинн — раб лампы, волшебное существо, обожающее менять облик. Добрый, весьма легковерный, забавный. * Султан — отец Жасмин, султан Аграбы. Невысокий дедушка-толстячок, простак с чертами инфантилизма. * Волшебный Ковёр — или просто Коврик, является не просто волшебной вещью (ковром-самолётом), но разумным существом, хоть и не умеющим разговаривать. Похоже, является старым приятелем Джинна, первоначально ссорится с Абу, но позже они становятся лучшими друзьями.

СЕРИИ Полнометражки: Aladdin Aladdin - The Return of Jafar Aladdin and the King of Thieves Сериал: 1. Air Feather Friends 2. Bad Mood Rising 3. To Cure a Thief 4. Do the Rat Thing 5. Never Say Nefir 6. Getting the Bugs Out 7. The Vapor Chase 8. Garden of Evil 9. Much Abu About Something 10. My Fair Aladdin 11. Some Enchanted Genie 12. Web of Fear 13. Mudder's Day 14. Plunder the Sea 15. Strike Up the Sand 16. I Never Mechanism I Didn't Like 17. Fowl Weather 18. Forget Me Lots 19. Scare Necessities 20. Sand Switch 21. Lost and Founded 22. Moonlight Madness 23. The Flawed Couple 24. Rain of Terror 25. Dune Quixote 26. The Day the Bird Stood Still 27. Of Ice and Men 28. Opposites Detract 29. Caught by the Tale 30. Elemental, My Dear Jasmine 31. Smolder and Wiser 32. The Game 33. Snowman is an Island 34. The Animal Kingdom 35. Power to the Parrot 36. The Sands of Fate 37. The Citadel 38. Poor Iago 39. The Secret of Dagger Rock 40. In the Heat of the Fright 41. The Seven Faces of Genie 42. The Wind Jackal of Mozenrath 43. A Clockwork Hero 44. Mission Imp Possible 45. Stinkerbelle 46. Shadow of a Doubt 47. Smells like trouble 48. The Way We War 49. Night of the Living Mud 50. Egg-stra Protection 51. Heads, You Lose 52. The Love Bug 53. The Sheep Taker 54. Armored and Dangerous 55. Shark Treatment 56. Black Sand 57. Love at First Sprite 58. Vocal Hero 59. The Lost City of the Sun 60. As the Netherworld Turns 61. Seems Like Old Crimes (part one) 62. Seems Like Old Crimes (part two) 63. From Hippsodeth, With Love 64. Destiny of Fire 65. The Return of Malcho 66. Raiders of the Lost Shark 67. Sneeze the Day 68. The Profit Motive 69. That Stinking Feeling 70. Beast or Famine 71. The Spice Is Right 72. Hero with a Thousand Feathers 73. Witch Way Did She Go? 74. Sea No Evil 75. A Sultan Worth His Salt 76. Genie Hunt 77. The Lost Ones 78. Eye of the Beholder 79. The Hunted 80. Riders Redux 81. The Book of Khartoum 82. While the City Snoozes 83. Two to Tangle 84. The Ethereal 85. The Shadow Knows 86. The Great Rift

ФАЙЛЫ Качество: SATRip / (несколько серий TVRip) Формат: DivX Видео: DivX, 640 x 480, 500 kbps Звук: MP3, 128kbps, 48kHz/2ch Размер: 20 GB Длительность: 33:33:00 Перевод: Дублированный

torrent-games.net

rutor.org :: Аладдин / Aladdin (1992) BDRip 1080p ::: Скачать торрент

main-rutor.org

Информация о фильмеНазвание: АладдинОригинальное название: AladdinГод выхода: 1992Жанр: мультфильм, мюзикл, фэнтези, мелодрама, комедия, приключения, семейныйРежиссер: Рон Клементс, Джон МаскерРоли озвучивали: Скотт Венгер, Робин Уильямс, Линда Ларкин, Джонатан Фриман, Фрэнк Уэлкер, Гилберт Готтфрид, Дуглас Сил, Чарльз Адлер, Джек Эйнджел, Кори Бертон

О фильме: В славном граде Аграба живет Аладдин, веселый воришка с золотым сердцем. Живет и не знает, что вскоре его ждет величайшее приключение в жизни. Ведь только с его помощью черный маг Джафар может овладеть невероятным сокровищем — лампой, в которой заключен исполняющий желания могущественный Джинн. И только хитроумие, смекалка и доброта Аладдина и его друзей — обезьянки Абу, принцессы Жасмин и самого Джинна способны помешать Джафару завладеть лампой и захватить власть над миром…

Выпущено: СШАПродолжительность: 01:30:39Перевод: Дублированный + Оригинал

ФайлКодек: x264Качество: BDRip 1080pВидео: 1920x1040, 7828 Kbps, 23.976 fpsАудио #1: AC-3, 6 ch, 640 kbps (Rus)Аудио #2: AC-3, 6 ch, 640 kbps (Eng)Субтитры: Русские (полные, форсированные, на песни), Английские (полные, песни)(спасибо NArniec)

MI

Общее Уникальный идентификатор : 213248325667729058722207391779722699165 (0xA06E223391DBA83B8626B6FF48FD219D) Полное имя : Аладдин.1992.BDRip.1080p.Rus.Eng.mkv Формат : Matroska Версия формата : Version 2 Размер файла : 5,77 Гбайт Продолжительность : 1 ч. 30 м. Общий поток : 9111 Кбит/сек Название фильма : Аладдин.1992 Дата кодирования : UTC 2013-12-21 15:31:18 Программа кодирования : mkvmerge v5.8.0 ('No Sleep / Pillow') built on Sep 2 2012 15:37:04 Библиотека кодирования : libebml v1.2.3 + libmatroska v1.3.0

Видео Идентификатор : 1 Формат : AVC Формат/Информация : Advanced Video Codec Профиль формата : [email protected] Параметр CABAC формата : Да Параметр ReFrames формата : 4 кадра Идентификатор кодека : V_MPEG4/ISO/AVC Продолжительность : 1 ч. 30 м. Битрейт : 7828 Кбит/сек Ширина : 1920 пикселей Высота : 1040 пикселей Соотношение сторон : 1,85:1 Режим частоты кадров : Постоянный Частота кадров : 23,976 кадра/сек Цветовое пространство : YUV Субдискретизация насыщенности : 4:2:0 Битовая глубина : 8 бит Тип развёртки : Прогрессивная Бит/(Пиксели*Кадры) : 0.164 Размер потока : 4,84 Гбайт (84%) Заголовок : Rip by Boriy Библиотека кодирования : x264 core 140 r2377 1ca7bb9 Настройки программы : cabac=1 / ref=4 / deblock=1:0:0 / analyse=0x3:0x113 / me=umh / subme=11 / psy=1 / psy_rd=1.00:0.00 / mixed_ref=1 / me_range=32 / chroma_me=1 / trellis=2 / 8x8dct=1 / cqm=0 / deadzone=21,11 / fast_pskip=0 / chroma_qp_offset=-2 / threads=12 / lookahead_threads=1 / sliced_threads=0 / nr=0 / decimate=0 / interlaced=0 / bluray_compat=0 / constrained_intra=0 / bframes=6 / b_pyramid=2 / b_adapt=2 / b_bias=0 / direct=3 / weightb=1 / open_gop=0 / weightp=2 / keyint=240 / keyint_min=23 / scenecut=40 / intra_refresh=0 / rc=2pass / mbtree=0 / bitrate=7828 / ratetol=1.0 / qcomp=0.60 / qpmin=0 / qpmax=69 / qpstep=4 / cplxblur=20.0 / qblur=0.5 / ip_ratio=1.40 / pb_ratio=1.30 / aq=1:0.80 Язык : English Default : Да Forced : Нет

Аудио #1 Идентификатор : 2 Формат : AC-3 Формат/Информация : Audio Coding 3 Расширение режима : CM (complete main) Параметр Endianness формата : Big Идентификатор кодека : A_AC3 Продолжительность : 1 ч. 30 м. Вид битрейта : Постоянный Битрейт : 640 Кбит/сек Каналы : 6 каналов Расположение каналов : Front: L C R, Side: L R, LFE Частота : 48,0 КГц Битовая глубина : 16 бит Метод сжатия : С потерями Размер потока : 415 Мбайт (7%) Заголовок : Дубляж Язык : Russian Default : Да Forced : Нет

Аудио #2 Идентификатор : 3 Формат : AC-3 Формат/Информация : Audio Coding 3 Расширение режима : CM (complete main) Параметр Endianness формата : Big Идентификатор кодека : A_AC3 Продолжительность : 1 ч. 30 м. Вид битрейта : Постоянный Битрейт : 640 Кбит/сек Каналы : 6 каналов Расположение каналов : Front: L C R, Side: L R, LFE Частота : 48,0 КГц Битовая глубина : 16 бит Метод сжатия : С потерями Размер потока : 415 Мбайт (7%) Заголовок : Оригинал Язык : English Default : Нет Forced : Нет

Текст #1 Идентификатор : 4 Формат : UTF-8 Идентификатор кодека : S_TEXT/UTF8 Идентификатор кодека/Информация : UTF-8 Plain Text Заголовок : Forced Язык : Russian Default : Да Forced : Да

Текст #2 Идентификатор : 5 Формат : UTF-8 Идентификатор кодека : S_TEXT/UTF8 Идентификатор кодека/Информация : UTF-8 Plain Text Заголовок : Songs Язык : Russian Default : Нет Forced : Нет

Текст #3 Идентификатор : 6 Формат : UTF-8 Идентификатор кодека : S_TEXT/UTF8 Идентификатор кодека/Информация : UTF-8 Plain Text Заголовок : Full Язык : Russian Default : Нет Forced : Нет

Текст #4 Идентификатор : 7 Формат : UTF-8 Идентификатор кодека : S_TEXT/UTF8 Идентификатор кодека/Информация : UTF-8 Plain Text Заголовок : Songs Язык : English Default : Нет Forced : Нет

Текст #5 Идентификатор : 8 Формат : UTF-8 Идентификатор кодека : S_TEXT/UTF8 Идентификатор кодека/Информация : UTF-8 Plain Text Заголовок : Full Язык : English Default : Нет Forced : Нет

Меню 00:00:00.000 : :Chapter 1 00:03:06.060 : :Chapter 2 00:06:47.323 : :Chapter 3 00:12:37.423 : :Chapter 4 00:16:34.618 : :Chapter 5 00:19:39.052 : :Chapter 6 00:23:50.470 : :Chapter 7 00:27:39.324 : :Chapter 8 00:31:21.629 : :Chapter 9 00:34:55.676 : :Chapter 10 00:37:20.363 : :Chapter 11 00:41:13.387 : :Chapter 12 00:43:32.860 : :Chapter 13 00:47:17.042 : :Chapter 14 00:48:39.958 : :Chapter 15 00:55:20.025 : :Chapter 16 00:57:37.745 : :Chapter 17 01:03:04.906 : :Chapter 18 01:07:24.915 : :Chapter 19 01:10:07.411 : :Chapter 20 01:10:41.654 : :Chapter 21 01:15:31.610 : :Chapter 22 01:18:57.983 : :Chapter 23 01:21:41.438 : :Chapter 24 01:25:43.555 : :Chapter 25

x264

x264 [info]: frame I:1094 Avg QP:13.26 size:264486 x264 [info]: frame P:37639 Avg QP:16.33 size: 79444 x264 [info]: frame B:91693 Avg QP:18.06 size: 22291

Смотрите также